osu file format v14

[General]
AudioFilename: audio.mp3
AudioLeadIn: 0
PreviewTime: 10744
Countdown: 0
SampleSet: Soft
StackLeniency: 0.7
Mode: 1
LetterboxInBreaks: 0
WidescreenStoryboard: 1

[Editor]
DistanceSpacing: 1.5
BeatDivisor: 4
GridSize: 32
TimelineZoom: 2.3

[Metadata]
Title:press start
TitleUnicode:press start
Artist:Kola Kid
ArtistUnicode:Kola Kid
Creator:Stingy
Version:oni
Source:
Tags:bitpop electro 8bit 8-bit breakcore bubblegumbass chiptune trap CASH MACHINE GO! pixel electronic instrumental
BeatmapID:1441373
BeatmapSetID:627664

[Difficulty]
HPDrainRate:6
CircleSize:2
OverallDifficulty:6
ApproachRate:10
SliderMultiplier:1.4
SliderTickRate:1

[Events]
//Background and Video events
0,0,"pixel-background-wallpaper-2.jpg",0,-150
//Break Periods
//Storyboard Layer 0 (Background)
//Storyboard Layer 1 (Fail)
//Storyboard Layer 2 (Pass)
//Storyboard Layer 3 (Foreground)
//Storyboard Layer 4 (Overlay)
//Storyboard Sound Samples

[TimingPoints]
1219,300,4,2,1,60,1,0
10819,-100,4,2,1,60,0,0
15619,-100,4,2,1,60,0,0
20419,-100,4,2,1,70,0,1
30019,-100,4,2,1,60,0,0

[Colours]
Combo1 : 255,113,84
Combo2 : 255,198,84

[HitObjects]
256,192,1219,5,8,0:0:0:0:
256,192,1369,1,0,0:0:0:0:
256,192,1519,1,8,0:0:0:0:
256,192,1669,1,0,0:0:0:0:
256,192,1819,1,8,0:0:0:0:
256,192,1969,1,8,0:0:0:0:
256,192,2119,1,0,0:0:0:0:
256,192,2269,1,0,0:0:0:0:
256,192,2419,1,8,0:0:0:0:
256,192,2569,1,8,0:0:0:0:
256,192,2719,1,0,0:0:0:0:
256,192,2869,1,8,0:0:0:0:
256,192,3019,1,0,0:0:0:0:
256,192,3169,1,0,0:0:0:0:
256,192,3319,1,8,0:0:0:0:
256,192,3619,1,8,0:0:0:0:
256,192,3769,1,0,0:0:0:0:
256,192,3919,1,0,0:0:0:0:
256,192,4069,1,8,0:0:0:0:
256,192,4219,1,0,0:0:0:0:
256,192,4369,1,8,0:0:0:0:
256,192,4519,1,8,0:0:0:0:
256,192,4669,1,0,0:0:0:0:
256,192,4819,1,8,0:0:0:0:
256,192,5119,1,8,0:0:0:0:
256,192,5269,1,0,0:0:0:0:
256,192,5419,1,8,0:0:0:0:
256,192,5719,1,8,0:0:0:0:
256,192,6019,1,8,0:0:0:0:
256,192,6169,1,0,0:0:0:0:
256,192,6319,1,8,0:0:0:0:
256,192,6469,1,0,0:0:0:0:
256,192,6619,1,8,0:0:0:0:
256,192,6769,1,8,0:0:0:0:
256,192,6919,1,0,0:0:0:0:
256,192,7069,1,8,0:0:0:0:
256,192,7369,1,8,0:0:0:0:
256,192,7519,1,8,0:0:0:0:
256,192,7669,1,0,0:0:0:0:
256,192,7819,1,8,0:0:0:0:
256,192,7969,1,8,0:0:0:0:
256,192,8119,1,0,0:0:0:0:
256,192,8419,1,8,0:0:0:0:
256,192,8569,1,0,0:0:0:0:
256,192,8719,1,8,0:0:0:0:
256,192,9019,1,8,0:0:0:0:
256,192,9319,1,0,0:0:0:0:
256,192,9469,1,8,0:0:0:0:
256,192,9769,1,8,0:0:0:0:
256,192,9919,1,8,0:0:0:0:
256,192,10069,1,0,0:0:0:0:
256,192,10219,1,8,0:0:0:0:
256,192,10369,1,8,0:0:0:0:
256,192,10519,1,0,0:0:0:0:
256,192,10819,1,0,0:0:0:0:
256,192,10969,1,8,0:0:0:0:
256,192,11119,1,0,0:0:0:0:
256,192,11269,1,0,0:0:0:0:
256,192,11419,1,8,0:0:0:0:
256,192,11719,1,0,0:0:0:0:
256,192,11794,1,0,0:0:0:0:
256,192,11869,1,0,0:0:0:0:
256,192,12019,1,8,0:0:0:0:
256,192,12169,1,8,0:0:0:0:
256,192,12319,1,8,0:0:0:0:
256,192,12394,1,0,0:0:0:0:
256,192,12469,1,0,0:0:0:0:
256,192,12619,1,0,0:0:0:0:
256,192,12769,1,8,0:0:0:0:
256,192,12919,1,0,0:0:0:0:
256,192,13219,1,0,0:0:0:0:
256,192,13369,1,8,0:0:0:0:
256,192,13519,1,0,0:0:0:0:
256,192,13594,1,0,0:0:0:0:
256,192,13669,1,0,0:0:0:0:
256,192,13819,1,8,0:0:0:0:
256,192,14119,1,0,0:0:0:0:
256,192,14194,1,0,0:0:0:0:
256,192,14269,1,0,0:0:0:0:
256,192,14419,1,8,0:0:0:0:
256,192,14569,1,8,0:0:0:0:
256,192,14719,1,0,0:0:0:0:
256,192,14794,1,0,0:0:0:0:
256,192,14869,1,8,0:0:0:0:
256,192,15019,1,0,0:0:0:0:
256,192,15169,1,8,0:0:0:0:
256,192,15319,1,8,0:0:0:0:
256,192,15394,1,8,0:0:0:0:
256,192,15469,1,0,0:0:0:0:
256,192,15619,1,0,0:0:0:0:
256,192,15769,1,8,0:0:0:0:
256,192,15919,1,0,0:0:0:0:
256,192,16069,1,0,0:0:0:0:
256,192,16219,1,8,0:0:0:0:
256,192,16519,1,0,0:0:0:0:
256,192,16594,1,0,0:0:0:0:
256,192,16669,1,0,0:0:0:0:
256,192,16819,1,8,0:0:0:0:
256,192,16969,1,8,0:0:0:0:
256,192,17119,1,0,0:0:0:0:
256,192,17194,1,0,0:0:0:0:
256,192,17269,1,8,0:0:0:0:
256,192,17419,1,0,0:0:0:0:
256,192,17569,1,8,0:0:0:0:
256,192,17719,1,0,0:0:0:0:
256,192,18019,1,0,0:0:0:0:
256,192,18169,1,8,0:0:0:0:
256,192,18319,1,0,0:0:0:0:
256,192,18394,1,0,0:0:0:0:
256,192,18469,1,0,0:0:0:0:
256,192,18619,1,8,0:0:0:0:
256,192,18919,1,0,0:0:0:0:
256,192,18994,1,0,0:0:0:0:
256,192,19069,1,0,0:0:0:0:
256,192,19219,1,8,0:0:0:0:
256,192,19369,1,8,0:0:0:0:
256,192,19519,1,0,0:0:0:0:
256,192,19594,1,0,0:0:0:0:
256,192,19669,1,8,0:0:0:0:
256,192,19819,1,0,0:0:0:0:
256,192,19969,1,8,0:0:0:0:
256,192,20119,1,4,0:0:0:0:
256,192,20419,5,0,0:0:0:0:
256,192,20494,1,0,0:0:0:0:
256,192,20569,1,0,0:0:0:0:
256,192,20719,1,8,0:0:0:0:
256,192,20869,1,0,0:0:0:0:
256,192,20944,1,8,0:0:0:0:
256,192,21019,1,0,0:0:0:0:
256,192,21094,1,0,0:0:0:0:
256,192,21169,1,8,0:0:0:0:
256,192,21319,1,0,0:0:0:0:
256,192,21469,1,8,0:0:0:0:
256,192,21619,1,0,0:0:0:0:
256,192,21769,1,0,0:0:0:0:
256,192,21919,1,8,0:0:0:0:
256,192,22069,1,0,0:0:0:0:
256,192,22144,1,0,0:0:0:0:
256,192,22219,1,8,0:0:0:0:
256,192,22369,1,8,0:0:0:0:
256,192,22519,1,0,0:0:0:0:
256,192,22819,1,0,0:0:0:0:
256,192,22894,1,0,0:0:0:0:
256,192,22969,1,0,0:0:0:0:
256,192,23044,1,0,0:0:0:0:
256,192,23119,1,8,0:0:0:0:
256,192,23269,1,8,0:0:0:0:
256,192,23344,1,8,0:0:0:0:
256,192,23419,1,0,0:0:0:0:
256,192,23494,1,0,0:0:0:0:
256,192,23569,1,8,0:0:0:0:
256,192,23719,1,0,0:0:0:0:
256,192,23869,1,8,0:0:0:0:
256,192,24019,1,0,0:0:0:0:
256,192,24169,1,0,0:0:0:0:
256,192,24319,1,8,0:0:0:0:
256,192,24469,1,8,0:0:0:0:
256,192,24544,1,8,0:0:0:0:
256,192,24619,1,0,0:0:0:0:
256,192,24769,1,0,0:0:0:0:
256,192,24919,1,8,0:0:0:0:
256,192,25219,1,0,0:0:0:0:
256,192,25294,1,0,0:0:0:0:
256,192,25369,1,0,0:0:0:0:
256,192,25519,1,8,0:0:0:0:
256,192,25669,1,0,0:0:0:0:
256,192,25744,1,8,0:0:0:0:
256,192,25819,1,0,0:0:0:0:
256,192,25894,1,0,0:0:0:0:
256,192,25969,1,8,0:0:0:0:
256,192,26119,1,0,0:0:0:0:
256,192,26269,1,8,0:0:0:0:
256,192,26419,1,0,0:0:0:0:
256,192,26569,1,0,0:0:0:0:
256,192,26719,1,8,0:0:0:0:
256,192,26869,1,8,0:0:0:0:
256,192,26944,1,8,0:0:0:0:
256,192,27019,1,0,0:0:0:0:
256,192,27094,1,0,0:0:0:0:
256,192,27169,1,8,0:0:0:0:
256,192,27319,1,0,0:0:0:0:
256,192,27619,1,0,0:0:0:0:
256,192,27694,1,0,0:0:0:0:
256,192,27769,1,0,0:0:0:0:
256,192,27919,1,8,0:0:0:0:
256,192,28069,1,8,0:0:0:0:
256,192,28144,1,8,0:0:0:0:
256,192,28219,1,0,0:0:0:0:
256,192,28369,1,8,0:0:0:0:
256,192,28519,1,0,0:0:0:0:
256,192,28669,1,0,0:0:0:0:
256,192,28819,1,8,0:0:0:0:
256,192,28894,1,8,0:0:0:0:
256,192,28969,1,8,0:0:0:0:
256,192,29119,1,0,0:0:0:0:
256,192,29194,1,0,0:0:0:0:
256,192,29269,1,0,0:0:0:0:
256,192,29419,1,0,0:0:0:0:
256,192,29494,1,0,0:0:0:0:
256,192,29569,1,8,0:0:0:0:
256,192,29719,1,0,0:0:0:0:
256,192,29869,1,8,0:0:0:0:
256,192,29944,1,8,0:0:0:0:
256,192,30019,5,8,0:0:0:0:
256,192,30169,1,0,0:0:0:0:
256,192,30319,1,8,0:0:0:0:
256,192,30469,1,0,0:0:0:0:
256,192,30619,1,8,0:0:0:0:
256,192,30769,1,8,0:0:0:0:
256,192,30919,1,0,0:0:0:0:
256,192,31069,1,0,0:0:0:0:
256,192,31219,1,8,0:0:0:0:
256,192,31369,1,8,0:0:0:0:
256,192,31519,1,0,0:0:0:0:
256,192,31669,1,8,0:0:0:0:
256,192,31819,1,0,0:0:0:0:
256,192,31969,1,0,0:0:0:0:
256,192,32119,1,8,0:0:0:0:
256,192,32419,1,8,0:0:0:0:
256,192,32569,1,0,0:0:0:0:
256,192,32719,1,0,0:0:0:0:
256,192,32869,1,8,0:0:0:0:
256,192,33019,1,0,0:0:0:0:
256,192,33169,1,8,0:0:0:0:
256,192,33319,1,8,0:0:0:0:
256,192,33469,1,0,0:0:0:0:
256,192,33619,1,8,0:0:0:0:
256,192,33769,1,0,0:0:0:0:
256,192,33919,1,8,0:0:0:0:
256,192,34069,1,0,0:0:0:0:
256,192,34219,1,8,0:0:0:0:
256,192,34369,1,0,0:0:0:0:
256,192,34519,1,8,0:0:0:0:
256,192,34819,1,8,0:0:0:0:
256,192,34969,1,0,0:0:0:0:
256,192,35119,1,8,0:0:0:0:
256,192,35269,1,0,0:0:0:0:
256,192,35419,1,8,0:0:0:0:
256,192,35569,1,8,0:0:0:0:
256,192,35719,1,0,0:0:0:0:
256,192,35869,1,8,0:0:0:0:
256,192,36169,1,8,0:0:0:0:
256,192,36319,1,8,0:0:0:0:
256,192,36469,1,0,0:0:0:0:
256,192,36619,1,8,0:0:0:0:
256,192,36769,1,8,0:0:0:0:
256,192,36919,1,0,0:0:0:0:
256,192,37219,1,8,0:0:0:0:
256,192,37369,1,0,0:0:0:0:
256,192,37519,1,8,0:0:0:0:
256,192,37669,1,0,0:0:0:0:
256,192,37819,1,8,0:0:0:0:
256,192,38119,1,0,0:0:0:0:
256,192,38269,1,8,0:0:0:0:
256,192,38569,1,8,0:0:0:0:
256,192,38719,1,8,0:0:0:0:
256,192,38869,1,0,0:0:0:0:
256,192,39019,1,8,0:0:0:0:
256,192,39169,1,0,0:0:0:0:
256,192,39319,1,8,0:0:0:0:
256,192,39619,1,0,0:0:0:0:
