osu file format v14

[General]
AudioFilename: audio.mp3
AudioLeadIn: 0
PreviewTime: 10744
Countdown: 0
SampleSet: Soft
StackLeniency: 0.7
Mode: 1
LetterboxInBreaks: 0
WidescreenStoryboard: 1

[Editor]
DistanceSpacing: 1.5
BeatDivisor: 2
GridSize: 32
TimelineZoom: 3.099999

[Metadata]
Title:press start
TitleUnicode:press start
Artist:Kola Kid
ArtistUnicode:Kola Kid
Creator:Stingy
Version:kantan
Source:
Tags:bitpop electro 8bit 8-bit breakcore bubblegumbass chiptune trap CASH MACHINE GO! pixel electronic instrumental
BeatmapID:1441372
BeatmapSetID:627664

[Difficulty]
HPDrainRate:8
CircleSize:2
OverallDifficulty:3.5
ApproachRate:10
SliderMultiplier:1.4
SliderTickRate:1

[Events]
//Background and Video events
0,0,"pixel-background-wallpaper-2.jpg",0,-150
//Break Periods
//Storyboard Layer 0 (Background)
//Storyboard Layer 1 (Fail)
//Storyboard Layer 2 (Pass)
//Storyboard Layer 3 (Foreground)
//Storyboard Layer 4 (Overlay)
//Storyboard Sound Samples

[TimingPoints]
1219,300,4,2,1,60,1,0
10819,-100,4,2,1,60,0,0
15619,-100,4,2,1,60,0,0
20419,-100,4,2,1,70,0,1
30019,-100,4,2,1,60,0,0

[Colours]
Combo1 : 255,113,84
Combo2 : 255,198,84

[HitObjects]
256,192,1219,5,0,0:0:0:0:
256,192,1819,1,0,0:0:0:0:
256,192,2419,1,8,0:0:0:0:
256,192,3619,1,0,0:0:0:0:
256,192,4219,1,8,0:0:0:0:
256,192,4819,1,0,0:0:0:0:
256,192,5119,1,0,0:0:0:0:
256,192,5419,1,8,0:0:0:0:
256,192,6019,1,8,0:0:0:0:
256,192,6619,1,0,0:0:0:0:
256,192,7219,1,0,0:0:0:0:
256,192,8419,1,8,0:0:0:0:
256,192,9019,1,0,0:0:0:0:
256,192,9619,1,8,0:0:0:0:
256,192,9919,1,0,0:0:0:0:
256,192,10219,1,8,0:0:0:0:
256,192,10819,1,0,0:0:0:0:
256,192,11419,1,8,0:0:0:0:
256,192,12319,1,0,0:0:0:0:
256,192,12619,1,8,0:0:0:0:
256,192,13219,1,0,0:0:0:0:
256,192,13819,1,8,0:0:0:0:
256,192,14719,1,8,0:0:0:0:
256,192,15019,1,8,0:0:0:0:
256,192,15619,1,0,0:0:0:0:
256,192,16219,1,8,0:0:0:0:
256,192,17119,1,0,0:0:0:0:
256,192,17419,1,8,0:0:0:0:
256,192,18019,1,0,0:0:0:0:
256,192,18619,1,8,0:0:0:0:
256,192,19519,1,8,0:0:0:0:
256,192,19819,1,8,0:0:0:0:
256,192,20119,1,0,0:0:0:0:
256,192,20419,1,0,0:0:0:0:
256,192,21019,1,8,0:0:0:0:
256,192,21619,1,0,0:0:0:0:
256,192,21919,1,0,0:0:0:0:
256,192,22219,1,8,0:0:0:0:
256,192,22819,1,0,0:0:0:0:
256,192,23419,1,8,0:0:0:0:
256,192,23719,1,0,0:0:0:0:
256,192,24019,1,0,0:0:0:0:
256,192,25219,1,0,0:0:0:0:
256,192,25819,1,8,0:0:0:0:
256,192,26419,1,0,0:0:0:0:
256,192,26719,1,8,0:0:0:0:
256,192,27019,1,8,0:0:0:0:
256,192,27619,1,0,0:0:0:0:
256,192,28219,1,8,0:0:0:0:
256,192,28819,1,0,0:0:0:0:
256,192,29719,1,8,0:0:0:0:
256,192,30019,5,0,0:0:0:0:
256,192,30619,1,0,0:0:0:0:
256,192,31219,1,8,0:0:0:0:
256,192,32419,1,0,0:0:0:0:
256,192,33019,1,8,0:0:0:0:
256,192,33619,1,0,0:0:0:0:
256,192,33919,1,0,0:0:0:0:
256,192,34219,1,8,0:0:0:0:
256,192,34819,1,8,0:0:0:0:
256,192,35419,1,0,0:0:0:0:
256,192,36019,1,0,0:0:0:0:
256,192,37219,1,8,0:0:0:0:
256,192,37819,1,0,0:0:0:0:
256,192,38419,1,8,0:0:0:0:
256,192,38719,1,0,0:0:0:0:
256,192,39019,1,8,0:0:0:0:
256,192,39619,1,0,0:0:0:0:
