osu file format v14

[General]
AudioFilename: audio.mp3
AudioLeadIn: 0
PreviewTime: 1200
Countdown: 0
SampleSet: None
StackLeniency: 1
Mode: 2
LetterboxInBreaks: 0
WidescreenStoryboard: 1

[Editor]
Bookmarks: 14100
DistanceSpacing: 0.6
BeatDivisor: 2
GridSize: 16
TimelineZoom: 1.3

[Metadata]
Title:press start
TitleUnicode:press start
Artist:Kola Kid
ArtistUnicode:Kola Kid
Creator:Dapuluous
Version:Hex's Cup
Source:
Tags:Bitpop Electro 8bit 8-bit breakcore bubblegumbass chiptune trap CASH MACHINE GO! -Hex- -wwwww Sanyi Fii Kaitlin
BeatmapID:1324963
BeatmapSetID:626831

[Difficulty]
HPDrainRate:3
CircleSize:2.5
OverallDifficulty:6
ApproachRate:6
SliderMultiplier:1
SliderTickRate:1

[Events]
//Background and Video events
0,0,"78.jpg",0,0
//Break Periods
//Storyboard Layer 0 (Background)
//Storyboard Layer 1 (Fail)
//Storyboard Layer 2 (Pass)
//Storyboard Layer 3 (Foreground)
//Storyboard Sound Samples

[TimingPoints]
1200,300.0003003003,4,3,1,45,1,0
10800,-100,4,3,1,45,0,0
20400,-100,4,1,1,65,0,1
30000,-100,4,3,1,45,0,0

[Colours]
Combo1 : 255,128,128
Combo2 : 0,145,0
Combo3 : 0,223,223
Combo4 : 255,255,0

[HitObjects]
368,192,1200,6,0,L|144:192,1,200,2|2,0:0|0:0,0:0:0:0:
64,192,2100,1,2,0:0:0:0:
176,192,2400,2,0,P|272:112|176:0,1,300,2|2,0:0|0:0,0:0:0:0:
304,32,3600,6,0,L|528:32,1,200,2|0,0:0|0:0,0:0:0:0:
368,192,4500,1,2,0:0:0:0:
240,192,4800,2,0,L|128:192,3,100,2|2|2|2,0:0|0:0|0:0|0:0,0:0:0:0:
272,128,6000,6,0,L|384:128,1,100,2|2,0:0|0:0,0:0:0:0:
240,224,6600,1,10,0:0:0:0:
192,224,6750,1,2,0:0:0:0:
304,224,7050,1,2,0:0:0:0:
112,112,7500,6,0,L|0:112,1,100,2|10,0:0|0:0,0:0:0:0:
144,192,8100,1,2,0:0:0:0:
288,208,8400,2,0,L|400:208,2,100,2|2|10,0:0|0:0|0:0,0:0:0:0:
144,128,9450,5,2,0:0:0:0:
272,128,9750,1,2,0:0:0:0:
400,128,10050,2,0,L|320:160,1,50,2|8,0:0|0:0,0:0:0:0:
224,128,10500,1,2,0:2:0:0:
80,192,10800,5,2,0:0:0:0:
208,256,11100,2,0,P|234:192|128:128,1,200
272,96,12000,2,0,L|336:176,1,100,2|0,0:0|0:0,0:0:0:0:
208,144,12600,1,8,0:0:0:0:
336,128,12900,1,0,0:0:0:0:
464,112,13200,5,2,0:0:0:0:
336,112,13500,2,0,L|128:112,1,200,0|0,0:0|0:0,0:0:0:0:
272,128,14400,2,0,L|272:256,1,100,0|0,0:0|0:0,0:0:0:0:
144,240,15000,1,8,0:0:0:0:
16,240,15300,1,0,0:0:0:0:
144,240,15600,5,0,0:0:0:0:
272,240,15900,2,0,P|304:128|224:80,1,200,0|0,0:0|0:0,0:0:0:0:
128,80,16800,2,0,L|240:80,1,100,0|0,0:0|0:0,0:0:0:0:
352,80,17400,1,8,0:0:0:0:
224,80,17700,1,0,0:0:0:0:
96,80,18000,5,0,0:0:0:0:
224,80,18300,2,0,L|432:80,1,200,0|0,0:0|0:0,0:0:0:0:
304,176,19200,2,0,P|320:224|288:272,1,100,0|0,0:0|0:0,0:0:0:0:
176,112,19800,2,0,P|192:32|224:32,1,100,8|2,0:0|0:0,0:0:0:0:
352,96,20400,6,0,L|352:224,1,100,0|8,0:3|0:3,0:0:0:0:
224,128,21000,2,0,L|112:128,1,100,0|8,0:3|0:3,0:0:0:0:
256,208,21600,2,0,L|384:208,1,100,0|8,0:3|0:3,0:0:0:0:
224,112,22200,2,0,L|224:240,1,100,2|8,0:2|0:3,0:0:0:0:
352,224,22800,5,2,0:3:0:0:
96,128,23400,1,0,0:3:0:0:
352,80,24000,2,0,L|480:80,1,100,2|8,0:3|0:3,0:0:0:0:
336,160,24600,2,0,L|208:160,1,100,0|8,0:3|0:3,0:0:0:0:
112,64,25200,6,0,L|112:176,1,100,0|8,0:3|0:3,0:0:0:0:
240,48,25800,2,0,L|240:160,1,100,0|8,0:3|0:3,0:0:0:0:
368,144,26400,2,0,L|256:144,1,100,0|8,0:3|0:3,0:0:0:0:
144,64,27000,2,0,L|272:64,1,100,0|8,0:3|0:3,0:0:0:0:
368,112,27600,5,0,0:3:0:0:
112,192,28200,1,0,0:3:0:0:
368,128,28800,2,0,L|480:128,1,100,2|8,0:3|0:3,0:0:0:0:
352,208,29400,2,0,P|336:160|336:112,1,100,0|10,0:0|0:0,0:0:0:0:
480,96,30000,6,0,L|240:96,1,200,2|10,0:2|0:0,0:0:0:0:
160,64,30900,1,2,0:0:0:0:
288,48,31200,2,0,P|384:160|288:208,1,300,2|2,0:0|0:0,0:0:0:0:
160,160,32400,6,0,L|384:160,1,200,2|8,0:0|0:0,0:0:0:0:
240,112,33300,1,2,0:0:0:0:
112,128,33600,2,0,L|-16:128,3,100,2|2|10|2,0:0|0:0|0:0|0:0,0:0:0:0:
144,80,34800,6,0,L|256:80,1,100,2|2,0:0|0:0,0:0:0:0:
112,144,35400,1,10,0:0:0:0:
64,144,35550,1,2,0:0:0:0:
176,144,35850,1,2,0:0:0:0:
368,96,36300,6,0,L|480:96,1,100,2|10,0:0|0:0,0:0:0:0:
336,176,36900,1,2,0:0:0:0:
208,176,37200,2,0,L|96:176,2,100,2|2|10,0:0|0:0|0:0,0:0:0:0:
384,176,38250,5,2,0:0:0:0:
256,176,38550,1,2,0:0:0:0:
384,96,38850,2,0,L|384:160,1,50,2|10,0:0|0:0,0:0:0:0:
256,208,39300,1,2,0:0:0:0:
112,208,39600,5,0,0:0:0:0:
