osu file format v14

[General]
AudioFilename: Kola Kid-press start.mp3
AudioLeadIn: 0
PreviewTime: 1200
Countdown: 1
SampleSet: None
StackLeniency: 0.6
Mode: 0
LetterboxInBreaks: 1
WidescreenStoryboard: 1

[Editor]
Bookmarks: 1200,10800
DistanceSpacing: 1.6
BeatDivisor: 4
GridSize: 8
TimelineZoom: 0.6999996

[Metadata]
Title:press start
TitleUnicode:press start
Artist:Kola Kid
ArtistUnicode:Kola Kid
Creator:Bonsai
Version:Normal
Source:
Tags:viptwo Zectro Chiptune Bitpop Electro 8-bit 8bit videogame chipmusic breakcore bubblegumbass trap
BeatmapID:1055373
BeatmapSetID:489383

[Difficulty]
HPDrainRate:3
CircleSize:3
OverallDifficulty:4
ApproachRate:5
SliderMultiplier:0.8
SliderTickRate:1

[Events]
//Background and Video events
0,0,"BG2.png",0,0
//Break Periods
//Storyboard Layer 0 (Background)
//Storyboard Layer 1 (Fail)
//Storyboard Layer 2 (Pass)
//Storyboard Layer 3 (Foreground)
//Storyboard Sound Samples

[TimingPoints]
1200,300.0003003003,4,3,1,35,1,0
10800,-100,4,3,1,45,0,0
20400,-100,4,3,1,50,0,1
30000,-100,4,3,1,35,0,0

[Colours]
Combo1 : 172,172,172
Combo2 : 40,185,255
Combo3 : 83,83,255
Combo4 : 202,137,2

[HitObjects]
416,368,1200,6,0,L|336:368,1,80,2|2,0:3|0:3,0:3:0:0:
336,288,1800,2,0,L|416:288,1,80,2|2,0:3|0:3,0:3:0:0:
416,208,2400,2,0,L|416:88,2,120,2|2|2,0:3|0:3|0:3,0:3:0:0:
336,208,3600,6,0,L|336:88,1,120,2|2,0:3|0:3,0:3:0:0:
256,88,4350,1,2,0:3:0:0:
256,128,4500,1,2,0:3:0:0:
176,128,4800,2,0,L|96:128,1,80,2|2,0:3|0:3,0:3:0:0:
16,128,5400,2,0,L|16:208,1,80,2|2,0:3|0:3,0:3:0:0:
16,288,6000,38,0,L|128:288,1,80,2|2,0:3|0:3,0:3:0:0:
176,288,6600,1,10,0:3:0:0:
176,248,6750,1,2,0:3:0:0:
256,248,7050,2,0,L|344:248,1,80,2|2,0:3|0:3,0:3:0:0:
376,248,7500,2,0,L|456:328,2,80,2|10|2,0:3|0:3|0:3,0:3:0:0:
376,168,8400,6,0,L|376:80,1,80,2|2,0:3|0:3,0:3:0:0:
376,8,9000,1,10,0:3:0:0:
256,8,9450,2,0,L|256:96,1,80,2|2,0:3|0:3,0:3:0:0:
256,168,10050,1,2,0:3:0:0:
216,168,10200,2,0,B|160:168|160:168|136:144,2,80,10|2|0,0:3|0:2|0:3,0:3:0:0:
216,208,10950,38,0,L|216:304,1,80,2|2,0:3|0:3,0:3:0:0:
216,328,11400,2,0,L|256:328,1,40,10|2,0:3|0:3,0:3:0:0:
336,328,11850,2,0,L|336:240,1,80,2|2,0:3|0:3,0:3:0:0:
336,208,12300,2,0,L|440:208,1,80,2|10,0:3|0:3,0:3:0:0:
416,128,12900,1,2,0:3:0:0:
376,128,13050,6,0,L|288:128,1,80,2|2,0:3|0:3,0:3:0:0:
256,128,13500,2,0,L|256:216,1,80,2|10,0:3|0:3,0:3:0:0:
176,208,14100,1,2,0:3:0:0:
176,168,14250,2,0,L|176:80,1,80,2|2,0:3|0:3,0:3:0:0:
176,48,14700,1,2,0:3:0:0:
96,48,15000,2,0,L|96:88,1,40,10|2,0:3|0:3,0:3:0:0:
16,88,15450,1,2,0:3:0:0:
16,168,15750,38,0,L|104:168,1,80,2|2,0:3|0:3,0:3:0:0:
136,168,16200,2,0,L|136:208,1,40,10|2,0:3|0:3,0:3:0:0:
216,208,16650,2,0,L|304:208,1,80,2|2,0:3|0:3,0:3:0:0:
336,208,17100,2,0,L|336:296,1,80,2|10,0:3|0:3,0:3:0:0:
416,288,17700,1,2,0:3:0:0:
416,248,17850,6,0,L|416:136,1,80,2|2,0:3|0:3,0:3:0:0:
416,128,18300,2,0,L|320:128,1,80,2|10,0:3|0:3,0:3:0:0:
336,208,18900,1,2,0:3:0:0:
296,208,19050,2,0,L|208:208,1,80,2|2,0:3|0:3,0:3:0:0:
176,208,19500,1,2,0:3:0:0:
176,128,19800,2,0,L|224:128,2,40,10|2|8,0:3|0:3|0:3,0:3:0:0:
176,48,20400,6,0,B|96:48|96:48|96:160,1,160,2|0,1:3|0:3,0:3:0:0:
96,208,21300,1,0,0:3:0:0:
176,208,21600,2,0,B|256:208|256:208|256:304,1,160,2|0,1:3|0:3,0:3:0:0:
256,368,22500,1,0,0:3:0:0:
336,368,22800,6,0,B|336:288|336:288|400:240|400:240,1,160,2|0,1:3|0:3,0:3:0:0:
464,192,23700,1,0,0:3:0:0:
400,144,24000,2,0,B|336:96|336:96|336:16,1,160,2|0,1:3|0:3,0:3:0:0:
256,16,24900,1,0,0:3:0:0:
176,16,25200,38,0,B|176:96|176:96|120:152|120:152|40:152,1,240,2|0,1:3|0:3,0:3:0:0:
40,72,26400,2,0,B|120:72|120:72|176:128|176:128|256:128,1,240,2|0,1:3|0:3,0:3:0:0:
256,48,27600,6,0,B|336:48|336:48|336:128|336:128|416:128,1,240,2|0,1:3|0:3,0:3:0:0:
416,48,28800,2,0,B|496:48|496:48|496:128,1,160,2|2,1:3|1:3,0:3:0:0:
496,208,29700,1,2,1:3:0:0:
416,208,30000,6,0,L|328:208,1,80,2|2,1:2|0:3,0:3:0:0:
256,208,30600,2,0,L|256:288,1,80,2|2,0:3|0:3,0:3:0:0:
256,368,31200,2,0,L|384:368,2,120,2|2|2,0:3|0:3|0:3,0:3:0:0:
176,368,32400,6,0,L|56:368,1,120,2|2,0:3|0:3,0:3:0:0:
56,288,33150,1,2,0:3:0:0:
96,288,33300,1,2,0:3:0:0:
96,208,33600,2,0,L|96:128,1,80,2|2,0:3|0:3,0:3:0:0:
176,128,34200,2,0,L|176:208,1,80,2|2,0:3|0:3,0:3:0:0:
176,288,34800,38,0,L|288:288,1,80,2|2,0:3|0:3,0:3:0:0:
336,288,35400,1,2,0:3:0:0:
336,248,35550,1,2,0:3:0:0:
416,248,35850,2,0,L|496:248,1,80,2|2,0:3|0:3,0:3:0:0:
496,208,36300,2,0,L|496:112,2,80,2|2|2,0:3|0:3|0:3,0:3:0:0:
416,208,37200,6,0,L|416:120,1,80,2|2,0:3|0:3,0:3:0:0:
416,48,37800,1,2,0:3:0:0:
296,48,38250,2,0,L|296:136,1,80,2|2,0:3|0:3,0:3:0:0:
296,208,38850,1,2,0:3:0:0:
256,208,39000,2,0,B|176:208,1,80,2|2,0:3|0:3,0:3:0:0:
176,128,39600,21,0,0:0:0:0:
