osu file format v14

[General]
AudioFilename: Kola Kid-press start.mp3
AudioLeadIn: 0
PreviewTime: 1200
Countdown: 1
SampleSet: None
StackLeniency: 0.6
Mode: 0
LetterboxInBreaks: 1
WidescreenStoryboard: 1

[Editor]
Bookmarks: 1200,10800
DistanceSpacing: 1.6
BeatDivisor: 4
GridSize: 8
TimelineZoom: 0.8999999

[Metadata]
Title:press start
TitleUnicode:press start
Artist:Kola Kid
ArtistUnicode:Kola Kid
Creator:Bonsai
Version:Hard
Source:
Tags:viptwo Zectro Chiptune Bitpop Electro 8-bit 8bit videogame chipmusic breakcore bubblegumbass trap
BeatmapID:1053760
BeatmapSetID:489383

[Difficulty]
HPDrainRate:4
CircleSize:4.7
OverallDifficulty:6
ApproachRate:7.5
SliderMultiplier:1.12
SliderTickRate:1

[Events]
//Background and Video events
0,0,"BG2.png",0,0
//Break Periods
//Storyboard Layer 0 (Background)
//Storyboard Layer 1 (Fail)
//Storyboard Layer 2 (Pass)
//Storyboard Layer 3 (Foreground)
//Storyboard Sound Samples

[TimingPoints]
1200,300.0003003003,4,3,1,40,1,0
10800,-100,4,3,1,45,0,0
20100,-76.9230769230769,4,3,1,45,0,0
20400,-100,4,3,1,50,0,1
21150,-84.7457627118644,4,3,1,50,0,1
21300,-100,4,3,1,50,0,1
24750,-97.0873786407767,4,3,1,50,0,1
25050,-100,4,3,1,50,0,1
25500,-97.0873786407767,4,3,1,50,0,1
25800,-100,4,3,1,50,0,1
27450,-97.0873786407767,4,3,1,50,0,1
27750,-100,4,3,1,50,0,1
30000,-100,4,3,1,35,0,0

[Colours]
Combo1 : 172,172,172
Combo2 : 40,185,255
Combo3 : 83,83,255
Combo4 : 202,137,2

[HitObjects]
232,136,1200,6,0,L|344:136,1,112,2|2,0:0|0:0,0:0:0:0:
344,264,1800,2,0,L|232:264,1,112,2|2,0:0|0:0,0:0:0:0:
104,136,2400,6,0,L|104:304,2,168,2|2|2,0:0|0:0|0:0,0:0:0:0:
232,96,3600,38,0,L|232:264,1,168,2|2,0:0|0:0,0:0:0:0:
363,224,4350,1,2,0:0:0:0:
363,224,4500,1,2,0:0:0:0:
360,96,4800,5,2,0:0:0:0:
488,96,5100,1,2,0:0:0:0:
488,224,5400,1,2,0:0:0:0:
360,224,5700,1,2,0:0:0:0:
360,352,6000,38,0,L|248:352,1,112,2|2,0:0|0:0,0:0:0:0:
192,240,6600,1,10,0:0:0:0:
192,240,6750,2,0,L|304:240,2,112,2|2|2,0:0|0:0|0:0,0:0:0:0:
128,240,7500,6,0,L|128:184,1,56,2|2,0:0|0:0,0:0:0:0:
128,120,7800,2,0,L|184:120,1,56,10|2,0:0|0:0,0:0:0:0:
248,120,8100,1,2,0:0:0:0:
248,240,8400,37,2,0:0:0:0:
368,240,8700,1,2,0:0:0:0:
368,120,9000,2,0,L|368:8,1,112,10|2,0:0|0:0,0:0:0:0:
432,8,9450,5,2,0:0:0:0:
496,120,9750,1,2,0:0:0:0:
371,123,10050,1,2,0:0:0:0:
371,123,10200,1,10,0:0:0:0:
432,232,10500,6,0,L|432:260,1,28,2|0,0:2|2:0,0:0:0:0:
304,232,10800,21,0,0:0:0:0:
304,168,10950,2,0,L|304:56,1,112,2|2,0:0|0:0,0:0:0:0:
216,56,11400,1,10,0:0:0:0:
216,120,11550,2,0,L|216:184,1,56,2|0,0:0|0:0,0:0:0:0:
128,176,11850,6,0,L|16:176,1,112,2|2,0:0|0:0,0:0:0:0:
16,240,12300,2,0,L|88:240,1,56,2|0,0:0|0:0,0:0:0:0:
160,240,12600,2,0,L|160:296,1,56,10|0,0:0|0:0,0:0:0:0:
160,360,12900,1,2,0:0:0:0:
256,360,13050,38,0,L|368:360,1,112,2|2,0:0|0:0,0:0:0:0:
432,360,13500,2,0,L|432:304,1,56,2|0,0:0|0:0,0:0:0:0:
368,240,13800,2,0,L|368:296,1,56,10|0,0:0|0:0,0:0:0:0:
304,296,14100,1,2,0:0:0:0:
304,200,14250,6,0,L|304:88,1,112,2|2,0:0|0:0,0:0:0:0:
368,88,14700,2,0,L|368:144,1,56,2|0,0:0|0:0,0:0:0:0:
456,144,15000,1,10,0:0:0:0:
456,208,15150,2,0,L|456:264,1,56,2|0,0:0|0:0,0:0:0:0:
456,328,15450,2,0,L|400:328,1,56,2|0,0:0|0:0,0:0:0:0:
312,328,15750,38,0,L|312:216,1,112,2|2,0:0|0:0,0:0:0:0:
312,128,16200,1,10,0:0:0:0:
248,128,16350,2,0,L|192:128,1,56,2|0,0:0|0:0,0:0:0:0:
136,216,16650,6,0,L|256:216,1,112,2|0,0:0|0:0,0:0:0:0:
312,216,17100,2,0,L|312:272,1,56,2|0,0:0|0:0,0:0:0:0:
312,360,17400,2,0,L|248:360,1,56,10|0,0:0|0:0,0:0:0:0:
192,360,17700,1,2,0:0:0:0:
192,272,17850,38,0,L|64:272,1,112,2|0,0:0|0:0,0:0:0:0:
80,208,18300,2,0,L|144:208,1,56,2|0,0:0|0:0,0:0:0:0:
136,120,18600,2,0,L|136:64,1,56,10|0,0:0|0:0,0:0:0:0:
136,0,18900,1,2,0:0:0:0:
224,0,19050,6,0,L|224:112,1,112,2|0,0:0|0:0,0:0:0:0:
224,176,19500,2,0,L|304:176,1,56,2|0,0:0|0:0,0:0:0:0:
368,176,19800,1,10,0:0:0:0:
368,304,20100,6,0,B|360:340|360:340|368:376,1,72.7999966674806,2|0,0:3|0:0,0:0:0:0:
280,376,20400,21,0,0:3:0:0:
208,376,20550,1,0,0:3:0:0:
136,376,20700,2,0,L|136:264,1,112,10|0,0:3|0:3,0:3:0:0:
135,191,21150,2,0,P|152:193|168:191,1,33.0399988404541,2|0,0:2|0:2,0:3:0:0:
169,152,21300,2,0,L|169:96,1,56,8|0,0:3|0:3,0:3:0:0:
256,96,21600,5,0,0:3:0:0:
256,104,21675,1,0,0:3:0:0:
256,112,21750,1,0,0:3:0:0:
256,184,21900,1,10,0:0:0:0:
424,184,22200,1,2,0:2:0:0:
424,112,22350,2,0,L|424:40,1,56,2|8,0:2|0:3,0:3:0:0:
496,56,22650,38,0,L|496:84,1,28,2|2,1:3|0:3,1:3:0:0:
496,120,22800,2,0,L|496:160,1,28,2|2,1:3|0:3,1:3:0:0:
499,240,23025,1,0,0:3:0:0:
499,240,23100,2,0,B|443:240|443:240|403:280,1,112,10|0,0:3|0:3,0:3:0:0:
352,332,23550,1,2,0:3:0:0:
280,332,23700,2,0,L|260:332,4,14,8|0|0|0|0,0:3|0:3|0:3|0:3|0:3,0:3:0:0:
280,216,24000,5,0,1:3:0:0:
280,208,24075,1,0,1:3:0:0:
280,200,24150,1,0,1:3:0:0:
208,200,24300,2,0,L|96:200,1,112,10|0,0:3|0:3,0:3:0:0:
24,200,24750,2,0,P|19:171|23:143,2,57.6799995159302,2|8|0,0:2|0:3|0:3,0:3:0:0:
24,288,25200,37,0,0:3:0:0:
80,336,25350,1,0,1:2:0:0:
136,288,25500,2,0,B|147:285|147:285|169:290|169:290|191:285|191:285|214:290|214:290|236:285|236:285|247:288,1,115.35999903186,10|0,0:3|0:3,0:3:0:0:
248,216,25950,1,0,0:2:0:0:
320,216,26100,2,0,L|384:216,1,56,8|0,0:3|0:0,0:0:0:0:
376,128,26400,5,0,0:3:0:0:
320,80,26550,1,0,0:0:0:0:
264,128,26700,2,0,L|184:128,1,56,10|0,0:3|0:0,0:0:0:0:
200,128,26925,1,0,0:3:0:0:
192,128,27000,1,0,0:0:0:0:
192,200,27150,2,0,L|192:256,1,56,2|8,0:3|0:0,0:0:0:0:
112,256,27450,2,0,P|116:224|112:200,1,57.6799995159302,2|0,0:2|0:3,0:3:0:0:
72,120,27750,37,0,0:3:0:0:
144,120,27900,2,0,L|256:120,1,112,8|0,0:3|0:3,0:3:0:0:
328,120,28350,2,0,L|328:48,2,56,0|8|0,0:3|0:3|0:3,0:3:0:0:
328,208,28800,5,0,1:3:0:0:
328,216,28875,1,0,1:3:0:0:
328,224,28950,1,0,1:3:0:0:
400,224,29100,2,0,L|512:224,1,112,8|0,0:3|0:3,0:3:0:0:
512,296,29550,1,0,1:0:0:0:
440,344,29700,1,8,1:3:0:0:
440,344,29850,1,8,1:3:0:0:
360,296,30000,38,0,L|248:296,1,112,2|2,0:2|0:0,0:0:0:0:
192,192,30600,2,0,L|304:192,1,112,10|2,0:0|0:0,0:0:0:0:
332,72,31200,6,0,L|164:72,1,168,2|2,0:0|0:0,0:0:0:0:
100,72,31800,2,0,L|100:192,1,112,8|2,0:0|0:0,0:0:0:0:
236,184,32400,38,0,L|404:184,1,168,2|2,0:0|0:0,0:0:0:0:
468,184,33000,2,0,L|468:120,1,56,8|0,0:0|0:0,0:0:0:0:
468,64,33300,1,2,0:0:0:0:
348,64,33600,5,2,0:0:0:0:
348,184,33900,1,2,0:0:0:0:
228,184,34200,1,10,0:0:0:0:
228,64,34500,1,2,0:0:0:0:
112,64,34800,38,0,L|0:64,1,112,2|2,0:0|0:0,0:0:0:0:
0,184,35400,1,10,0:0:0:0:
0,184,35550,2,0,L|112:184,1,112,2|2,0:0|0:0,0:0:0:0:
112,248,36000,2,0,L|112:304,1,56,0|2,0:0|0:0,0:0:0:0:
112,368,36300,6,0,L|168:368,1,56,2|2,0:0|0:0,0:0:0:0:
232,368,36600,2,0,L|288:368,1,56,10|2,0:0|0:0,0:0:0:0:
352,368,36900,1,2,0:0:0:0:
416,264,37200,37,2,0:0:0:0:
296,264,37500,1,2,0:0:0:0:
360,160,37800,2,0,L|360:48,1,112,10|2,0:0|0:0,0:0:0:0:
296,48,38250,6,0,L|240:48,1,56,2|0,0:0|0:0,0:0:0:0:
176,48,38550,1,2,0:0:0:0:
179,168,38850,1,2,0:0:0:0:
179,168,39000,1,10,0:0:0:0:
299,168,39300,1,2,0:0:0:0:
240,112,39600,21,0,0:0:0:0:
