osu file format v14

[General]
AudioFilename: Kola Kid-press start.mp3
AudioLeadIn: 0
PreviewTime: 1200
Countdown: 1
SampleSet: Normal
StackLeniency: 0.7
Mode: 0
LetterboxInBreaks: 1
WidescreenStoryboard: 1

[Editor]
Bookmarks: 1200,10800
DistanceSpacing: 1.5
BeatDivisor: 4
GridSize: 8
TimelineZoom: 2.599999

[Metadata]
Title:press start
TitleUnicode:press start
Artist:Kola Kid
ArtistUnicode:Kola Kid
Creator:Bonsai
Version:Extra
Source:
Tags:viptwo Zectro Chiptune Bitpop Electro 8-bit 8bit videogame chipmusic breakcore bubblegumbass trap
BeatmapID:1043092
BeatmapSetID:489383

[Difficulty]
HPDrainRate:6
CircleSize:5.5
OverallDifficulty:8.5
ApproachRate:9.5
SliderMultiplier:1.3
SliderTickRate:1

[Events]
//Background and Video events
0,0,"BG2.png",0,0
//Break Periods
//Storyboard Layer 0 (Background)
//Storyboard Layer 1 (Fail)
//Storyboard Layer 2 (Pass)
//Storyboard Layer 3 (Foreground)
//Storyboard Sound Samples

[TimingPoints]
1200,300.0003003003,4,3,1,40,1,0
10800,-100,4,3,1,45,0,0
12300,-73.5294117647059,4,3,1,45,0,0
12450,-100,4,3,1,45,0,0
12900,-65.359477124183,4,3,1,45,0,0
13200,-57.8034682080925,4,3,1,45,0,0
13650,-73.5294117647059,4,3,1,45,0,0
13800,-100,4,3,1,45,0,0
14700,-73.5294117647059,4,3,1,45,0,0
14850,-100,4,3,1,45,0,0
15000,-73.5294117647059,4,3,1,45,0,0
15150,-100,4,3,1,45,0,0
15300,-65.359477124183,4,3,1,45,0,0
15600,-100,4,3,1,45,0,0
17100,-73.5294117647059,4,3,1,45,0,0
17250,-100,4,3,1,45,0,0
17700,-65.359477124183,4,3,1,45,0,0
18000,-57.8034682080925,4,3,1,45,0,0
18300,-100,4,3,1,45,0,0
18450,-73.5294117647059,4,3,1,45,0,0
18600,-100,4,3,1,45,0,0
19500,-73.5294117647059,4,3,1,45,0,0
19650,-100,4,3,1,45,0,0
19800,-73.5294117647059,4,3,1,45,0,0
19950,-100,4,3,1,45,0,0
20100,-65.359477124183,4,3,1,45,0,0
20400,-100,4,1,1,50,0,1
21150,-57.8034682080925,4,1,1,50,0,1
21300,-100,4,1,1,50,0,1
22200,-71.4285714285714,4,1,1,50,0,1
22500,-100,4,1,1,50,0,1
23250,-57.8034682080925,4,1,1,50,0,1
23400,-100,4,1,1,50,0,1
24750,-57.8034682080925,4,1,1,50,0,1
24900,-100,4,1,1,50,0,1
25350,-57.8034682080925,4,1,1,50,0,1
25500,-100,4,1,1,50,0,1
26550,-57.8034682080925,4,1,1,50,0,1
26700,-100,4,1,1,50,0,1
27450,-57.8034682080925,4,1,1,50,0,1
27600,-100,4,1,1,50,0,1
30000,-100,4,3,1,35,0,0

[Colours]
Combo1 : 172,172,172
Combo2 : 40,185,255
Combo3 : 83,83,255
Combo4 : 202,137,2

[HitObjects]
480,112,1200,5,2,0:0:0:0:
480,208,1350,1,0,0:0:0:0:
480,304,1500,2,0,L|415:304,1,65,2|0,0:0|0:0,0:0:0:0:
352,208,1800,2,0,L|416:208,1,65,2|0,0:0|0:0,0:0:0:0:
352,304,2100,2,0,L|287:304,1,65,2|0,0:0|0:0,0:0:0:0:
224,208,2400,6,0,L|288:208,2,65,2|0|0,0:0|0:0|0:0,0:0:0:0:
159,304,2850,2,0,L|224:304,1,65,2|0,0:0|0:0,0:0:0:0:
160,208,3150,1,0,0:0:0:0:
97,304,3300,2,0,L|32:304,1,65,2|0,0:0|0:0,0:0:0:0:
32,144,3600,38,0,L|32:209,2,65,2|0|0,0:0|0:0|0:0,0:0:0:0:
128,80,4050,2,0,L|128:144,1,65,2|0,0:0|0:0,0:0:0:0:
224,16,4350,5,2,0:0:0:0:
320,80,4500,2,0,L|384:80,1,65,2|0,0:0|0:0,0:0:0:0:
384,208,4800,2,0,L|320:208,1,65,2|0,0:0|0:0,0:0:0:0:
320,144,5100,2,0,L|384:144,1,65,2|0,0:0|0:0,0:0:0:0:
384,336,5400,2,0,L|320:336,1,65,2|0,0:0|0:0,0:0:0:0:
319,272,5700,2,0,L|383:272,1,65,2|0,0:0|0:0,0:0:0:0:
128,272,6000,38,0,L|193:272,1,65,2|0,0:0|0:0,0:0:0:0:
320,336,6300,2,0,L|224:336,1,65,2|0,0:0|0:0,0:0:0:0:
384,272,6600,1,10,0:0:0:0:
384,176,6750,2,0,L|384:112,1,65,2|0,0:0|0:0,0:0:0:0:
447,336,7050,2,0,L|512:336,1,65,2|0,0:0|0:0,0:0:0:0:
384,336,7350,1,0,0:0:0:0:
320,240,7500,5,2,0:0:0:0:
320,112,7650,1,2,0:0:0:0:
192,112,7800,1,10,0:0:0:0:
192,240,7950,1,2,0:0:0:0:
128,336,8100,2,0,L|63:336,1,65,2|0,0:0|0:0,0:0:0:0:
384,336,8400,38,0,L|448:336,1,65,2|0,0:0|0:0,0:0:0:0:
288,336,8700,2,0,L|223:336,1,65,2|0,0:0|0:0,0:0:0:0:
63,336,9000,2,0,L|128:336,2,65,10|0|0,0:0|0:0|0:0,0:0:0:0:
128,176,9450,6,0,L|128:112,1,65,2|0,0:0|0:0,0:0:0:0:
256,272,9750,2,0,L|256:336,1,65,2|0,0:0|0:0,0:0:0:0:
256,176,10050,1,2,0:0:0:0:
128,272,10200,2,0,L|64:272,1,65,10|0,0:0|0:0,0:0:0:0:
384,272,10500,6,0,L|416:272,1,32.5,2|0,0:2|2:0,0:0:0:0:
256,48,10800,22,0,L|256:80,1,32.5,2|0,0:0|2:0,0:0:0:0:
256,144,10950,2,0,L|224:144,1,32.5,0|0,0:0|2:0,0:0:0:0:
352,144,11100,2,0,L|384:144,1,32.5,0|0,0:0|2:0,0:0:0:0:
320,208,11250,2,0,L|352:208,1,32.5,0|0,0:0|2:0,0:0:0:0:
288,272,11400,2,0,L|304:272,2,16.25,8|0|0,0:0|0:0|0:0,0:0:0:0:
160,272,11700,2,0,L|128:272,2,32.5
64,208,12000,6,0,L|64:248,1,32.5,2|0,0:0|2:0,0:0:0:0:
0,176,12150,2,0,L|0:216,1,32.5,0|0,0:0|2:0,0:0:0:0:
64,143,12300,2,0,P|95:135|127:142,1,66.3000004046631,0|0,0:0|2:0,0:0:0:0:
160,144,12450,2,0,L|160:112,1,32.5,0|0,0:0|2:0,0:0:0:0:
160,48,12600,1,8,0:0:0:0:
256,48,12750,2,0,L|272:48,2,16.25,0|0|0,0:0|0:0|2:0,0:0:0:0:
256,112,12900,2,0,P|244:159|255:207,1,99.4500044765856,0|0,0:0|2:0,0:0:0:0:
432,64,13200,38,0,B|432:48|432:48|352:48|352:48|352:64,1,112.450002745361,2|0,0:0|0:0,0:0:0:0:
352,160,13500,1,0,0:0:0:0:
352,144,13575,1,0,0:0:0:0:
352,128,13650,2,0,P|344:159|352:191,1,66.3000004046631,0|0,0:0|2:0,0:0:0:0:
352,224,13800,2,0,L|368:224,2,16.25,8|0|0,0:0|0:0|0:0,0:0:0:0:
256,320,14100,2,0,L|224:320,2,32.5
224,256,14400,6,0,L|224:216,1,32.5,0|0,0:0|2:0,0:0:0:0:
160,320,14550,2,0,L|160:288,1,32.5,0|0,0:0|2:0,0:0:0:0:
96,352,14700,2,0,P|64:359|32:352,1,66.3000004046631,0|0,0:0|2:0,0:0:0:0:
0,352,14850,2,0,L|0:384,1,32.5,0|0,0:0|2:0,0:0:0:0:
0,288,15000,1,8,0:0:0:0:
0,192,15150,2,0,L|0:176,2,16.25
64,192,15300,2,0,P|111:180|159:192,1,99.4500044765856,0|0,0:0|2:0,0:0:0:0:
384,64,15600,38,0,L|352:64,1,32.5,0|0,0:0|2:0,0:0:0:0:
288,64,15750,2,0,L|288:32,1,32.5,0|0,0:0|2:0,0:0:0:0:
288,160,15900,2,0,L|320:160,1,32.5,0|0,0:0|2:0,0:0:0:0:
256,224,16050,2,0,L|288:224,1,32.5,0|0,0:0|2:0,0:0:0:0:
224,288,16200,2,0,L|248:288,2,16.25,8|0|0,0:0|0:0|0:0,0:0:0:0:
384,288,16500,2,0,L|344:288,2,32.5
416,224,16800,6,0,L|376:224,1,32.5,0|0,0:0|2:0,0:0:0:0:
448,160,16950,2,0,L|408:160,1,32.5,0|0,0:0|2:0,0:0:0:0:
352,128,17100,2,0,P|320:121|288:128,1,66.3000004046631,0|0,0:0|2:0,0:0:0:0:
256,128,17250,2,0,L|256:96,1,32.5,0|0,0:0|2:0,0:0:0:0:
256,32,17400,1,8,0:0:0:0:
160,32,17550,2,0,L|136:32,2,16.25,0|0|0,0:0|0:0|2:0,0:0:0:0:
160,96,17700,2,0,P|172:143|160:191,1,99.4500044765856,0|0,0:0|2:0,0:0:0:0:
16,368,18000,38,0,B|16:352|16:352|96:352|96:352|96:368,1,112.450002745361
96,288,18300,1,0,0:0:0:0:
80,288,18375,1,0,0:0:0:0:
64,288,18450,2,0,P|95:280|127:288,1,66.3000004046631,0|0,0:0|2:0,0:0:0:0:
160,288,18600,2,0,L|160:304,2,16.25,8|0|0,0:0|0:0|0:0,0:0:0:0:
160,160,18900,2,0,L|160:128,2,32.5
256,160,19200,6,0,L|224:160,1,32.5,0|0,0:0|2:0,0:0:0:0:
304,224,19350,2,0,L|272:224,1,32.5,0|0,0:0|2:0,0:0:0:0:
320,160,19500,2,0,P|352:152|384:159,1,66.3000004046631,0|0,0:0|2:0,0:0:0:0:
416,160,19650,2,0,L|416:128,1,32.5,0|0,0:0|2:0,0:0:0:0:
416,224,19800,1,8,0:0:0:0:
416,320,19950,2,0,L|416:336,2,16.25
336,288,20100,6,0,B|288:272|288:272|240:288,1,99.4500044765856,2|0,0:0|0:0,0:0:0:0:
160,320,20400,21,0,0:3:0:0:
160,314,20475,1,0,0:0:0:0:
160,308,20550,1,0,0:0:0:0:
160,144,20700,1,8,0:3:0:0:
0,144,20850,1,0,0:3:0:0:
0,150,20925,1,0,0:3:0:0:
0,156,21000,1,0,0:3:0:0:
0,162,21075,1,0,0:3:0:0:
0,168,21150,2,0,P|-2:196|1:223,1,56.2250013726807,2|0,0:2|2:0,0:0:0:0:
0,336,21300,1,8,0:3:0:0:
160,336,21450,2,0,L|192:336,1,32.5,0|0,0:2|2:3,0:3:0:0:
160,272,21600,5,0,0:3:0:0:
160,266,21675,1,0,0:0:0:0:
160,260,21750,2,0,L|160:224,1,32.5
160,160,21900,1,8,0:3:0:0:
320,160,22050,1,0,0:3:0:0:
320,0,22200,2,0,L|320:48,1,45.4999986114502,2|0,0:2|2:3,0:3:0:0:
416,160,22350,2,0,L|416:112,1,45.4999986114502,2|0,0:2|2:3,0:3:0:0:
512,0,22500,1,8,0:3:0:0:
512,160,22650,2,0,L|512:192,1,32.5,2|2,0:3|0:3,0:3:0:0:
512,352,22800,38,0,L|512:319,2,32.5,2|2|0,0:3|0:3|3:3,0:3:0:0:
512,256,23025,1,0,0:3:0:0:
512,256,23100,2,0,L|480:256,1,32.5,8|0,0:3|2:3,0:3:0:0:
296,256,23250,2,0,P|324:252|352:256,1,56.2250013726807,0|0,0:0|2:0,0:0:0:0:
416,256,23400,1,0,0:3:0:0:
416,352,23550,1,0,0:3:0:0:
416,160,23700,2,0,L|416:144,2,16.25,8|0|0,0:3|0:3|0:3,0:3:0:0:
352,160,23850,2,0,L|320:160,1,32.5,0|0,0:3|2:3,0:3:0:0:
256,160,24000,5,2,0:3:0:0:
256,128,24075,1,2,0:3:0:0:
256,96,24150,1,2,0:3:0:0:
256,312,24300,2,0,L|256:344,1,32.5,8|0,0:3|2:3,0:3:0:0:
256,240,24450,1,0,0:0:0:0:
160,240,24600,1,0,0:3:0:0:
416,240,24750,2,0,P|443:235|472:240,1,56.2250013726807,2|0,0:2|2:0,0:0:0:0:
352,240,24900,2,0,L|352:208,1,32.5,8|0,0:3|2:3,0:3:0:0:
352,336,25050,2,0,L|352:368,1,32.5,0|0,0:3|2:3,0:3:0:0:
224,336,25200,37,0,0:3:0:0:
218,336,25275,1,0,0:3:0:0:
212,336,25350,2,0,P|184:332|156:336,1,56.2250013726807,2|0,0:2|2:0,0:0:0:0:
288,336,25500,1,8,0:3:0:0:
288,176,25650,2,0,L|288:160,2,16.25,0|0|0,0:3|0:3|0:3,0:3:0:0:
288,240,25800,1,0,0:3:0:0:
160,240,25950,1,0,0:0:0:0:
160,64,26100,2,0,L|160:96,1,32.5,8|0,0:3|2:3,0:3:0:0:
80,240,26250,2,0,L|80:208,1,32.5,0|0,0:3|2:3,0:3:0:0:
80,64,26400,5,0,0:3:0:0:
288,128,26550,2,0,P|260:132|232:128,1,56.2250013726807,2|0,0:2|2:0,0:0:0:0:
368,64,26700,2,0,L|368:32,1,32.5,8|0,0:3|2:3,0:3:0:0:
368,190,26850,1,0,0:3:0:0:
368,196,26925,1,0,0:3:0:0:
368,202,27000,1,0,0:3:0:0:
368,208,27075,1,0,0:3:0:0:
368,214,27150,1,0,0:3:0:0:
368,220,27225,1,0,0:3:0:0:
368,226,27300,2,0,L|368:262,1,32.5,8|0,0:3|2:3,0:3:0:0:
368,352,27450,2,0,P|341:349|313:352,1,56.2250013726807,2|0,0:2|2:0,0:0:0:0:
200,352,27600,37,0,0:3:0:0:
200,224,27750,2,0,L|200:272,1,32.5,0|0,0:3|2:3,0:3:0:0:
200,128,27900,1,8,0:3:0:0:
48,128,28050,1,0,0:3:0:0:
42,128,28125,1,0,0:3:0:0:
36,128,28200,1,0,0:3:0:0:
30,128,28275,1,0,0:3:0:0:
24,128,28350,2,0,L|24:96,1,32.5,0|0,0:3|2:3,0:3:0:0:
24,224,28500,1,8,0:3:0:0:
24,352,28650,2,0,L|24:392,1,32.5,0|0,0:3|2:3,0:3:0:0:
56,288,28800,6,0,L|24:288,1,32.5,2|0,0:3|2:3,0:3:0:0:
168,288,28950,2,0,L|136:288,1,32.5,2|0,0:3|2:3,0:3:0:0:
256,288,29100,2,0,L|256:320,1,32.5,8|0,0:3|2:3,0:3:0:0:
256,188,29250,2,0,L|256:220,1,32.5,0|0,0:3|2:3,0:3:0:0:
256,120,29400,1,0,0:3:0:0:
256,24,29550,2,0,L|256:56,1,32.5,2|0,0:3|2:3,0:3:0:0:
432,120,29700,6,0,L|399:120,1,32.5,10|0,0:3|2:3,0:3:0:0:
80,120,29850,2,0,L|113:120,1,32.5,10|0,0:3|2:3,0:3:0:0:
256,220,30000,22,0,L|256:188,2,32.5,2|0|0,0:2|2:3|0:3,0:3:0:0:
192,352,30300,2,0,L|127:352,1,65,2|0,0:0|0:0,0:0:0:0:
320,256,30600,2,0,L|384:256,1,65,10|0,0:0|0:0,0:0:0:0:
192,256,30900,2,0,L|127:256,1,65,2|0,0:0|0:0,0:0:0:0:
320,352,31200,6,0,L|384:352,2,65,2|0|0,0:0|0:0|0:0,0:0:0:0:
256,256,31650,1,2,0:0:0:0:
192,352,31800,2,0,L|127:352,1,65,8|0,0:0|0:0,0:0:0:0:
64,224,32100,2,0,L|64:288,1,65,2|0,0:0|0:0,0:0:0:0:
192,160,32400,38,0,L|128:160,2,65,2|0|0,0:0|0:0|0:0,0:0:0:0:
288,64,32850,1,2,0:0:0:0:
192,64,33000,1,8,0:0:0:0:
288,160,33150,1,2,0:0:0:0:
384,64,33300,2,0,L|448:64,1,65,2|0,0:0|0:0,0:0:0:0:
384,225,33600,6,0,L|384:160,1,65,2|0,0:0|0:0,0:0:0:0:
288,288,33900,2,0,L|288:224,1,65,2|0,0:0|0:0,0:0:0:0:
96,159,34200,2,0,L|96:224,1,65,10|0,0:0|0:0,0:0:0:0:
192,288,34500,2,0,L|192:223,1,65,2|0,0:0|0:0,0:0:0:0:
32,288,34800,38,0,L|96:288,1,65,2|0,0:0|0:0,0:0:0:0:
256,352,35100,2,0,L|160:352,1,65,2|0,0:0|0:0,0:0:0:0:
352,288,35400,1,10,0:0:0:0:
256,224,35550,2,0,L|256:160,1,65,2|0,0:0|0:0,0:0:0:0:
160,288,35850,2,0,L|95:288,1,65,2|0,0:0|0:0,0:0:0:0:
256,352,36150,1,2,0:0:0:0:
320,224,36300,5,2,0:0:0:0:
320,96,36450,1,2,0:0:0:0:
192,96,36600,1,10,0:0:0:0:
192,224,36750,1,2,0:0:0:0:
320,224,36900,2,0,L|385:224,1,65,2|0,0:0|0:0,0:0:0:0:
192,224,37200,38,0,L|127:224,1,65,2|0,0:0|0:0,0:0:0:0:
256,256,37500,2,0,L|256:321,1,65,2|0,0:0|0:0,0:0:0:0:
256,192,37800,2,0,L|256:127,2,65,10|0|0,0:0|0:0|0:0,0:0:0:0:
256,0,38250,6,0,L|256:65,1,65,2|0,0:0|0:0,0:0:0:0:
256,321,38550,2,0,L|256:256,1,65,2|0,0:0|0:0,0:0:0:0:
256,160,38850,1,2,0:0:0:0:
160,160,39000,2,0,L|96:160,1,65,10|0,0:0|0:0,0:0:0:0:
352,160,39300,2,0,L|416:160,1,65,2|0,0:0|0:0,0:0:0:0:
256,64,39600,21,0,0:0:0:0:
