osu file format v14

[General]
AudioFilename: audio.mp3
AudioLeadIn: 0
PreviewTime:1217
Countdown: 0
SampleSet: Soft
StackLeniency: 0.2
Mode: 0
LetterboxInBreaks: 0
WidescreenStoryboard: 1

[Editor]
Bookmarks: 7517
DistanceSpacing: 1
BeatDivisor: 2
GridSize: 4
TimelineZoom: 2.5

[Metadata]
Title:press start
TitleUnicode:press start
Artist:Kola Kid
ArtistUnicode:Kola Kid
Creator:Acylica
Version:Normal
Source:osu!
Tags:electronic instrumental featured artist fa CASH MACHINE GO! mappers' guild chiptune
BeatmapID:2624907
BeatmapSetID:1262809

[Difficulty]
HPDrainRate:3
CircleSize:2.6
OverallDifficulty:4
ApproachRate:6
SliderMultiplier:1.2
SliderTickRate:1

[Events]
//Background and Video events
0,0,"balance-5569386_1920.jpg"
//Break Periods
//Storyboard Layer 0 (Background)
//Storyboard Layer 1 (Fail)
//Storyboard Layer 2 (Pass)
//Storyboard Layer 3 (Foreground)
//Storyboard Layer 4 (Overlay)
//Storyboard Sound Samples

[TimingPoints]
17,300,4,2,1,35,1,0
1217,-100,4,2,1,50,0,0
10817,-100,4,2,1,60,0,0
20417,-90.9090909090909,4,2,1,80,0,0
30017,-100,4,2,1,50,0,0

[Colours]
Combo1 : 244,120,106
Combo2 : 159,217,214
Combo3 : 157,196,172
Combo4 : 72,133,193
Combo5 : 228,186,73

[HitObjects]
46,213,1217,6,0,L|36:150,2,60,6|2|2,1:2|0:0|0:0,0:0:0:0:
135,302,1817,1,2,1:2:0:0:
135,302,1967,2,0,L|143:362,2,60,2|8|2,0:0|0:1|1:2,0:0:0:0:
179,261,2417,6,0,L|310:268,1,120,2|2,1:2|0:0,0:0:0:0:
346,304,2867,1,2,1:2:0:0:
346,304,3017,2,0,L|442:309,1,60,2|2,0:0|0:0,0:0:0:0:
458,277,3317,1,8,0:1:0:0:
415,164,3617,6,0,P|351:160|320:114,1,120,2|2,1:2|0:0,0:0:0:0:
278,160,4067,2,0,P|214:163|183:210,1,120,2|2,1:2|0:0,0:0:0:0:
199,263,4517,1,8,0:1:0:0:
169,379,4817,38,0,L|333:359,1,120,2|2,1:2|0:2,0:0:0:0:
407,379,5417,2,0,L|427:215,1,120,2|8,0:2|0:1,0:0:0:0:
335,176,6017,6,0,L|325:91,2,60,2|2|2,1:2|0:0|0:0,0:0:0:0:
252,263,6617,2,0,L|262:348,2,60,2|2|8,1:2|0:0|0:1,0:0:0:0:
207,222,7067,6,0,L|65:205,1,120,2|2,1:2|0:0,0:0:0:0:
37,175,7517,2,0,L|18:79,1,60,2|2,0:0|1:2,0:0:0:0:
67,73,7817,2,0,L|57:13,2,60,2|2|8,0:0|0:0|0:1,0:0:0:0:
186,77,8417,38,0,P|269:77|297:28,1,120,2|2,1:2|0:0,0:0:0:0:
384,136,9017,1,2,0:0:0:0:
384,136,9167,2,0,L|368:305,1,120,2|2,0:0|0:2,0:0:0:0:
281,333,9767,6,0,L|198:343,2,60,2|2|2,0:2|0:2|0:2,0:0:0:0:
334,359,10217,2,0,L|417:349,2,60,2|2|8,0:2|1:2|0:1,0:0:0:0:
284,249,10817,6,0,P|261:226|258:184,1,60,4|2,1:2|0:0,0:0:0:0:
206,164,11117,2,0,P|215:133|250:109,1,60,2|2,0:3|1:2,0:0:0:0:
208,60,11417,2,0,L|342:74,1,120,2|10,0:0|0:1,0:0:0:0:
418,151,12017,38,0,L|428:236,2,60,2|2|2,1:2|0:0|0:3,0:0:0:0:
350,250,12617,2,0,L|259:237,1,60,2|2,0:0|1:2,0:0:0:0:
257,291,12917,1,10,0:1:0:0:
150,236,13217,6,0,L|157:295,2,60,0|2|2,1:0|0:0|0:3,0:0:0:0:
60,155,13817,2,0,L|79:-14,1,120,2|10,0:0|0:1,0:0:0:0:
184,80,14417,6,0,L|248:66,1,60,0|2,1:0|0:0,0:0:0:0:
272,15,14717,1,2,0:3:0:0:
334,117,15017,2,0,L|419:128,2,60,2|2|10,0:0|1:2|0:1,0:0:0:0:
349,235,15617,38,0,P|326:258|284:261,1,60,0|2,1:0|0:0,0:0:0:0:
254,304,15917,2,0,P|223:295|199:260,1,60,2|2,0:3|1:2,0:0:0:0:
147,256,16217,2,0,L|133:122,1,120,2|10,0:0|0:1,0:0:0:0:
31,75,16817,6,0,L|42:-10,2,60,0|2|2,1:0|0:0|0:3,0:0:0:0:
140,25,17417,2,0,L|227:15,1,60,2|2,0:0|1:2,0:0:0:0:
253,47,17717,2,0,L|340:37,1,60,10|2,0:1|0:0,0:0:0:0:
364,10,18017,6,0,L|447:5,2,60,0|2|2,1:0|0:0|0:3,0:0:0:0:
342,128,18617,2,0,P|374:144|388:198,1,60,2|2,0:0|1:2,0:0:0:0:
367,220,18917,2,0,P|369:255|329:294,1,60,10|2,0:1|0:0,0:0:0:0:
298,281,19217,38,0,L|213:291,2,60,0|2|2,1:0|0:0|0:3,0:0:0:0:
378,370,19817,2,0,L|463:360,2,60,2|2|10,0:0|1:2|0:1,0:0:0:0:
484,291,20417,54,0,L|498:209,1,66.0000020141602,4|2,1:1|0:3,0:0:0:0:
471,163,20717,2,0,P|391:164|351:223,1,132.00000402832,8|2,0:0|0:0,0:0:0:0:
355,264,21167,1,2,0:3:0:0:
355,264,21317,2,0,L|265:250,1,66.0000020141602,8|2,0:0|0:3,0:0:0:0:
227,275,21617,54,0,L|241:193,2,66.0000020141602,2|2|8,1:2|0:3|0:0,0:0:0:0:
101,316,22217,1,2,0:0:0:0:
58,265,22367,2,0,L|74:176,1,66.0000020141602,2|8,0:3|1:2,0:0:0:0:
129,171,22667,1,2,0:3:0:0:
129,171,22817,6,0,L|146:82,2,66.0000020141602,0|2|8,1:0|0:3|0:0,0:0:0:0:
72,51,23417,1,0,0:0:0:0:
128,17,23567,1,2,0:3:0:0:
191,34,23717,2,0,L|275:27,1,66.0000020141602,8|2,1:2|0:3,0:0:0:0:
299,78,24017,54,0,L|383:71,2,66.0000020141602,2|2|8,1:2|0:3|0:0,0:0:0:0:
204,169,24617,2,0,L|195:244,1,66.0000020141602,2|2,0:0|1:3,0:0:0:0:
250,272,24917,2,0,L|241:347,1,66.0000020141602,8|2,0:0|0:3,0:0:0:0:
179,358,25217,6,0,L|102:372,2,66.0000020141602,2|2|8,1:2|0:3|0:0,0:0:0:0:
63,294,25817,2,0,L|75:229,1,66.0000020141602,2|2,0:0|0:3,0:0:0:0:
34,176,26117,2,0,L|46:111,1,66.0000020141602,8|2,0:0|0:3,0:0:0:0:
100,72,26417,53,2,1:2:0:0:
100,72,26567,2,0,L|187:62,1,66.0000020141602,2|8,0:3|0:0,0:0:0:0:
291,22,27017,2,0,L|365:10,1,66.0000020141602,2|2,0:0|0:3,0:0:0:0:
402,59,27317,2,0,L|418:152,1,66.0000020141602,8|2,1:2|0:3,0:0:0:0:
363,164,27617,6,0,L|382:265,2,66.0000020141602,2|2|8,1:2|0:3|0:0,0:0:0:0:
246,100,28217,1,2,0:0:0:0:
204,151,28367,1,2,0:3:0:0:
208,216,28517,2,0,L|108:224,1,66.0000020141602,8|2,1:2|0:3,0:0:0:0:
99,272,28817,54,0,L|80:388,2,66.0000020141602,2|2|8,1:2|0:3|0:0,0:0:0:0:
84,207,29267,1,2,1:3:0:0:
84,207,29417,2,0,L|103:91,1,66.0000020141602,2|10,0:0|0:2,0:0:0:0:
55,87,29717,1,2,1:2:0:0:
103,41,29867,1,8,0:0:0:0:
162,49,30017,21,2,1:2:0:0:
235,144,30317,1,2,0:0:0:0:
345,96,30617,2,0,L|425:107,2,60,2|2|8,1:2|0:0|0:1,0:0:0:0:
419,189,31217,6,0,P|447:261|422:303,1,120,2|2,1:2|0:0,0:0:0:0:
430,355,31667,2,0,P|381:308|324:320,1,120,2|2,1:2|0:0,0:0:0:0:
293,358,32117,1,8,0:1:0:0:
209,271,32417,6,0,L|72:283,1,120,2|2,1:2|0:0,0:0:0:0:
44,321,32867,2,0,L|32:184,1,120,2|2,1:2|0:0,0:0:0:0:
82,166,33317,1,8,0:1:0:0:
18,64,33617,37,2,1:2:0:0:
134,93,33917,1,2,0:2:0:0:
225,15,34217,2,0,L|294:20,2,60,2|2|8,0:2|1:2|0:1,0:0:0:0:
301,107,34817,6,0,L|431:84,1,120,2|2,1:2|0:0,0:0:0:0:
502,173,35417,2,0,L|491:260,1,60,2|2,1:2|0:0,0:0:0:0:
456,346,35867,6,0,P|417:313|337:325,1,120,2|2,1:2|0:0,0:0:0:0:
311,361,36317,2,0,L|299:273,1,60,2|2,0:0|1:2,0:0:0:0:
251,270,36617,2,0,L|239:182,2,60,2|2|8,0:0|0:0|0:1,0:0:0:0:
151,338,37217,37,2,1:2:0:0:
39,292,37517,1,2,0:0:0:0:
74,177,37817,2,0,L|82:107,1,60,2|2,0:0|0:0,0:0:0:0:
156,23,38267,6,0,P|236:33|259:98,1,120,2|2,0:2|0:2,0:0:0:0:
238,118,38717,2,0,L|250:198,1,60,2|2,0:2|0:2,0:0:0:0:
297,209,39017,6,0,L|377:197,1,60,2|2,0:2|1:2,0:0:0:0:
395,154,39317,2,0,L|475:142,2,60,8|2|2,0:1|1:2|1:2,0:0:0:0:
