osu file format v14

[General]
AudioFilename: audio.mp3
AudioLeadIn: 0
PreviewTime: 1219
Countdown: 0
SampleSet: Normal
StackLeniency: 0.7
Mode: 2
LetterboxInBreaks: 0
EpilepsyWarning: 1
WidescreenStoryboard: 1

[Editor]
DistanceSpacing: 1.6
BeatDivisor: 4
GridSize: 4
TimelineZoom: 2

[Metadata]
Title:press start
TitleUnicode:press start
Artist:Kola Kid
ArtistUnicode:Kola Kid
Creator:-Joni-
Version:Overdose
Source:osu!
Tags:bowll bowlingfan dapuluous bonsai mpg fa featured artist mappers' mapper's guild Bitpop Electronic 8bit 8-bit breakcore bubblegumbass chiptune instrumental trap CASH MACHINE GO!
BeatmapID:2314618
BeatmapSetID:1107501

[Difficulty]
HPDrainRate:5
CircleSize:4.2
OverallDifficulty:9.2
ApproachRate:9.2
SliderMultiplier:1.75
SliderTickRate:2

[Events]
//Background and Video events
0,0,"Pixel.png",0,0
//Break Periods
//Storyboard Layer 0 (Background)
//Storyboard Layer 1 (Fail)
//Storyboard Layer 2 (Pass)
//Storyboard Layer 3 (Foreground)
//Storyboard Layer 4 (Overlay)
//Storyboard Sound Samples

[TimingPoints]
19,300,4,1,1,35,1,0
1219,-100,4,1,1,35,0,0
10819,-100,4,1,1,35,0,0
20419,-100,4,1,1,55,0,1
30019,-100,4,1,1,35,0,0

[Colours]
Combo1 : 129,129,129
Combo2 : 0,206,103
Combo3 : 192,192,192

[HitObjects]
347,329,19,5,0,0:0:0:0:
135,337,319,1,0,0:0:0:0:
322,223,619,1,0,0:0:0:0:
93,227,919,1,0,0:0:0:0:
451,144,1219,6,0,L|445:37,1,87.5,2|0,0:0|0:0,0:0:0:0:
204,63,1519,1,2,0:0:0:0:
131,154,1669,1,0,0:0:0:0:
271,152,1819,1,2,0:0:0:0:
178,303,1969,1,0,0:0:0:0:
56,306,2119,1,2,0:0:0:0:
178,303,2269,1,0,0:0:0:0:
403,260,2419,6,0,L|506:260,2,87.5,2|0|0,0:0|0:0|0:0,0:0:0:0:
221,144,2869,1,2,0:0:0:0:
278,86,3019,1,0,0:0:0:0:
356,76,3169,1,0,0:0:0:0:
104,202,3319,2,0,L|62:124,1,87.5,2|0,0:0|0:0,0:0:0:0:
289,276,3619,5,2,0:0:0:0:
358,209,3769,1,0,0:0:0:0:
299,141,3919,1,0,0:0:0:0:
151,132,4069,2,0,L|98:37,1,87.5,2|0,0:0|0:0,0:0:0:0:
363,142,4369,1,2,0:0:0:0:
411,210,4519,1,2,0:0:0:0:
342,277,4669,1,0,0:0:0:0:
125,329,4819,6,0,L|32:317,1,87.5,2|0,0:0|0:0,0:0:0:0:
203,245,5119,2,0,L|289:231,1,87.5,2|0,0:0|0:0,0:0:0:0:
58,183,5419,2,0,L|69:97,1,87.5,2|0,0:0|0:0,0:0:0:0:
226,130,5719,2,0,L|240:30,1,87.5,2|0,0:0|0:0,0:0:0:0:
486,141,6019,6,0,L|393:141,1,87.5,2|0,0:0|0:0,0:0:0:0:
266,255,6319,2,0,L|152:255,1,87.5,2|0,0:0|0:0,0:0:0:0:
387,254,6619,2,0,L|492:255,2,87.5,10|2|0,0:0|0:0|0:0,0:0:0:0:
233,256,7069,1,2,0:0:0:0:
339,141,7219,6,0,L|431:135,1,87.5,0|0,0:0|0:0,0:0:0:0:
260,143,7519,1,2,0:0:0:0:
476,48,7669,1,2,0:0:0:0:
366,51,7819,1,10,0:0:0:0:
255,54,7969,1,2,0:0:0:0:
379,234,8119,1,2,0:0:0:0:
331,142,8269,1,0,0:0:0:0:
73,335,8419,6,0,P|73:272|177:222,1,175,2|2,0:0|0:0,0:0:0:0:
293,248,8869,1,0,0:0:0:0:
73,75,9019,2,0,L|30:161,2,87.5,8|0|0,0:0|0:0|0:0,0:0:0:0:
319,131,9469,6,0,L|313:41,1,87.5,2|0,0:0|0:0,0:0:0:0:
134,348,9769,2,0,L|160:259,1,87.5,2|0,0:0|0:0,0:0:0:0:
297,263,10069,1,2,0:0:0:0:
124,108,10219,6,0,L|34:91,1,87.5,10|0,0:0|0:0,0:0:0:0:
169,232,10519,2,0,L|260:224,1,87.5,2|0,0:2|0:0,0:0:0:0:
464,109,10819,6,0,L|469:48,1,43.75,2|0,0:0|0:0,0:0:0:0:
423,65,10969,1,0,0:0:0:0:
268,59,11119,1,0,0:0:0:0:
413,242,11269,1,0,0:0:0:0:
247,244,11419,2,0,L|158:232,1,87.5,8|2,0:0|0:0,0:0:0:0:
367,145,11719,1,0,0:0:0:0:
396,142,11769,1,0,0:0:0:0:
369,123,11819,1,0,0:0:0:0:
305,106,11869,6,0,L|205:92,1,87.5,0|0,0:0|0:0,0:0:0:0:
320,34,12169,1,0,0:0:0:0:
206,250,12319,2,0,L|191:151,1,87.5
367,145,12619,1,8,0:0:0:0:
252,79,12769,1,0,0:0:0:0:
301,72,12844,1,0,0:0:0:0:
462,134,12919,1,0,0:0:0:0:
490,54,13069,1,0,0:0:0:0:
240,321,13219,6,0,P|278:323|316:292,1,87.5
178,283,13519,2,0,L|135:290,2,43.75
392,303,13819,2,0,P|429:289|470:246,1,87.5,8|0,0:0|0:0,0:0:0:0:
206,176,14119,1,0,0:0:0:0:
170,142,14169,1,0,0:0:0:0:
159,100,14219,1,0,0:0:0:0:
181,63,14269,1,0,0:0:0:0:
261,262,14419,5,0,0:0:0:0:
157,262,14569,1,0,0:0:0:0:
391,156,14719,1,2,0:0:0:0:
273,135,14869,1,0,0:0:0:0:
171,156,15019,1,8,0:0:0:0:
117,243,15169,1,0,0:0:0:0:
369,268,15319,2,0,L|472:235,1,87.5,0|0,0:0|0:0,0:0:0:0:
153,150,15619,6,0,L|113:69,1,87.5,2|2,0:0|0:0,0:0:0:0:
233,67,15919,1,0,0:0:0:0:
340,65,16069,1,0,0:0:0:0:
188,249,16219,1,8,0:0:0:0:
143,239,16294,1,0,0:0:0:0:
99,233,16369,1,0,0:0:0:0:
309,213,16519,1,0,0:0:0:0:
347,213,16569,1,0,0:0:0:0:
344,176,16619,1,0,0:0:0:0:
332,148,16669,1,0,0:0:0:0:
120,174,16819,5,0,0:0:0:0:
72,77,16969,1,0,0:0:0:0:
183,81,17119,2,0,L|281:92,2,87.5,0|0|8,0:0|0:0|0:0,0:0:0:0:
398,260,17569,1,0,0:0:0:0:
457,258,17644,1,0,0:0:0:0:
314,262,17719,1,0,0:0:0:0:
408,155,17869,1,0,0:0:0:0:
189,168,18019,6,0,L|97:156,1,87.5,0|0,0:0|0:0,0:0:0:0:
216,79,18319,1,0,0:0:0:0:
258,68,18394,1,0,0:0:0:0:
300,59,18469,1,0,0:0:0:0:
93,321,18619,2,0,P|53:310|24:263,1,87.5,8|0,0:0|0:0,0:0:0:0:
236,308,18919,1,0,0:0:0:0:
230,251,18969,1,0,0:0:0:0:
194,207,19019,1,0,0:0:0:0:
145,202,19069,1,0,0:0:0:0:
353,226,19219,5,0,0:0:0:0:
400,165,19369,1,0,0:0:0:0:
262,130,19519,1,2,0:0:0:0:
163,130,19669,1,0,0:0:0:0:
75,62,19819,1,8,0:0:0:0:
326,332,19969,1,0,0:0:0:0:
369,324,20044,1,0,0:0:0:0:
411,314,20119,2,0,L|303:336,1,87.5,2|0,0:0|0:0,0:0:0:0:
61,337,20419,5,0,0:3:0:0:
110,321,20494,1,0,0:0:0:0:
159,306,20569,1,0,0:0:0:0:
48,201,20719,1,8,0:3:0:0:
177,116,20869,2,0,L|143:63,1,43.75,0|0,0:3|0:0,0:0:0:0:
93,72,21019,1,0,0:3:0:0:
300,185,21169,1,2,0:2:0:0:
330,141,21244,1,0,0:0:0:0:
290,102,21319,2,0,L|192:92,1,87.5,8|0,0:0|0:0,0:0:0:0:
59,106,21619,5,0,0:3:0:0:
276,288,21769,1,0,0:0:0:0:
312,272,21844,1,0,0:0:0:0:
352,255,21919,1,8,0:3:0:0:
216,193,22069,1,0,0:3:0:0:
352,178,22219,2,0,L|360:131,1,43.75,2|0,0:2|0:0,0:0:0:0:
305,125,22369,1,2,0:2:0:0:
49,332,22519,2,0,L|38:241,1,87.5,8|2,0:3|0:3,0:0:0:0:
330,336,22819,6,0,L|393:273,1,87.5,2|0,0:3|0:3,0:0:0:0:
251,246,23119,1,8,0:3:0:0:
108,249,23269,2,0,L|45:256,2,43.75,0|0|0,0:3|0:0|0:3,0:0:0:0:
227,127,23569,1,0,0:3:0:0:
372,126,23719,2,0,L|427:127,2,43.75,8|0|0,0:3|0:0|0:3,0:0:0:0:
160,94,24019,5,2,0:3:0:0:
116,86,24094,1,0,0:0:0:0:
106,34,24169,1,2,0:3:0:0:
210,37,24319,1,8,0:3:0:0:
323,35,24469,1,0,0:0:0:0:
303,94,24544,1,0,0:0:0:0:
245,96,24619,1,0,0:3:0:0:
387,283,24769,2,0,L|431:267,1,43.75,2|0,0:2|0:0,0:0:0:0:
297,290,24919,6,0,L|277:246,1,43.75,8|0,0:3|0:0,0:0:0:0:
353,211,25069,2,0,L|353:152,1,43.75,0|0,0:3|0:0,0:0:0:0:
135,96,25219,6,0,L|37:99,2,87.5,0|2|8,0:3|0:2|0:3,0:0:0:0:
283,87,25669,1,0,0:3:0:0:
354,70,25744,1,0,0:0:0:0:
349,21,25819,1,0,0:3:0:0:
136,254,25969,2,0,L|25:262,2,87.5,0|8|0,0:0|0:3|0:3,0:0:0:0:
441,242,26419,5,0,0:3:0:0:
308,173,26569,1,2,0:2:0:0:
264,170,26644,1,0,0:0:0:0:
223,163,26719,1,8,0:3:0:0:
343,75,26869,2,0,L|457:66,2,87.5,0|0|0,0:3|0:3|0:3,0:0:0:0:
192,322,27319,1,8,0:3:0:0:
139,321,27394,1,0,0:0:0:0:
86,319,27469,1,0,0:0:0:0:
184,181,27619,1,0,0:0:0:0:
416,212,27769,6,0,L|391:110,1,87.5,0|8,0:3|0:3,0:0:0:0:
167,102,28069,1,0,0:3:0:0:
296,104,28219,1,0,0:3:0:0:
164,249,28369,1,0,0:3:0:0:
398,250,28519,2,0,L|304:252,1,87.5
244,347,28744,1,0,0:0:0:0:
107,349,28819,5,2,0:3:0:0:
220,188,28969,1,2,0:3:0:0:
368,186,29119,1,8,0:3:0:0:
222,37,29269,1,0,0:3:0:0:
101,36,29419,1,0,0:3:0:0:
220,188,29569,1,2,0:3:0:0:
367,39,29719,1,10,0:3:0:0:
151,253,29869,1,10,0:3:0:0:
376,272,30019,6,0,L|467:259,2,87.5,2|0|2,0:2|0:0|0:0,0:0:0:0:
183,149,30619,1,10,0:0:0:0:
96,51,30769,1,0,0:0:0:0:
238,46,30919,1,2,0:0:0:0:
96,51,31069,1,0,0:0:0:0:
363,257,31219,6,0,P|403:178|336:172,1,175,2|0,0:0|0:0,0:0:0:0:
205,343,31669,2,0,L|306:337,1,87.5,2|8,0:0|0:0,0:0:0:0:
205,221,31969,1,0,0:0:0:0:
346,165,32119,2,0,L|328:68,1,87.5,2|2,0:0|0:0,0:0:0:0:
61,134,32419,6,0,L|70:45,1,87.5,0|0,0:0|0:0,0:0:0:0:
232,334,32719,2,0,L|343:337,2,87.5,0|2|8,0:0|0:0|0:0,0:0:0:0:
106,329,33169,1,2,0:0:0:0:
391,196,33319,2,0,L|428:102,1,87.5,2|0,0:0|0:0,0:0:0:0:
143,168,33619,6,0,L|150:70,1,87.5,2|0,0:0|0:0,0:0:0:0:
315,121,33919,2,0,L|340:21,1,87.5,2|0,0:0|0:0,0:0:0:0:
91,256,34219,2,0,L|148:326,1,87.5,10|0,0:0|0:0,0:0:0:0:
323,263,34519,2,0,L|419:266,1,87.5,2|2,0:0|0:0,0:0:0:0:
172,83,34819,6,0,L|69:76,2,87.5,0|0|2,0:0|0:0|0:0,0:0:0:0:
333,96,35269,1,0,0:0:0:0:
110,209,35419,2,0,L|19:201,2,87.5,10|2|0,0:0|0:0|0:0,0:0:0:0:
258,236,35869,2,0,L|246:125,1,87.5,2|0,0:0|0:0,0:0:0:0:
100,102,36169,5,2,0:0:0:0:
313,98,36319,1,2,0:0:0:0:
169,98,36469,1,2,0:0:0:0:
313,98,36619,1,10,0:0:0:0:
100,102,36769,1,2,0:0:0:0:
197,234,36919,1,2,0:0:0:0:
99,236,37069,1,0,0:0:0:0:
306,221,37219,6,0,P|362:159|294:85,1,175,2|2,0:0|0:0,0:0:0:0:
112,89,37819,2,0,L|1:88,2,87.5,8|0|0,0:0|0:0|0:0,0:0:0:0:
413,214,38269,2,0,L|402:119,1,87.5,2|0,0:0|0:0,0:0:0:0:
248,136,38569,2,0,L|233:34,1,87.5,2|0,0:0|0:0,0:0:0:0:
378,47,38869,1,2,0:0:0:0:
252,344,39019,2,0,L|148:335,1,87.5,10|0,0:0|0:0,0:0:0:0:
302,264,39319,2,0,L|392:251,1,87.5,2|0,0:0|0:0,0:0:0:0:
88,77,39619,5,0,0:0:0:0:
