osu file format v14

[General]
AudioFilename: audio.mp3
AudioLeadIn: 0
PreviewTime: 1219
Countdown: 0
SampleSet: Normal
StackLeniency: 0.7
Mode: 2
LetterboxInBreaks: 0
EpilepsyWarning: 1
WidescreenStoryboard: 1

[Editor]
DistanceSpacing: 1.2
BeatDivisor: 2
GridSize: 4
TimelineZoom: 1.4

[Metadata]
Title:press start
TitleUnicode:press start
Artist:Kola Kid
ArtistUnicode:Kola Kid
Creator:-Joni-
Version:Cup
Source:osu!
Tags:bowll bowlingfan dapuluous bonsai mpg fa featured artist mappers' mapper's guild Bitpop Electronic 8bit 8-bit breakcore bubblegumbass chiptune instrumental trap CASH MACHINE GO!
BeatmapID:2314615
BeatmapSetID:1107501

[Difficulty]
HPDrainRate:3
CircleSize:2.5
OverallDifficulty:6
ApproachRate:6
SliderMultiplier:1
SliderTickRate:1

[Events]
//Background and Video events
0,0,"Pixel.png",0,0
//Break Periods
//Storyboard Layer 0 (Background)
//Storyboard Layer 1 (Fail)
//Storyboard Layer 2 (Pass)
//Storyboard Layer 3 (Foreground)
//Storyboard Layer 4 (Overlay)
//Storyboard Sound Samples

[TimingPoints]
19,300,4,1,1,35,1,0
1219,-100,4,1,1,35,0,0
10819,-100,4,1,1,35,0,0
20419,-100,4,1,1,55,0,1
30019,-100,4,1,1,35,0,0

[Colours]
Combo1 : 129,129,129
Combo2 : 0,206,103
Combo3 : 192,192,192

[HitObjects]
268,344,19,5,0,0:0:0:0:
173,321,319,1,0,0:0:0:0:
160,221,619,1,0,0:0:0:0:
237,157,919,1,0,0:0:0:0:
393,179,1219,6,0,P|444:103|366:56,1,200,2|2,0:0|0:0,0:0:0:0:
248,111,2119,1,2,0:0:0:0:
124,324,2419,2,0,L|316:310,1,150,2|2,0:0|0:0,0:0:0:0:
179,211,3319,1,2,0:0:0:0:
324,339,3619,6,0,L|345:156,1,150,2|2,0:0|0:0,0:0:0:0:
238,137,4519,1,2,0:0:0:0:
373,182,4819,5,2,0:0:0:0:
388,52,5119,1,2,0:0:0:0:
259,35,5419,1,2,0:0:0:0:
142,35,5719,1,2,0:0:0:0:
295,344,6019,6,0,L|288:238,1,100,2|2,0:0|0:0,0:0:0:0:
125,190,6619,1,10,0:0:0:0:
123,127,6769,1,2,0:0:0:0:
221,123,7069,1,2,0:0:0:0:
79,345,7519,6,0,L|104:244,1,100,2|10,0:0|0:0,0:0:0:0:
246,252,8119,1,2,0:0:0:0:
377,255,8419,2,0,L|491:258,2,100,2|2|8,0:0|0:0|0:0,0:0:0:0:
211,165,9469,6,0,L|239:67,1,100,2|2,0:0|0:0,0:0:0:0:
342,69,10069,1,2,0:0:0:0:
401,67,10219,1,10,0:0:0:0:
281,73,10519,1,2,0:2:0:0:
171,78,10819,5,2,0:0:0:0:
118,231,10969,2,0,P|86:183|121:157,1,100,0|0,0:0|0:0,0:0:0:0:
173,142,11419,1,8,0:0:0:0:
230,140,11569,1,2,0:0:0:0:
354,63,11869,2,0,L|252:58,1,100,0|0,0:0|0:0,0:0:0:0:
307,59,12319,1,0,0:0:0:0:
429,60,12619,1,8,0:0:0:0:
307,59,12919,1,0,0:0:0:0:
242,59,13069,5,0,0:0:0:0:
128,206,13369,1,0,0:0:0:0:
70,207,13519,2,0,P|51:150|80:141,1,100,0|8,0:0|0:0,0:0:0:0:
211,205,14119,1,0,0:0:0:0:
275,190,14269,1,0,0:0:0:0:
362,78,14569,5,0,0:0:0:0:
361,44,14719,1,2,0:0:0:0:
188,45,15019,1,8,0:0:0:0:
188,45,15169,1,0,0:0:0:0:
318,181,15469,1,0,0:0:0:0:
386,155,15619,5,2,0:0:0:0:
332,109,15769,1,2,0:0:0:0:
205,56,16069,1,0,0:0:0:0:
279,56,16219,1,8,0:0:0:0:
280,126,16369,1,0,0:0:0:0:
142,156,16669,2,0,P|81:159|31:134,1,100
89,117,17119,1,0,0:0:0:0:
219,62,17419,1,8,0:0:0:0:
336,176,17719,5,0,0:0:0:0:
411,172,17869,2,0,P|396:115|359:99,1,100
304,100,18319,1,0,0:0:0:0:
217,99,18619,1,8,0:0:0:0:
380,43,18919,5,0,0:0:0:0:
443,39,19069,1,0,0:0:0:0:
333,43,19369,1,0,0:0:0:0:
267,46,19519,1,2,0:0:0:0:
149,113,19819,1,8,0:0:0:0:
51,122,20119,1,2,0:0:0:0:
221,145,20419,6,0,L|231:45,1,100,0|8,0:3|0:3,0:0:0:0:
365,252,21019,2,0,L|377:143,1,100,0|8,0:3|0:3,0:0:0:0:
225,121,21619,2,0,L|111:111,1,100,0|8,0:3|0:3,0:0:0:0:
206,35,22219,2,0,L|314:24,1,100,2|8,0:2|0:3,0:0:0:0:
176,253,22819,6,0,L|162:186,1,50,2|0,0:3|0:3,0:0:0:0:
307,154,23419,2,0,L|319:71,1,50,0|0,0:3|0:3,0:0:0:0:
230,40,24019,2,0,L|357:40,1,100,2|8,0:3|0:3,0:0:0:0:
266,210,24619,1,0,0:3:0:0:
176,203,24919,1,8,0:3:0:0:
319,158,25219,6,0,L|420:135,1,100,0|8,0:3|0:3,0:0:0:0:
322,309,25819,2,0,L|218:301,1,100,0|8,0:3|0:3,0:0:0:0:
84,240,26419,2,0,L|108:137,1,100,0|8,0:3|0:3,0:0:0:0:
246,65,27019,2,0,L|129:46,1,100,0|8,0:3|0:3,0:0:0:0:
267,55,27619,6,0,L|319:57,1,50,0|0,0:3|0:3,0:0:0:0:
199,57,28219,2,0,L|148:57,1,50,0|0,0:3|0:3,0:0:0:0:
314,175,28819,6,0,L|436:159,1,100,2|8,0:3|0:3,0:0:0:0:
303,75,29419,2,0,L|202:76,1,100,0|10,0:3|0:3,0:0:0:0:
348,143,30019,6,0,P|422:118|409:-1,1,200,2|10,0:0|0:0,0:0:0:0:
292,24,30919,1,2,0:0:0:0:
187,333,31219,2,0,L|362:333,1,150,2|2,0:0|0:0,0:0:0:0:
198,230,32119,1,2,0:0:0:0:
365,292,32419,6,0,P|401:205|360:116,1,150,0|2,0:0|0:0,0:0:0:0:
261,106,33319,1,2,0:0:0:0:
109,107,33619,5,2,0:0:0:0:
211,202,33919,1,2,0:0:0:0:
328,210,34219,1,10,0:0:0:0:
208,327,34519,1,2,0:0:0:0:
368,327,34819,6,0,L|337:212,1,100,0|2,0:0|0:0,0:0:0:0:
201,179,35419,2,0,L|131:163,1,50,10|2,0:0|0:0,0:0:0:0:
271,75,35869,1,2,0:0:0:0:
142,261,36169,6,0,L|73:261,1,50,2|2,0:0|0:0,0:0:0:0:
229,76,36619,1,10,0:0:0:0:
246,167,36919,1,2,0:0:0:0:
372,172,37219,2,0,L|485:174,2,100,2|2|8,0:0|0:0|0:0,0:0:0:0:
172,176,38269,5,2,0:0:0:0:
311,178,38569,1,2,0:0:0:0:
173,81,38869,1,2,0:0:0:0:
174,61,39019,1,10,0:0:0:0:
310,71,39319,1,2,0:0:0:0:
136,72,39619,5,0,0:0:0:0:
