osu file format v14

[General]
AudioFilename: audio.mp3
AudioLeadIn: 0
PreviewTime: 96306
Countdown: 0
SampleSet: Normal
StackLeniency: 0.7
Mode: 1
LetterboxInBreaks: 0
WidescreenStoryboard: 0

[Editor]
Bookmarks: 14022,55165,82593,96308,110022,123736
DistanceSpacing: 1.5
BeatDivisor: 4
GridSize: 32
TimelineZoom: 1.9

[Metadata]
Title:good old times
TitleUnicode:good old times
Artist:Kola Kid
ArtistUnicode:Kola Kid
Creator:Lime717
Version:nostalgia
Source:osu!
Tags:mappers' mpg RANDOM TRACKS #1 8-bit 8bit guild fa featured artist instrumental electronic chiptune
BeatmapID:2679292
BeatmapSetID:1290736

[Difficulty]
HPDrainRate:6
CircleSize:5
OverallDifficulty:6
ApproachRate:5
SliderMultiplier:1.4
SliderTickRate:1

[Events]
//Background and Video events
0,0,"good old times yea.jpg",0,0
//Break Periods
//Storyboard Layer 0 (Background)
//Storyboard Layer 1 (Fail)
//Storyboard Layer 2 (Pass)
//Storyboard Layer 3 (Foreground)
//Storyboard Layer 4 (Overlay)
//Storyboard Sound Samples

[TimingPoints]
360,428.571428571429,4,1,0,70,1,0
360,-133.333333333333,4,1,0,70,0,0
12360,-136.986301369863,4,1,0,70,0,0
12681,-140.845070422535,4,1,0,70,0,0
13002,-144.927536231884,4,1,0,70,0,0
13324,-149.253731343284,4,1,0,70,0,0
13645,-153.846153846154,4,1,0,70,0,0
13967,-117.647058823529,4,1,0,70,0,0
14074,-111.111111111111,4,1,0,75,0,0
19217,-108.695652173913,4,1,0,75,0,0
19538,-106.382978723404,4,1,0,75,0,0
19860,-104.166666666667,4,1,0,75,0,0
20181,-102.040816326531,4,1,0,75,0,0
20717,-111.111111111111,4,1,0,75,0,0
25431,-112.359550561798,4,1,0,75,0,0
25645,-114.942528735632,4,1,0,75,0,0
25860,-117.647058823529,4,1,0,75,0,0
25967,-119.047619047619,4,1,0,75,0,0
26074,-120.481927710843,4,1,0,75,0,0
26717,-125,4,1,0,75,0,0
27360,-111.111111111111,4,1,0,75,0,0
27574,-105.263157894737,4,1,0,75,0,0
27788,-100,4,1,0,80,0,0
53502,-101.010101010101,4,1,0,80,0,0
53717,-103.092783505155,4,1,0,80,0,0
53824,-104.166666666667,4,1,0,80,0,0
54038,-106.382978723404,4,1,0,80,0,0
54145,-107.52688172043,4,1,0,80,0,0
54360,-109.89010989011,4,1,0,80,0,0
54574,-112.359550561798,4,1,0,80,0,0
54681,-113.636363636364,4,1,0,80,0,0
54788,-114.942528735632,4,1,0,80,0,0
55217,-90.9090909090909,4,1,0,90,0,1
67217,-91.743119266055,4,1,0,90,0,1
67324,-92.5925925925926,4,1,0,90,0,1
67431,-93.4579439252336,4,1,0,90,0,1
67645,-95.2380952380952,4,1,0,90,0,1
67860,-97.0873786407767,4,1,0,90,0,1
67967,-98.0392156862745,4,1,0,90,0,1
68181,-100,4,1,0,90,0,1
68288,-101.010101010101,4,1,0,90,0,1
68502,-103.092783505155,4,1,0,90,0,1
68931,-90.9090909090909,4,1,0,90,0,1
80931,-91.743119266055,4,1,0,90,0,1
81038,-92.5925925925926,4,1,0,90,0,1
81252,-94.3396226415094,4,1,0,90,0,1
81360,-95.2380952380952,4,1,0,90,0,1
81574,-97.0873786407767,4,1,0,90,0,1
81681,-98.0392156862745,4,1,0,90,0,1
81788,-99.009900990099,4,1,0,90,0,1
81895,-100,4,1,0,90,0,1
82002,-101.010101010101,4,1,0,90,0,1
82217,-103.092783505155,4,1,0,90,0,1
82645,-117.647058823529,4,1,0,80,0,0
94645,-119.047619047619,4,1,0,80,0,0
94752,-120.481927710843,4,1,0,80,0,0
94967,-123.456790123457,4,1,0,80,0,0
95074,-125,4,1,0,80,0,0
95288,-128.205128205128,4,1,0,80,0,0
95395,-129.87012987013,4,1,0,80,0,0
95610,-133.333333333333,4,1,0,80,0,0
95717,-135.135135135135,4,1,0,80,0,0
95931,-138.888888888889,4,1,0,80,0,0
96360,-86.9565217391304,4,1,0,90,0,1
108360,-87.719298245614,4,1,0,90,0,1
108467,-88.4955752212389,4,1,0,90,0,1
108574,-89.2857142857143,4,1,0,90,0,1
108788,-90.9090909090909,4,1,0,90,0,1
109002,-92.5925925925926,4,1,0,90,0,1
109110,-93.4579439252336,4,1,0,90,0,1
109324,-95.2380952380952,4,1,0,90,0,1
109431,-96.1538461538461,4,1,0,90,0,1
109645,-98.0392156862745,4,1,0,80,0,0
110074,-83.3333333333333,4,1,0,90,0,1
122074,-84.0336134453781,4,1,0,90,0,1
122181,-84.7457627118644,4,1,0,90,0,1
122395,-86.2068965517241,4,1,0,90,0,1
122502,-86.9565217391304,4,1,0,90,0,1
122717,-88.4955752212389,4,1,0,90,0,1
122824,-89.2857142857143,4,1,0,90,0,1
123038,-90.9090909090909,4,1,0,90,0,1
123145,-91.743119266055,4,1,0,90,0,1
123360,-93.4579439252336,4,1,0,90,0,1
123788,-117.647058823529,4,1,0,80,0,0
130645,-119.047619047619,4,1,0,80,0,0
131074,-120.481927710843,4,1,0,80,0,0
131288,-121.212121212121,4,1,0,80,0,0
131502,-121.951219512195,4,1,0,80,0,0
132360,-125,4,1,0,80,0,0
132788,-126.582278481013,4,1,0,80,0,0
133002,-127.388535031847,4,1,0,80,0,0
133217,-128.205128205128,4,1,0,80,0,0
133645,-129.87012987013,4,1,0,80,0,0
134074,-131.578947368421,4,1,0,80,0,0
134502,-133.333333333333,4,1,0,80,0,0
134717,-134.228187919463,4,1,0,80,0,0
134931,-135.135135135135,4,1,0,80,0,0
135788,-138.888888888889,4,1,0,80,0,0
136217,-140.845070422535,4,1,0,80,0,0
136431,-141.843971631206,4,1,0,80,0,0
136645,-142.857142857143,4,1,0,80,0,0
137074,-144.927536231884,4,1,0,80,0,0

[HitObjects]
256,192,360,5,0,0:0:0:0:
256,192,680,1,8,0:0:0:0:
480,160,1001,1,0,0:0:0:0:
256,192,1644,1,0,0:0:0:0:
256,192,1966,1,0,0:0:0:0:
256,192,2073,1,8,0:0:0:0:
256,192,2394,1,0,0:0:0:0:
256,192,2716,1,8,0:0:0:0:
256,192,3359,1,0,0:0:0:0:
256,192,3680,1,8,0:0:0:0:
256,192,3787,1,8,0:0:0:0:
256,192,4109,1,8,0:0:0:0:
256,192,4430,1,0,0:0:0:0:
256,192,5073,1,0,0:0:0:0:
256,192,5394,1,8,0:0:0:0:
256,192,5501,1,0,0:0:0:0:
256,192,5823,1,0,0:0:0:0:
256,192,6144,1,8,0:0:0:0:
256,192,6466,1,8,0:0:0:0:
249,192,6787,1,0,0:0:0:0:
250,192,7109,1,8,0:0:0:0:
248,194,7216,1,0,0:0:0:0:
256,192,7537,1,0,0:0:0:0:
256,192,7859,1,8,0:0:0:0:
256,192,8501,1,8,0:0:0:0:
256,192,8823,1,0,0:0:0:0:
256,192,8930,1,8,0:0:0:0:
256,192,9251,1,0,0:0:0:0:
256,192,9573,1,8,0:0:0:0:
256,192,10216,1,0,0:0:0:0:
256,192,10537,1,8,0:0:0:0:
256,192,10644,1,8,0:0:0:0:
256,192,10966,1,8,0:0:0:0:
256,192,11287,1,0,0:0:0:0:
256,192,11930,1,0,0:0:0:0:
256,192,12251,1,8,0:0:0:0:
256,192,12360,1,0,0:0:0:0:
256,192,12681,1,0,0:0:0:0:
256,192,13002,1,8,0:0:0:0:
256,192,13324,1,8,0:0:0:0:
256,192,13645,1,0,0:0:0:0:
256,192,13967,1,8,0:0:0:0:
256,192,14074,1,0,0:0:0:0:
256,192,14287,1,8,0:0:0:0:
256,192,14501,1,8,0:0:0:0:
256,192,14716,1,0,0:0:0:0:
256,192,14930,1,8,0:0:0:0:
256,192,15359,1,0,0:0:0:0:
256,192,15573,1,8,0:0:0:0:
256,192,16001,1,0,0:0:0:0:
256,192,16430,1,0,0:0:0:0:
256,192,16644,1,0,0:0:0:0:
256,192,16859,1,8,0:0:0:0:
256,192,17073,1,0,0:0:0:0:
256,192,17287,1,8,0:0:0:0:
256,192,17716,1,8,0:0:0:0:
256,192,17930,1,8,0:0:0:0:
256,192,18144,1,0,0:0:0:0:
256,192,18573,1,8,0:0:0:0:
256,192,18787,1,0,0:0:0:0:
256,192,19001,1,8,0:0:0:0:
256,192,19217,1,0,0:0:0:0:
256,192,19323,1,8,0:0:0:0:
256,192,19538,1,0,0:0:0:0:
256,192,19644,1,8,0:0:0:0:
256,192,19860,1,0,0:0:0:0:
256,192,19966,1,8,0:0:0:0:
256,192,20181,1,8,0:0:0:0:
256,192,20287,1,0,0:0:0:0:
256,192,20717,1,8,0:0:0:0:
256,192,20931,1,0,0:0:0:0:
256,192,21145,1,8,0:0:0:0:
256,192,21360,1,8,0:0:0:0:
256,192,21574,1,0,0:0:0:0:
256,192,21788,1,8,0:0:0:0:
256,192,22217,1,0,0:0:0:0:
256,192,22431,1,8,0:0:0:0:
256,192,22860,1,0,0:0:0:0:
256,192,23287,1,0,0:0:0:0:
256,192,23501,1,0,0:0:0:0:
256,192,23716,1,8,0:0:0:0:
256,192,23930,1,0,0:0:0:0:
256,192,24144,1,8,0:0:0:0:
256,192,24573,1,8,0:0:0:0:
256,192,24787,1,8,0:0:0:0:
256,192,25001,1,0,0:0:0:0:
256,192,25431,1,8,0:0:0:0:
256,192,25645,1,0,0:0:0:0:
256,192,25860,1,8,0:0:0:0:
261,194,25967,1,8,0:0:0:0:
256,192,26074,1,0,0:0:0:0:
256,192,26717,1,8,0:0:0:0:
256,192,27360,1,0,0:0:0:0:
256,192,27574,1,8,0:0:0:0:
256,192,27788,1,4,0:0:0:0:
256,192,28001,1,0,0:0:0:0:
256,192,28109,1,0,0:0:0:0:
256,192,28216,1,8,0:0:0:0:
256,192,28430,1,0,0:0:0:0:
256,192,28644,1,0,0:0:0:0:
256,192,28751,1,8,0:0:0:0:
256,192,28859,1,8,0:0:0:0:
256,192,28966,1,0,0:0:0:0:
256,192,29073,1,8,0:0:0:0:
256,192,29180,1,8,0:0:0:0:
256,192,29287,1,0,0:0:0:0:
256,192,29501,1,0,0:0:0:0:
256,192,29609,1,0,0:0:0:0:
256,192,29716,1,0,0:0:0:0:
256,192,29930,1,8,0:0:0:0:
256,192,30144,1,0,0:0:0:0:
256,192,30359,1,8,0:0:0:0:
256,192,30466,1,8,0:0:0:0:
256,192,30573,1,0,0:0:0:0:
256,192,30680,1,0,0:0:0:0:
256,192,30787,1,8,0:0:0:0:
256,192,31216,1,8,0:0:0:0:
256,192,31430,1,0,0:0:0:0:
256,192,31537,1,0,0:0:0:0:
256,192,31644,1,8,0:0:0:0:
256,192,31859,1,0,0:0:0:0:
256,192,32073,1,8,0:0:0:0:
256,192,32180,1,0,0:0:0:0:
256,192,32287,1,8,0:0:0:0:
256,192,32394,1,8,0:0:0:0:
262,192,32501,1,0,0:0:0:0:
256,192,32609,1,0,0:0:0:0:
256,192,32716,1,8,0:0:0:0:
256,192,32930,1,8,0:0:0:0:
254,192,33144,1,0,0:0:0:0:
256,192,33251,1,8,0:0:0:0:
256,192,33466,1,0,0:0:0:0:
256,192,33573,1,8,0:0:0:0:
256,192,33787,1,8,0:0:0:0:
256,192,33894,1,0,0:0:0:0:
254,192,34001,1,8,0:0:0:0:
254,192,34109,1,8,0:0:0:0:
256,192,34216,1,0,0:0:0:0:
256,192,34644,1,4,0:0:0:0:
256,192,34859,1,0,0:0:0:0:
256,192,34967,1,0,0:0:0:0:
256,192,35074,1,8,0:0:0:0:
256,192,35288,1,0,0:0:0:0:
256,192,35502,1,8,0:0:0:0:
256,192,35609,1,8,0:0:0:0:
256,192,35717,1,0,0:0:0:0:
256,192,35824,1,0,0:0:0:0:
256,192,35931,1,8,0:0:0:0:
256,192,36037,1,0,0:0:0:0:
256,192,36145,1,8,0:0:0:0:
256,192,36359,1,0,0:0:0:0:
256,192,36467,1,0,0:0:0:0:
256,192,36574,1,0,0:0:0:0:
256,192,36788,1,8,0:0:0:0:
256,192,37002,1,0,0:0:0:0:
256,192,37217,1,8,0:0:0:0:
256,192,37324,1,8,0:0:0:0:
256,192,37431,1,8,0:0:0:0:
256,192,37538,1,0,0:0:0:0:
256,192,37645,1,8,0:0:0:0:
256,192,38074,1,8,0:0:0:0:
256,192,38288,1,0,0:0:0:0:
256,192,38395,1,0,0:0:0:0:
256,192,38502,1,8,0:0:0:0:
256,192,38717,1,0,0:0:0:0:
256,192,38931,1,8,0:0:0:0:
256,192,39038,1,0,0:0:0:0:
256,192,39145,1,0,0:0:0:0:
256,192,39251,1,8,0:0:0:0:
262,192,39359,1,0,0:0:0:0:
256,192,39466,1,0,0:0:0:0:
256,192,39573,1,8,0:0:0:0:
256,192,39788,1,8,0:0:0:0:
254,192,40002,1,0,0:0:0:0:
256,192,40109,1,8,0:0:0:0:
256,192,40324,1,0,0:0:0:0:
256,192,40431,1,8,0:0:0:0:
256,192,40645,1,0,0:0:0:0:
256,192,40752,1,8,0:0:0:0:
254,192,40859,1,0,0:0:0:0:
254,192,40967,1,0,0:0:0:0:
256,192,41074,1,8,0:0:0:0:
256,192,41501,1,4,0:0:0:0:
256,192,41717,1,0,0:0:0:0:
256,192,41824,1,0,0:0:0:0:
256,192,41931,1,8,0:0:0:0:
256,192,42145,1,0,0:0:0:0:
256,192,42360,1,0,0:0:0:0:
256,192,42467,1,8,0:0:0:0:
256,192,42574,1,0,0:0:0:0:
256,192,42681,1,0,0:0:0:0:
256,192,42788,1,8,0:0:0:0:
256,192,42895,1,0,0:0:0:0:
256,192,43002,1,8,0:0:0:0:
256,192,43217,1,0,0:0:0:0:
256,192,43324,1,0,0:0:0:0:
256,192,43431,1,0,0:0:0:0:
256,192,43645,1,8,0:0:0:0:
256,192,43860,1,0,0:0:0:0:
256,192,44073,1,8,0:0:0:0:
256,192,44180,1,8,0:0:0:0:
256,192,44287,1,8,0:0:0:0:
256,192,44394,1,0,0:0:0:0:
256,192,44501,1,8,0:0:0:0:
256,192,44930,1,8,0:0:0:0:
256,192,45145,1,0,0:0:0:0:
256,192,45252,1,0,0:0:0:0:
256,192,45360,1,8,0:0:0:0:
256,192,45573,1,0,0:0:0:0:
256,192,45787,1,8,0:0:0:0:
256,192,45894,1,8,0:0:0:0:
256,192,46001,1,0,0:0:0:0:
256,192,46109,1,0,0:0:0:0:
262,192,46217,1,8,0:0:0:0:
256,192,46323,1,0,0:0:0:0:
256,192,46430,1,8,0:0:0:0:
256,192,46645,1,8,0:0:0:0:
254,192,46860,1,0,0:0:0:0:
256,192,46967,1,8,0:0:0:0:
256,192,47181,1,0,0:0:0:0:
256,192,47288,1,8,0:0:0:0:
256,192,47502,1,8,0:0:0:0:
256,192,47610,1,0,0:0:0:0:
254,192,47717,1,8,0:0:0:0:
254,192,47824,1,8,0:0:0:0:
256,192,47931,1,0,0:0:0:0:
256,192,48360,1,4,0:0:0:0:
256,192,48574,1,0,0:0:0:0:
256,192,48681,1,0,0:0:0:0:
256,192,48788,1,8,0:0:0:0:
256,192,49002,1,0,0:0:0:0:
256,192,49217,1,8,0:0:0:0:
256,192,49324,1,8,0:0:0:0:
256,192,49431,1,0,0:0:0:0:
256,192,49538,1,0,0:0:0:0:
256,192,49645,1,8,0:0:0:0:
256,192,49752,1,0,0:0:0:0:
256,192,49860,1,8,0:0:0:0:
256,192,50074,1,0,0:0:0:0:
256,192,50181,1,0,0:0:0:0:
256,192,50288,1,0,0:0:0:0:
256,192,50502,1,8,0:0:0:0:
256,192,50717,5,0,0:0:0:0:
256,192,50931,1,8,0:0:0:0:
256,192,51038,1,8,0:0:0:0:
256,192,51145,1,8,0:0:0:0:
256,192,51252,1,0,0:0:0:0:
256,192,51360,1,8,0:0:0:0:
256,192,51788,1,8,0:0:0:0:
256,192,52002,1,0,0:0:0:0:
256,192,52110,1,0,0:0:0:0:
256,192,52217,1,8,0:0:0:0:
256,192,52431,1,0,0:0:0:0:
256,192,52645,1,8,0:0:0:0:
256,192,52752,1,0,0:0:0:0:
256,192,52859,1,0,0:0:0:0:
256,192,52967,1,0,0:0:0:0:
262,192,53073,1,8,0:0:0:0:
256,192,53180,1,8,0:0:0:0:
256,192,53288,1,0,0:0:0:0:
256,192,53502,1,8,0:0:0:0:
254,192,53717,1,0,0:0:0:0:
256,192,53824,1,8,0:0:0:0:
256,192,54038,1,0,0:0:0:0:
256,192,54145,1,8,0:0:0:0:
256,192,54360,1,0,0:0:0:0:
254,192,54574,1,8,0:0:0:0:
254,192,54681,1,8,0:0:0:0:
256,192,54788,1,0,0:0:0:0:
256,192,55217,1,4,0:0:0:0:
254,192,55430,1,8,0:0:0:0:
254,192,55537,1,0,0:0:0:0:
254,192,55644,1,8,0:0:0:0:
251,194,55859,1,0,0:0:0:0:
256,192,56073,1,0,0:0:0:0:
256,192,56180,1,0,0:0:0:0:
254,192,56287,1,8,0:0:0:0:
254,192,56394,1,0,0:0:0:0:
254,192,56501,1,8,0:0:0:0:
254,192,56609,1,8,0:0:0:0:
251,194,56716,1,0,0:0:0:0:
256,192,56930,1,8,0:0:0:0:
256,192,57037,1,8,0:0:0:0:
256,192,57144,1,8,0:0:0:0:
254,192,57359,1,0,0:0:0:0:
251,194,57573,1,8,0:0:0:0:
256,192,57787,1,8,0:0:0:0:
256,192,57894,1,8,0:0:0:0:
256,192,58001,1,0,0:0:0:0:
256,192,58109,1,0,0:0:0:0:
254,192,58216,1,8,0:0:0:0:
251,194,58430,1,0,0:0:0:0:
251,194,58537,1,8,0:0:0:0:
256,192,58644,1,0,0:0:0:0:
256,192,58751,1,0,0:0:0:0:
256,192,58859,1,8,0:0:0:0:
256,192,59073,1,8,0:0:0:0:
256,192,59287,1,0,0:0:0:0:
256,192,59394,1,0,0:0:0:0:
256,192,59501,1,0,0:0:0:0:
256,192,59716,1,8,0:0:0:0:
256,192,59823,1,0,0:0:0:0:
256,192,59930,1,8,0:0:0:0:
256,192,60144,1,8,0:0:0:0:
256,192,60359,1,0,0:0:0:0:
256,192,60466,1,0,0:0:0:0:
256,192,60573,1,8,0:0:0:0:
256,192,60680,1,8,0:0:0:0:
256,192,60787,1,0,0:0:0:0:
256,192,61001,1,8,0:0:0:0:
256,192,61109,1,8,0:0:0:0:
256,192,61216,1,0,0:0:0:0:
256,192,61430,1,0,0:0:0:0:
256,192,61644,1,8,0:0:0:0:
256,192,62073,1,4,0:0:0:0:
254,192,62287,1,8,0:0:0:0:
254,192,62394,1,0,0:0:0:0:
254,192,62501,1,8,0:0:0:0:
251,194,62716,1,0,0:0:0:0:
256,192,62930,1,8,0:0:0:0:
256,192,63037,1,0,0:0:0:0:
254,192,63144,1,0,0:0:0:0:
254,192,63251,1,0,0:0:0:0:
254,192,63360,1,8,0:0:0:0:
251,194,63573,1,8,0:0:0:0:
254,192,63680,1,0,0:0:0:0:
256,192,63787,1,8,0:0:0:0:
256,192,63894,1,8,0:0:0:0:
256,192,64001,1,0,0:0:0:0:
254,192,64216,1,8,0:0:0:0:
251,194,64430,1,8,0:0:0:0:
256,192,64644,1,0,0:0:0:0:
256,192,64751,1,8,0:0:0:0:
256,192,64860,1,0,0:0:0:0:
256,192,64966,1,0,0:0:0:0:
254,192,65073,1,8,0:0:0:0:
251,194,65287,1,8,0:0:0:0:
251,194,65394,1,8,0:0:0:0:
256,192,65501,1,0,0:0:0:0:
256,192,65609,1,0,0:0:0:0:
256,192,65716,1,8,0:0:0:0:
256,192,65930,1,0,0:0:0:0:
256,192,66144,1,0,0:0:0:0:
256,192,66251,1,0,0:0:0:0:
256,192,66360,1,8,0:0:0:0:
256,192,66573,1,8,0:0:0:0:
256,192,66680,1,0,0:0:0:0:
256,192,66787,1,8,0:0:0:0:
256,192,66894,1,0,0:0:0:0:
256,192,67001,1,8,0:0:0:0:
256,192,67217,1,0,0:0:0:0:
256,192,67324,1,0,0:0:0:0:
256,192,67431,1,0,0:0:0:0:
256,192,67645,1,8,0:0:0:0:
256,192,67860,1,0,0:0:0:0:
256,192,67967,1,8,0:0:0:0:
256,192,68181,1,8,0:0:0:0:
256,192,68288,1,0,0:0:0:0:
256,192,68502,1,8,0:0:0:0:
256,192,68931,1,4,0:0:0:0:
254,192,69144,1,8,0:0:0:0:
254,192,69251,1,0,0:0:0:0:
254,192,69360,1,8,0:0:0:0:
251,194,69573,1,0,0:0:0:0:
256,192,69787,1,8,0:0:0:0:
256,192,69894,1,0,0:0:0:0:
254,192,70001,1,8,0:0:0:0:
254,192,70110,1,0,0:0:0:0:
254,192,70217,1,8,0:0:0:0:
254,192,70324,1,8,0:0:0:0:
251,194,70431,1,0,0:0:0:0:
256,192,70644,1,8,0:0:0:0:
256,192,70751,1,8,0:0:0:0:
256,192,70860,1,8,0:0:0:0:
254,192,71073,1,0,0:0:0:0:
251,194,71287,1,8,0:0:0:0:
256,192,71502,1,8,0:0:0:0:
256,192,71610,1,8,0:0:0:0:
256,192,71717,1,8,0:0:0:0:
256,192,71824,1,0,0:0:0:0:
254,192,71931,1,8,0:0:0:0:
251,194,72144,1,0,0:0:0:0:
251,194,72251,1,8,0:0:0:0:
256,192,72360,1,0,0:0:0:0:
256,192,72467,1,0,0:0:0:0:
256,192,72574,1,8,0:0:0:0:
256,192,72787,1,8,0:0:0:0:
256,192,73002,1,0,0:0:0:0:
256,192,73110,1,0,0:0:0:0:
256,192,73217,1,0,0:0:0:0:
256,192,73431,1,8,0:0:0:0:
256,192,73538,1,8,0:0:0:0:
256,192,73645,1,0,0:0:0:0:
256,192,73860,1,8,0:0:0:0:
256,192,74074,1,0,0:0:0:0:
256,192,74181,1,0,0:0:0:0:
256,192,74288,1,8,0:0:0:0:
256,192,74395,1,0,0:0:0:0:
256,192,74502,1,8,0:0:0:0:
256,192,74717,1,8,0:0:0:0:
256,192,74823,1,8,0:0:0:0:
256,192,74930,1,0,0:0:0:0:
256,192,75144,1,0,0:0:0:0:
256,192,75360,1,8,0:0:0:0:
256,192,75787,1,4,0:0:0:0:
254,192,76001,1,8,0:0:0:0:
254,192,76110,1,0,0:0:0:0:
254,192,76217,1,8,0:0:0:0:
251,194,76430,1,0,0:0:0:0:
256,192,76644,1,8,0:0:0:0:
256,192,76751,1,0,0:0:0:0:
254,192,76860,1,8,0:0:0:0:
254,192,76967,1,0,0:0:0:0:
254,192,77074,1,8,0:0:0:0:
251,194,77287,1,0,0:0:0:0:
254,192,77394,1,0,0:0:0:0:
256,192,77501,1,8,0:0:0:0:
256,192,77610,1,8,0:0:0:0:
256,192,77717,1,0,0:0:0:0:
254,192,77930,1,8,0:0:0:0:
251,194,78144,1,8,0:0:0:0:
256,192,78360,1,0,0:0:0:0:
256,192,78467,1,8,0:0:0:0:
256,192,78574,1,0,0:0:0:0:
256,192,78680,1,0,0:0:0:0:
254,192,78787,1,8,0:0:0:0:
251,194,79001,1,8,0:0:0:0:
251,194,79110,1,8,0:0:0:0:
256,192,79217,1,0,0:0:0:0:
256,192,79323,1,0,0:0:0:0:
256,192,79430,1,8,0:0:0:0:
256,192,79644,1,0,0:0:0:0:
256,192,79860,1,8,0:0:0:0:
256,192,79967,1,0,0:0:0:0:
256,192,80074,1,8,0:0:0:0:
256,192,80288,1,8,0:0:0:0:
256,192,80395,1,0,0:0:0:0:
256,192,80502,1,8,0:0:0:0:
256,192,80610,1,0,0:0:0:0:
256,192,80717,1,8,0:0:0:0:
256,192,80931,1,0,0:0:0:0:
256,192,81038,1,0,0:0:0:0:
256,192,81252,1,0,0:0:0:0:
256,192,81360,5,8,0:0:0:0:
256,192,81574,1,8,0:0:0:0:
256,192,81681,1,8,0:0:0:0:
256,192,81788,1,0,0:0:0:0:
256,192,81895,1,8,0:0:0:0:
256,192,82002,1,0,0:0:0:0:
256,192,82217,1,8,0:0:0:0:
256,192,82645,5,0,0:0:0:0:
256,192,82859,1,8,0:0:0:0:
256,192,82966,1,8,0:0:0:0:
256,192,83073,1,0,0:0:0:0:
256,192,83287,1,0,0:0:0:0:
256,192,83501,1,8,0:0:0:0:
256,192,83930,1,0,0:0:0:0:
256,192,84359,1,8,0:0:0:0:
256,192,84573,1,0,0:0:0:0:
256,192,84680,1,0,0:0:0:0:
256,192,84787,1,8,0:0:0:0:
256,192,85001,1,8,0:0:0:0:
256,192,85216,1,0,0:0:0:0:
256,192,85430,1,0,0:0:0:0:
256,192,85537,1,0,0:0:0:0:
256,192,85644,1,8,0:0:0:0:
256,192,86073,1,0,0:0:0:0:
256,192,86287,1,8,0:0:0:0:
256,192,86394,1,8,0:0:0:0:
256,192,86501,1,0,0:0:0:0:
256,192,86716,1,0,0:0:0:0:
256,192,86930,1,8,0:0:0:0:
256,192,87359,1,8,0:0:0:0:
256,192,87787,1,0,0:0:0:0:
256,192,88001,1,8,0:0:0:0:
256,192,88109,1,0,0:0:0:0:
256,192,88323,1,8,0:0:0:0:
256,192,88430,1,0,0:0:0:0:
256,192,88644,1,8,0:0:0:0:
256,192,88859,1,0,0:0:0:0:
256,192,88966,1,8,0:0:0:0:
256,192,89180,1,0,0:0:0:0:
256,192,89287,1,8,0:0:0:0:
256,192,89501,1,0,0:0:0:0:
256,192,89716,1,8,0:0:0:0:
256,192,89823,1,8,0:0:0:0:
256,192,89930,1,0,0:0:0:0:
256,192,90144,1,0,0:0:0:0:
256,192,90360,1,8,0:0:0:0:
256,192,90787,1,0,0:0:0:0:
256,192,91217,1,8,0:0:0:0:
256,192,91431,1,0,0:0:0:0:
256,192,91538,1,0,0:0:0:0:
256,192,91645,1,8,0:0:0:0:
256,192,91860,1,8,0:0:0:0:
256,192,92074,1,0,0:0:0:0:
256,192,92288,1,0,0:0:0:0:
256,192,92395,1,0,0:0:0:0:
256,192,92502,1,8,0:0:0:0:
256,192,92930,1,0,0:0:0:0:
256,192,93144,1,8,0:0:0:0:
256,192,93251,1,8,0:0:0:0:
256,192,93360,1,0,0:0:0:0:
256,192,93573,1,0,0:0:0:0:
256,192,93787,1,8,0:0:0:0:
256,192,94216,1,8,0:0:0:0:
256,192,94645,1,0,0:0:0:0:
256,192,94752,1,0,0:0:0:0:
256,192,94967,1,8,0:0:0:0:
256,192,95074,1,0,0:0:0:0:
256,192,95288,1,8,0:0:0:0:
256,192,95395,1,8,0:0:0:0:
256,192,95610,1,8,0:0:0:0:
256,192,95717,1,0,0:0:0:0:
256,192,95931,1,8,0:0:0:0:
256,192,96360,1,4,0:0:0:0:
254,192,96573,1,8,0:0:0:0:
254,192,96680,1,0,0:0:0:0:
254,192,96787,1,8,0:0:0:0:
251,194,97002,1,0,0:0:0:0:
256,192,97216,1,8,0:0:0:0:
256,192,97323,1,8,0:0:0:0:
254,192,97430,1,0,0:0:0:0:
254,192,97537,1,0,0:0:0:0:
254,192,97644,1,8,0:0:0:0:
254,192,97751,1,0,0:0:0:0:
251,194,97859,1,8,0:0:0:0:
256,192,98073,1,8,0:0:0:0:
256,192,98180,1,8,0:0:0:0:
256,192,98287,1,8,0:0:0:0:
254,192,98502,1,0,0:0:0:0:
251,194,98716,1,8,0:0:0:0:
256,192,98930,1,8,0:0:0:0:
256,192,99037,1,8,0:0:0:0:
256,192,99144,1,0,0:0:0:0:
256,192,99252,1,0,0:0:0:0:
254,192,99359,1,8,0:0:0:0:
251,194,99573,1,0,0:0:0:0:
251,194,99680,1,8,0:0:0:0:
256,192,99787,1,0,0:0:0:0:
256,192,99894,1,0,0:0:0:0:
256,192,100002,1,8,0:0:0:0:
256,192,100216,1,8,0:0:0:0:
256,192,100430,1,0,0:0:0:0:
256,192,100537,1,0,0:0:0:0:
256,192,100644,1,0,0:0:0:0:
256,192,100859,1,8,0:0:0:0:
256,192,100966,1,8,0:0:0:0:
256,192,101073,1,0,0:0:0:0:
256,192,101287,1,8,0:0:0:0:
256,192,101502,1,0,0:0:0:0:
256,192,101609,1,0,0:0:0:0:
256,192,101716,1,8,0:0:0:0:
256,192,101823,1,0,0:0:0:0:
256,192,101930,1,8,0:0:0:0:
256,192,102144,1,0,0:0:0:0:
256,192,102252,1,8,0:0:0:0:
256,192,102359,1,8,0:0:0:0:
256,192,102573,1,0,0:0:0:0:
256,192,102787,1,8,0:0:0:0:
256,192,103216,1,4,0:0:0:0:
254,192,103430,1,8,0:0:0:0:
254,192,103537,1,0,0:0:0:0:
254,192,103644,1,8,0:0:0:0:
251,194,103859,1,0,0:0:0:0:
256,192,104073,1,0,0:0:0:0:
256,192,104180,1,8,0:0:0:0:
254,192,104287,1,8,0:0:0:0:
254,192,104394,1,0,0:0:0:0:
254,192,104501,1,8,0:0:0:0:
251,194,104716,1,0,0:0:0:0:
254,192,104823,1,0,0:0:0:0:
256,192,104930,1,8,0:0:0:0:
256,192,105037,1,8,0:0:0:0:
256,192,105144,1,0,0:0:0:0:
254,192,105359,1,8,0:0:0:0:
251,194,105573,1,8,0:0:0:0:
256,192,105787,1,0,0:0:0:0:
256,192,105894,1,8,0:0:0:0:
256,192,106001,1,0,0:0:0:0:
256,192,106109,1,0,0:0:0:0:
254,192,106216,1,8,0:0:0:0:
251,194,106430,1,8,0:0:0:0:
251,194,106537,1,8,0:0:0:0:
256,192,106644,1,0,0:0:0:0:
256,192,106752,1,0,0:0:0:0:
256,192,106859,1,8,0:0:0:0:
256,192,107073,1,0,0:0:0:0:
256,192,107287,1,8,0:0:0:0:
256,192,107394,1,8,0:0:0:0:
256,192,107501,1,0,0:0:0:0:
256,192,107716,1,8,0:0:0:0:
256,192,107823,1,0,0:0:0:0:
256,192,107930,1,0,0:0:0:0:
256,192,108037,1,8,0:0:0:0:
256,192,108144,1,8,0:0:0:0:
256,192,108360,1,0,0:0:0:0:
256,192,108467,1,0,0:0:0:0:
256,192,108574,1,0,0:0:0:0:
256,192,108788,1,8,0:0:0:0:
256,192,109002,1,0,0:0:0:0:
256,192,109110,1,8,0:0:0:0:
256,192,109324,1,8,0:0:0:0:
256,192,109431,1,0,0:0:0:0:
256,192,109645,1,8,0:0:0:0:
256,192,110074,1,0,0:0:0:0:
254,192,110145,1,8,0:0:0:0:
254,192,110217,1,8,0:0:0:0:
254,192,110288,1,0,0:0:0:0:
256,192,110395,1,0,0:0:0:0:
256,192,110502,1,8,0:0:0:0:
251,194,110716,1,0,0:0:0:0:
256,192,110930,1,8,0:0:0:0:
256,192,111001,1,0,0:0:0:0:
254,192,111073,1,0,0:0:0:0:
254,192,111144,1,8,0:0:0:0:
254,192,111251,1,0,0:0:0:0:
254,192,111359,1,8,0:0:0:0:
251,194,111466,1,8,0:0:0:0:
251,194,111573,1,0,0:0:0:0:
256,192,111787,1,8,0:0:0:0:
256,192,111859,1,8,0:0:0:0:
256,192,111930,1,8,0:0:0:0:
254,192,112001,1,0,0:0:0:0:
254,192,112216,1,8,0:0:0:0:
254,192,112287,1,8,0:0:0:0:
254,192,112359,1,0,0:0:0:0:
251,194,112430,1,0,0:0:0:0:
256,192,112644,1,8,0:0:0:0:
256,192,112716,1,0,0:0:0:0:
256,192,112787,1,0,0:0:0:0:
256,192,112859,1,8,0:0:0:0:
254,192,112966,1,8,0:0:0:0:
254,192,113073,1,0,0:0:0:0:
251,194,113287,1,8,0:0:0:0:
256,192,113501,1,0,0:0:0:0:
256,192,113573,1,8,0:0:0:0:
256,192,113644,1,8,0:0:0:0:
256,192,113716,1,0,0:0:0:0:
249,194,113823,1,0,0:0:0:0:
256,192,113930,1,8,0:0:0:0:
256,192,114144,1,0,0:0:0:0:
256,192,114360,1,8,0:0:0:0:
256,192,114431,1,0,0:0:0:0:
256,192,114502,1,0,0:0:0:0:
256,192,114574,1,8,0:0:0:0:
256,192,114680,1,0,0:0:0:0:
256,192,114788,1,8,0:0:0:0:
256,192,114894,1,8,0:0:0:0:
256,192,115002,1,0,0:0:0:0:
256,192,115217,1,8,0:0:0:0:
256,192,115288,1,8,0:0:0:0:
256,192,115360,1,8,0:0:0:0:
256,192,115431,1,0,0:0:0:0:
256,192,115644,1,8,0:0:0:0:
256,192,115751,1,0,0:0:0:0:
256,192,115859,1,8,0:0:0:0:
256,192,115966,1,0,0:0:0:0:
256,192,116073,1,8,0:0:0:0:
256,192,116144,1,0,0:0:0:0:
256,192,116216,1,0,0:0:0:0:
256,192,116287,1,8,0:0:0:0:
256,192,116501,1,0,0:0:0:0:
256,192,116930,1,0,0:0:0:0:
254,192,117001,1,8,0:0:0:0:
254,192,117073,1,8,0:0:0:0:
254,192,117144,1,0,0:0:0:0:
256,192,117251,1,0,0:0:0:0:
256,192,117360,1,8,0:0:0:0:
251,194,117573,1,0,0:0:0:0:
256,192,117788,1,8,0:0:0:0:
256,192,117860,1,0,0:0:0:0:
254,192,117931,1,0,0:0:0:0:
254,192,118002,1,8,0:0:0:0:
254,192,118110,1,0,0:0:0:0:
254,192,118217,1,8,0:0:0:0:
251,194,118323,1,8,0:0:0:0:
251,194,118431,1,0,0:0:0:0:
256,192,118645,1,8,0:0:0:0:
256,192,118717,1,8,0:0:0:0:
256,192,118788,1,8,0:0:0:0:
254,192,118860,1,0,0:0:0:0:
254,192,119074,1,8,0:0:0:0:
254,192,119144,1,8,0:0:0:0:
254,192,119216,1,0,0:0:0:0:
251,194,119287,1,0,0:0:0:0:
256,192,119501,1,8,0:0:0:0:
256,192,119573,1,0,0:0:0:0:
256,192,119644,1,0,0:0:0:0:
256,192,119716,1,8,0:0:0:0:
254,192,119823,1,8,0:0:0:0:
254,192,119930,1,0,0:0:0:0:
251,194,120144,1,8,0:0:0:0:
256,192,120360,1,0,0:0:0:0:
256,192,120430,1,8,0:0:0:0:
256,192,120501,1,8,0:0:0:0:
256,192,120573,1,0,0:0:0:0:
249,194,120680,1,0,0:0:0:0:
256,192,120787,1,8,0:0:0:0:
256,192,121001,1,0,0:0:0:0:
256,192,121217,1,8,0:0:0:0:
256,192,121288,1,0,0:0:0:0:
256,192,121360,1,0,0:0:0:0:
256,192,121431,1,8,0:0:0:0:
256,192,121538,1,0,0:0:0:0:
256,192,121645,1,8,0:0:0:0:
256,192,121752,1,8,0:0:0:0:
256,192,121860,1,0,0:0:0:0:
256,192,122074,1,0,0:0:0:0:
256,192,122181,1,0,0:0:0:0:
256,192,122395,1,8,0:0:0:0:
256,192,122502,1,0,0:0:0:0:
256,192,122717,1,8,0:0:0:0:
256,192,122824,1,8,0:0:0:0:
256,192,123038,1,8,0:0:0:0:
256,192,123145,1,0,0:0:0:0:
256,192,123360,1,8,0:0:0:0:
256,192,123788,5,0,0:0:0:0:
256,192,124002,1,8,0:0:0:0:
256,192,124109,1,8,0:0:0:0:
256,192,124216,1,0,0:0:0:0:
256,192,124430,1,0,0:0:0:0:
256,192,124644,1,8,0:0:0:0:
256,192,125073,1,0,0:0:0:0:
256,192,125502,1,8,0:0:0:0:
256,192,125716,1,0,0:0:0:0:
256,192,125823,1,0,0:0:0:0:
256,192,125930,1,8,0:0:0:0:
256,192,126144,1,8,0:0:0:0:
256,192,126359,1,0,0:0:0:0:
256,192,126573,1,0,0:0:0:0:
256,192,126787,1,8,0:0:0:0:
256,192,127216,1,0,0:0:0:0:
256,192,127430,1,8,0:0:0:0:
256,192,127537,1,8,0:0:0:0:
256,192,127644,1,0,0:0:0:0:
256,192,127859,1,0,0:0:0:0:
256,192,128073,1,8,0:0:0:0:
256,192,128502,1,8,0:0:0:0:
256,192,128930,1,0,0:0:0:0:
256,192,129144,1,8,0:0:0:0:
256,192,129252,1,8,0:0:0:0:
256,192,129359,1,0,0:0:0:0:
256,192,129573,1,0,0:0:0:0:
256,192,129787,1,8,0:0:0:0:
256,192,130002,1,0,0:0:0:0:
256,192,130216,1,8,0:0:0:0:
256,192,130645,1,0,0:0:0:0:
256,192,131074,1,0,0:0:0:0:
256,192,131288,1,0,0:0:0:0:
256,192,131502,1,8,0:0:0:0:
256,192,132360,1,8,0:0:0:0:
256,192,132788,1,8,0:0:0:0:
256,192,133002,1,8,0:0:0:0:
256,192,133217,1,0,0:0:0:0:
256,192,133645,1,8,0:0:0:0:
256,192,134074,1,0,0:0:0:0:
256,192,134502,1,0,0:0:0:0:
256,192,134717,1,0,0:0:0:0:
256,192,134931,1,8,0:0:0:0:
256,192,135788,1,8,0:0:0:0:
256,192,136217,1,8,0:0:0:0:
256,192,136431,1,8,0:0:0:0:
256,192,136645,1,8,0:0:0:0:
256,192,137074,1,0,0:0:0:0:
