osu file format v14

[General]
AudioFilename: audio.mp3
AudioLeadIn: 0
PreviewTime: 76822
Countdown: 0
SampleSet: Normal
StackLeniency: 0.7
Mode: 1
LetterboxInBreaks: 0
WidescreenStoryboard: 0

[Editor]
Bookmarks: 9622,19222,28822,38422,48022,57622,67222,76822,86422,96022,105622,115222,124822,134422
DistanceSpacing: 1.5
BeatDivisor: 8
GridSize: 4
TimelineZoom: 3.099999

[Metadata]
Title:contra88
TitleUnicode:contra88
Artist:Kola Kid
ArtistUnicode:Kola Kid
Creator:Gamelan4
Version:Red Falcon
Source:osu!
Tags:Axer Coryn Nepuri fa featured artist instrumental electronic mpg breakcore mg mappers' guild chiptune
BeatmapID:2353987
BeatmapSetID:1126630

[Difficulty]
HPDrainRate:6
CircleSize:5
OverallDifficulty:7
ApproachRate:5
SliderMultiplier:1.4
SliderTickRate:1

[Events]
//Background and Video events
0,0,"pucha bg bonito uwu.png",0,0
//Break Periods
2,67422,73822
//Storyboard Layer 0 (Background)
//Storyboard Layer 1 (Fail)
//Storyboard Layer 2 (Pass)
//Storyboard Layer 3 (Foreground)
//Storyboard Layer 4 (Overlay)
//Storyboard Sound Samples

[TimingPoints]
22,300,4,1,0,90,1,0
22,-66.6666666666667,4,1,0,90,0,0
1222,-133.333333333333,4,1,0,90,0,0
2122,-66.6666666666667,4,1,0,90,0,0
3622,-133.333333333333,4,1,0,90,0,0
4672,-66.6666666666667,4,1,0,90,0,0
6022,-133.333333333333,4,1,0,90,0,0
6922,-66.6666666666667,4,1,0,90,0,0
7672,-133.333333333333,4,1,0,90,0,0
8422,-66.6666666666667,4,1,0,90,0,0
8722,-64.5161290322581,4,1,0,90,0,0
9022,-62.5,4,1,0,90,0,0
9284,-71.4285714285714,4,1,0,90,0,0
9359,-76.9230769230769,4,1,0,90,0,0
9434,-83.3333333333333,4,1,0,90,0,0
9509,-90.9090909090909,4,1,0,90,0,0
9584,-100,4,1,0,90,0,0
9772,-133.333333333333,4,1,0,90,0,0
11872,-66.6666666666667,4,1,0,90,0,0
12472,-133.333333333333,4,1,0,90,0,0
14422,-66.6666666666667,4,1,0,90,0,0
14872,-133.333333333333,4,1,0,90,0,0
16672,-66.6666666666667,4,1,0,90,0,0
17272,-133.333333333333,4,1,0,90,0,0
18022,-66.6666666666667,4,1,0,90,0,0
18172,-125,4,1,0,90,0,0
18322,-64.5161290322581,4,1,0,90,0,0
18472,-117.647058823529,4,1,0,90,0,0
18622,-62.5,4,1,0,90,0,0
18772,-111.111111111111,4,1,0,90,0,0
18884,-71.4285714285714,4,1,0,90,0,0
18959,-76.9230769230769,4,1,0,90,0,0
19034,-83.3333333333333,4,1,0,90,0,0
19109,-90.9090909090909,4,1,0,90,0,0
19184,-100,4,1,0,90,0,0
28784,-73.5294117647059,4,1,0,90,0,0
28934,-75.7575757575758,4,1,0,90,0,0
29084,-78.125,4,1,0,90,0,0
29234,-80.6451612903226,4,1,0,90,0,0
29384,-83.3333333333333,4,1,0,90,0,0
29534,-86.2068965517241,4,1,0,90,0,0
29684,-89.2857142857143,4,1,0,90,0,0
29834,-92.5925925925926,4,1,0,90,0,0
29984,-96.1538461538461,4,1,0,90,0,0
30134,-92.5925925925926,4,1,0,90,0,0
30284,-89.2857142857143,4,1,0,90,0,0
30434,-86.2068965517241,4,1,0,90,0,0
30584,-83.3333333333333,4,1,0,90,0,0
30734,-80.6451612903226,4,1,0,90,0,0
30884,-78.125,4,1,0,90,0,0
31034,-75.7575757575758,4,1,0,90,0,0
31184,-73.5294117647059,4,1,0,90,0,0
31334,-75.7575757575758,4,1,0,90,0,0
31484,-78.125,4,1,0,90,0,0
31634,-80.6451612903226,4,1,0,90,0,0
31784,-83.3333333333333,4,1,0,90,0,0
31934,-86.2068965517241,4,1,0,90,0,0
32084,-89.2857142857143,4,1,0,90,0,0
32234,-92.5925925925926,4,1,0,90,0,0
32384,-96.1538461538461,4,1,0,90,0,0
32534,-92.5925925925926,4,1,0,90,0,0
32684,-89.2857142857143,4,1,0,90,0,0
32834,-86.2068965517241,4,1,0,90,0,0
32984,-83.3333333333333,4,1,0,90,0,0
33134,-80.6451612903226,4,1,0,90,0,0
33284,-78.125,4,1,0,90,0,0
33434,-75.7575757575758,4,1,0,90,0,0
33584,-73.5294117647059,4,1,0,90,0,0
33734,-75.7575757575758,4,1,0,90,0,0
33884,-78.125,4,1,0,90,0,0
34034,-80.6451612903226,4,1,0,90,0,0
34184,-83.3333333333333,4,1,0,90,0,0
34334,-86.2068965517241,4,1,0,90,0,0
34484,-89.2857142857143,4,1,0,90,0,0
34634,-92.5925925925926,4,1,0,90,0,0
34784,-96.1538461538461,4,1,0,90,0,0
34934,-92.5925925925926,4,1,0,90,0,0
35084,-89.2857142857143,4,1,0,90,0,0
35234,-86.2068965517241,4,1,0,90,0,0
35384,-83.3333333333333,4,1,0,90,0,0
35534,-80.6451612903226,4,1,0,90,0,0
35684,-78.125,4,1,0,90,0,0
35834,-75.7575757575758,4,1,0,90,0,0
35984,-73.5294117647059,4,1,0,90,0,0
36134,-75.7575757575758,4,1,0,90,0,0
36284,-78.125,4,1,0,90,0,0
36434,-80.6451612903226,4,1,0,90,0,0
36509,-83.3333333333333,4,1,0,90,0,0
36584,-86.2068965517241,4,1,0,90,0,0
36734,-89.2857142857143,4,1,0,90,0,0
36884,-92.5925925925926,4,1,0,90,0,0
37034,-96.1538461538461,4,1,0,90,0,0
37184,-71.4285714285714,4,1,0,90,0,0
37259,-72.463768115942,4,1,0,90,0,0
37334,-73.5294117647059,4,1,0,90,0,0
37409,-74.6268656716418,4,1,0,90,0,0
37484,-75.7575757575758,4,1,0,90,0,0
37559,-76.9230769230769,4,1,0,90,0,0
37634,-78.125,4,1,0,90,0,0
37709,-79.3650793650794,4,1,0,90,0,0
37784,-80.6451612903226,4,1,0,90,0,0
37859,-81.9672131147541,4,1,0,90,0,0
37934,-83.3333333333333,4,1,0,90,0,0
38009,-84.7457627118644,4,1,0,90,0,0
38084,-86.2068965517241,4,1,0,90,0,0
38159,-87.719298245614,4,1,0,90,0,0
38234,-89.2857142857143,4,1,0,90,0,0
38309,-90.9090909090909,4,1,0,90,0,0
38384,-92.5925925925926,4,1,0,90,0,0
38534,-94.3396226415094,4,1,0,90,0,0
38684,-96.1538461538461,4,1,0,90,0,0
38834,-98.0392156862745,4,1,0,90,0,0
39022,-100,4,1,0,90,0,0
40672,-57.1428571428571,4,1,0,90,0,0
41272,-100,4,1,0,90,0,0
43222,-57.1428571428571,4,1,0,90,0,0
43522,-100,4,1,0,90,0,0
45472,-57.1428571428571,4,1,0,90,0,0
45922,-100,4,1,0,90,0,0
46822,-66.6666666666667,4,1,0,90,0,0
46972,-95.2380952380952,4,1,0,90,0,0
47122,-64.5161290322581,4,1,0,90,0,0
47272,-90.9090909090909,4,1,0,90,0,0
47422,-62.5,4,1,0,90,0,0
47572,-86.9565217391304,4,1,0,90,0,0
47684,-71.4285714285714,4,1,0,90,0,0
47759,-76.9230769230769,4,1,0,90,0,0
47834,-83.3333333333333,4,1,0,90,0,0
47909,-90.9090909090909,4,1,0,90,0,0
47984,-100,4,1,0,90,0,0
55672,-99.009900990099,4,1,0,90,0,0
55822,-98.0392156862745,4,1,0,90,0,0
56272,-97.0873786407767,4,1,0,90,0,0
56384,-96.1538461538461,4,1,0,90,0,0
56459,-95.2380952380952,4,1,0,90,0,0
56534,-94.3396226415094,4,1,0,90,0,0
56609,-93.4579439252336,4,1,0,90,0,0
56684,-92.5925925925926,4,1,0,90,0,0
56759,-91.743119266055,4,1,0,90,0,0
56834,-90.9090909090909,4,1,0,90,0,0
56909,-90.0900900900901,4,1,0,90,0,0
56984,-89.2857142857143,4,1,0,90,0,0
57059,-88.4955752212389,4,1,0,90,0,0
57134,-87.719298245614,4,1,0,90,0,0
57209,-86.9565217391304,4,1,0,90,0,0
57284,-86.2068965517241,4,1,0,90,0,0
57359,-85.4700854700855,4,1,0,90,0,0
57434,-84.7457627118644,4,1,0,90,0,0
57509,-84.0336134453781,4,1,0,90,0,0
57584,-83.3333333333333,4,1,0,90,0,0
59834,-69.4444444444444,4,1,0,90,0,0
59909,-71.4285714285714,4,1,0,90,0,0
59984,-73.5294117647059,4,1,0,90,0,0
60059,-75.7575757575758,4,1,0,90,0,0
60134,-78.125,4,1,0,90,0,0
60209,-80.6451612903226,4,1,0,90,0,0
60284,-83.3333333333333,4,1,0,90,0,0
62384,-69.4444444444444,4,1,0,90,0,0
62459,-71.4285714285714,4,1,0,90,0,0
62534,-73.5294117647059,4,1,0,90,0,0
62609,-75.7575757575758,4,1,0,90,0,0
62684,-78.125,4,1,0,90,0,0
62759,-80.6451612903226,4,1,0,90,0,0
62834,-83.3333333333333,4,1,0,90,0,0
64634,-69.4444444444444,4,1,0,90,0,0
64709,-71.4285714285714,4,1,0,90,0,0
64784,-73.5294117647059,4,1,0,90,0,0
64859,-75.7575757575758,4,1,0,90,0,0
64934,-78.125,4,1,0,90,0,0
65009,-80.6451612903226,4,1,0,90,0,0
65084,-83.3333333333333,4,1,0,90,0,0
65984,-84.7457627118644,4,1,0,90,0,0
66059,-86.2068965517241,4,1,0,90,0,0
66134,-87.719298245614,4,1,0,90,0,0
66284,-89.2857142857143,4,1,0,90,0,0
66359,-90.9090909090909,4,1,0,90,0,0
66434,-92.5925925925926,4,1,0,90,0,0
66584,-94.3396226415094,4,1,0,90,0,0
66734,-96.1538461538461,4,1,0,90,0,0
66884,-98.0392156862745,4,1,0,90,0,0
67034,-100,4,1,0,90,0,0
75022,-80,4,1,0,90,0,0
75172,-100,4,1,0,90,0,0
75322,-74.0740740740741,4,1,0,90,0,0
75472,-100,4,1,0,90,0,0
75622,-68.9655172413793,4,1,0,90,0,0
75772,-100,4,1,0,90,0,0
75884,-66.6666666666667,4,1,0,90,0,0
75959,-71.4285714285714,4,1,0,90,0,0
76034,-76.9230769230769,4,1,0,90,0,0
76109,-83.3333333333333,4,1,0,90,0,0
76184,-90.9090909090909,4,1,0,90,0,0
76484,-71.4285714285714,4,1,0,90,0,0
76559,-76.9230769230769,4,1,0,90,0,0
76634,-83.3333333333333,4,1,0,90,0,0
76709,-90.9090909090909,4,1,0,90,0,0
76822,-66.6666666666667,4,1,0,90,0,1
77272,-133.333333333333,4,1,0,90,0,1
79072,-66.6666666666667,4,1,0,90,0,1
79672,-133.333333333333,4,1,0,90,0,1
81622,-66.6666666666667,4,1,0,90,0,1
82072,-133.333333333333,4,1,0,90,0,1
83872,-66.6666666666667,4,1,0,90,0,1
84622,-133.333333333333,4,1,0,90,0,1
85222,-66.6666666666667,4,1,0,90,0,1
85372,-125,4,1,0,90,0,1
85522,-64.5161290322581,4,1,0,90,0,1
85672,-117.647058823529,4,1,0,90,0,1
85822,-62.5,4,1,0,90,0,1
85972,-111.111111111111,4,1,0,90,0,1
86084,-71.4285714285714,4,1,0,90,0,1
86159,-76.9230769230769,4,1,0,90,0,1
86234,-83.3333333333333,4,1,0,90,0,1
86309,-90.9090909090909,4,1,0,90,0,1
86422,-100,4,1,0,90,0,0
95234,-102.040816326531,4,1,0,90,0,0
95384,-104.166666666667,4,1,0,90,0,0
95534,-106.382978723404,4,1,0,90,0,0
95684,-108.695652173913,4,1,0,90,0,0
95834,-111.111111111111,4,1,0,90,0,0
105284,-62.5,4,1,0,90,0,0
105359,-66.6666666666667,4,1,0,90,0,0
105434,-71.4285714285714,4,1,0,90,0,0
105509,-76.9230769230769,4,1,0,90,0,0
105584,-83.3333333333333,4,1,0,90,0,0
107834,-69.4444444444444,4,1,0,90,0,0
107909,-71.4285714285714,4,1,0,90,0,0
107984,-73.5294117647059,4,1,0,90,0,0
108059,-75.7575757575758,4,1,0,90,0,0
108134,-78.125,4,1,0,90,0,0
108209,-80.6451612903226,4,1,0,90,0,0
108284,-83.3333333333333,4,1,0,90,0,0
110384,-69.4444444444444,4,1,0,90,0,0
110459,-71.4285714285714,4,1,0,90,0,0
110534,-73.5294117647059,4,1,0,90,0,0
110609,-75.7575757575758,4,1,0,90,0,0
110684,-78.125,4,1,0,90,0,0
110759,-80.6451612903226,4,1,0,90,0,0
110834,-83.3333333333333,4,1,0,90,0,0
112634,-69.4444444444444,4,1,0,90,0,0
112709,-71.4285714285714,4,1,0,90,0,0
112784,-73.5294117647059,4,1,0,90,0,0
112859,-75.7575757575758,4,1,0,90,0,0
112934,-78.125,4,1,0,90,0,0
113009,-80.6451612903226,4,1,0,90,0,0
113084,-83.3333333333333,4,1,0,90,0,0
113984,-84.7457627118644,4,1,0,90,0,0
114059,-86.2068965517241,4,1,0,90,0,0
114134,-87.719298245614,4,1,0,90,0,0
114284,-89.2857142857143,4,1,0,90,0,0
114359,-90.9090909090909,4,1,0,90,0,0
114434,-92.5925925925929,4,1,0,90,0,0
114584,-94.3396226415097,4,1,0,90,0,0
114734,-96.153846153846,4,1,0,90,0,0
114884,-98.0392156862745,4,1,0,90,0,0
115034,-99.9999999999999,4,1,0,90,0,0
115222,-99.9999999999999,4,1,0,90,0,1
124484,-62.5,4,1,0,90,0,1
124522,-62.5,4,1,0,90,0,0
124559,-66.6666666666667,4,1,0,90,0,0
124634,-71.4285714285714,4,1,0,90,0,0
124709,-76.9230769230769,4,1,0,90,0,0
124784,-83.3333333333333,4,1,0,90,0,0
124822,-83.3333333333333,4,1,0,90,0,1
133184,-70.4225352112676,4,1,0,90,0,1
133259,-71.4285714285714,4,1,0,90,0,1
133334,-72.463768115942,4,1,0,90,0,1
133409,-73.5294117647059,4,1,0,90,0,1
133484,-74.6268656716418,4,1,0,90,0,1
133559,-75.7575757575758,4,1,0,90,0,1
133634,-76.9230769230769,4,1,0,90,0,1
133709,-78.125,4,1,0,90,0,1
133784,-79.3650793650794,4,1,0,90,0,1
133859,-80.6451612903226,4,1,0,90,0,1
133934,-81.9672131147541,4,1,0,90,0,1
134009,-83.3333333333333,4,1,0,90,0,1
134084,-84.7457627118644,4,1,0,90,0,1
134159,-86.2068965517241,4,1,0,90,0,1
134234,-87.719298245614,4,1,0,90,0,1
134309,-89.2857142857143,4,1,0,90,0,1
134384,-90.9090909090909,4,1,0,90,0,1
134422,-90.9090909090909,4,1,0,90,0,0

[HitObjects]
181,115,22,5,0,0:0:0:0:
251,187,172,1,0,0:0:0:0:
256,188,2272,1,0,0:0:0:0:
256,188,2422,1,0,0:0:0:0:
256,188,2572,1,0,0:0:0:0:
256,188,2722,1,0,0:0:0:0:
256,188,4822,1,0,0:0:0:0:
256,188,4972,1,0,0:0:0:0:
256,188,7072,1,0,0:0:0:0:
256,188,7222,1,0,0:0:0:0:
256,188,7372,1,0,0:0:0:0:
256,188,7522,1,0,0:0:0:0:
256,188,8422,1,0,0:0:0:0:
256,188,8722,1,0,0:0:0:0:
256,188,9022,1,0,0:0:0:0:
256,188,9322,1,0,0:0:0:0:
256,188,9397,1,0,0:0:0:0:
260,184,9472,1,0,0:0:0:0:
260,184,9547,1,0,0:0:0:0:
256,188,9622,1,0,0:0:0:0:
264,184,9772,1,0,0:0:0:0:
256,188,10072,1,8,0:0:0:0:
268,184,10522,1,0,0:0:0:0:
264,176,10822,1,8,0:0:0:0:
264,192,10972,1,0,0:0:0:0:
268,184,11272,1,8,0:0:0:0:
256,188,11572,1,8,0:0:0:0:
260,168,11872,1,0,0:0:0:0:
260,168,12022,1,0,0:0:0:0:
260,168,12172,1,0,0:0:0:0:
256,184,12322,1,0,0:0:0:0:
252,188,12472,1,8,0:0:0:0:
256,188,12922,1,0,0:0:0:0:
252,184,13222,1,8,0:0:0:0:
256,188,13372,1,0,0:0:0:0:
252,188,13672,1,8,0:0:0:0:
252,188,13972,1,8,0:0:0:0:
257,171,14272,1,0,0:0:0:0:
256,188,14422,1,0,0:0:0:0:
268,176,14572,1,0,0:0:0:0:
256,168,14872,1,8,0:0:0:0:
248,184,15172,1,0,0:0:0:0:
248,184,15472,1,0,0:0:0:0:
248,184,15622,1,8,0:0:0:0:
248,184,15772,1,0,0:0:0:0:
248,184,16072,1,8,0:0:0:0:
248,184,16372,1,8,0:0:0:0:
248,184,16672,1,0,0:0:0:0:
248,184,16822,1,0,0:0:0:0:
248,184,16972,1,0,0:0:0:0:
248,184,17122,1,0,0:0:0:0:
232,180,17272,1,8,0:0:0:0:
248,184,17722,1,0,0:0:0:0:
236,180,18022,1,8,0:0:0:0:
236,180,18172,1,0,0:0:0:0:
236,180,18322,1,8,0:0:0:0:
236,180,18472,1,0,0:0:0:0:
236,180,18622,1,8,0:0:0:0:
236,180,18772,1,0,0:0:0:0:
308,184,18922,1,8,0:0:0:0:
308,184,18997,1,8,0:0:0:0:
308,184,19072,1,8,0:0:0:0:
308,184,19147,1,8,0:0:0:0:
236,180,19222,1,0,0:0:0:0:
272,188,19522,1,0,0:0:0:0:
224,184,19822,1,0,0:0:0:0:
224,184,20122,1,0,0:0:0:0:
224,184,20422,1,0,0:0:0:0:
224,184,20722,1,0,0:0:0:0:
224,184,21022,1,0,0:0:0:0:
224,184,21322,1,0,0:0:0:0:
240,192,21622,1,8,0:0:0:0:
240,192,21922,1,8,0:0:0:0:
240,192,22222,1,8,0:0:0:0:
240,192,22522,1,8,0:0:0:0:
240,192,22822,1,0,0:0:0:0:
240,192,23122,1,8,0:0:0:0:
240,192,23422,1,8,0:0:0:0:
240,192,23722,1,8,0:0:0:0:
240,192,24022,1,0,0:0:0:0:
240,192,24322,1,0,0:0:0:0:
240,192,24622,1,0,0:0:0:0:
240,192,24922,1,0,0:0:0:0:
240,192,25222,1,0,0:0:0:0:
240,192,25522,1,0,0:0:0:0:
240,192,25822,1,0,0:0:0:0:
240,192,26122,1,0,0:0:0:0:
240,192,26422,1,8,0:0:0:0:
240,192,26722,1,8,0:0:0:0:
240,192,27022,1,8,0:0:0:0:
240,192,27322,1,8,0:0:0:0:
240,192,27622,1,0,0:0:0:0:
240,192,27922,1,8,0:0:0:0:
240,192,28222,1,8,0:0:0:0:
240,192,28372,1,8,0:0:0:0:
240,192,28522,1,8,0:0:0:0:
172,188,28672,1,8,0:0:0:0:
240,192,28822,5,0,0:0:0:0:
172,188,28972,1,8,0:0:0:0:
172,188,29122,1,0,0:0:0:0:
172,188,29272,1,8,0:0:0:0:
172,188,29422,1,0,0:0:0:0:
172,188,29572,1,8,0:0:0:0:
172,188,29722,1,0,0:0:0:0:
172,188,29872,1,8,0:0:0:0:
330,201,30022,5,0,0:0:0:0:
176,200,30172,1,8,0:0:0:0:
176,200,30322,1,0,0:0:0:0:
176,200,30472,1,8,0:0:0:0:
176,200,30622,1,0,0:0:0:0:
176,200,30772,1,8,0:0:0:0:
176,200,30922,1,0,0:0:0:0:
176,200,31072,1,8,0:0:0:0:
195,187,31222,1,0,0:0:0:0:
195,187,31372,1,8,0:0:0:0:
195,187,31522,1,0,0:0:0:0:
195,187,31672,1,8,0:0:0:0:
195,187,31822,1,0,0:0:0:0:
195,187,31972,1,8,0:0:0:0:
195,187,32122,1,0,0:0:0:0:
195,187,32272,1,8,0:0:0:0:
195,187,32422,1,0,0:0:0:0:
195,187,32572,1,8,0:0:0:0:
195,187,32722,1,0,0:0:0:0:
195,187,32872,1,8,0:0:0:0:
195,187,33022,1,0,0:0:0:0:
195,187,33172,1,8,0:0:0:0:
195,187,33322,1,0,0:0:0:0:
195,187,33472,1,8,0:0:0:0:
195,187,33622,1,0,0:0:0:0:
195,187,33772,1,8,0:0:0:0:
195,187,33922,1,0,0:0:0:0:
195,187,34072,1,8,0:0:0:0:
195,187,34222,1,0,0:0:0:0:
195,187,34372,1,8,0:0:0:0:
195,187,34522,1,0,0:0:0:0:
195,187,34672,1,8,0:0:0:0:
195,187,34822,1,0,0:0:0:0:
240,170,34972,1,8,0:0:0:0:
240,170,35122,1,0,0:0:0:0:
240,170,35272,1,8,0:0:0:0:
240,170,35422,1,0,0:0:0:0:
240,170,35572,1,8,0:0:0:0:
240,170,35722,1,0,0:0:0:0:
240,170,35872,1,8,0:0:0:0:
240,170,36022,1,0,0:0:0:0:
240,170,36172,1,0,0:0:0:0:
240,170,36322,1,8,0:0:0:0:
240,170,36472,1,0,0:0:0:0:
233,224,36547,1,0,0:0:0:0:
240,170,36622,1,0,0:0:0:0:
240,170,36772,1,8,0:0:0:0:
240,170,36922,1,0,0:0:0:0:
240,170,37072,1,8,0:0:0:0:
240,170,37222,5,0,0:0:0:0:
254,167,37297,1,0,0:0:0:0:
254,168,37372,1,0,0:0:0:0:
254,168,37447,1,0,0:0:0:0:
306,227,37522,1,8,0:0:0:0:
254,168,37597,1,8,0:0:0:0:
254,168,37672,1,8,0:0:0:0:
306,227,37747,1,8,0:0:0:0:
254,168,37822,1,0,0:0:0:0:
254,168,37897,1,0,0:0:0:0:
306,227,37972,1,8,0:0:0:0:
306,227,38047,1,0,0:0:0:0:
306,227,38122,1,0,0:0:0:0:
306,227,38197,1,0,0:0:0:0:
306,227,38272,1,8,0:0:0:0:
306,227,38347,1,0,0:0:0:0:
306,227,38422,1,8,0:0:0:0:
129,185,38572,1,0,0:0:0:0:
235,231,38722,1,0,0:0:0:0:
129,185,38872,1,8,0:0:0:0:
270,175,39172,1,8,0:0:0:0:
400,193,39322,1,0,0:0:0:0:
391,172,39472,1,0,0:0:0:0:
270,175,39622,1,8,0:0:0:0:
270,175,39772,1,0,0:0:0:0:
141,168,39922,1,0,0:0:0:0:
270,175,40072,1,8,0:0:0:0:
270,175,40372,1,8,0:0:0:0:
270,175,40522,1,0,0:0:0:0:
233,200,40672,1,0,0:0:0:0:
270,175,40822,1,8,0:0:0:0:
270,175,40972,1,8,0:0:0:0:
233,200,41122,1,0,0:0:0:0:
270,175,41272,1,8,0:0:0:0:
270,175,41572,1,8,0:0:0:0:
270,175,41722,1,0,0:0:0:0:
284,183,41872,1,0,0:0:0:0:
270,175,42022,1,8,0:0:0:0:
270,175,42172,1,0,0:0:0:0:
173,207,42322,1,0,0:0:0:0:
270,175,42472,1,8,0:0:0:0:
270,175,42772,1,8,0:0:0:0:
270,175,42922,1,0,0:0:0:0:
219,171,43072,1,0,0:0:0:0:
233,200,43222,1,8,0:0:0:0:
233,200,43372,1,8,0:0:0:0:
219,171,43522,1,0,0:0:0:0:
219,171,43672,1,8,0:0:0:0:
270,175,43972,1,8,0:0:0:0:
270,175,44122,1,0,0:0:0:0:
284,183,44272,1,0,0:0:0:0:
270,175,44422,1,8,0:0:0:0:
270,175,44572,1,0,0:0:0:0:
173,207,44722,1,0,0:0:0:0:
270,175,44872,1,8,0:0:0:0:
270,175,45172,1,8,0:0:0:0:
270,175,45322,1,0,0:0:0:0:
219,171,45472,1,0,0:0:0:0:
233,200,45622,1,8,0:0:0:0:
233,200,45772,1,8,0:0:0:0:
219,171,45922,1,0,0:0:0:0:
219,171,46072,1,8,0:0:0:0:
270,175,46372,1,8,0:0:0:0:
270,175,46522,1,0,0:0:0:0:
284,183,46672,1,0,0:0:0:0:
270,175,46822,1,8,0:0:0:0:
286,213,46972,1,0,0:0:0:0:
349,168,47122,1,8,0:0:0:0:
279,190,47272,1,0,0:0:0:0:
279,189,47422,1,8,0:0:0:0:
279,189,47572,1,0,0:0:0:0:
279,189,47722,1,8,0:0:0:0:
171,195,47797,1,8,0:0:0:0:
279,189,47872,1,8,0:0:0:0:
171,195,47947,1,8,0:0:0:0:
279,190,48022,1,0,0:0:0:0:
271,191,48172,1,0,0:0:0:0:
346,202,48247,1,8,0:0:0:0:
346,202,48322,1,0,0:0:0:0:
282,210,48472,1,8,0:0:0:0:
282,210,48622,1,0,0:0:0:0:
282,210,48772,1,8,0:0:0:0:
282,210,48847,1,8,0:0:0:0:
282,210,48922,1,0,0:0:0:0:
290,194,49072,1,0,0:0:0:0:
290,194,49222,1,0,0:0:0:0:
251,200,49297,1,0,0:0:0:0:
260,216,49372,1,8,0:0:0:0:
260,216,49522,1,8,0:0:0:0:
363,190,49597,1,0,0:0:0:0:
317,239,49672,1,8,0:0:0:0:
253,190,49822,1,8,0:0:0:0:
401,173,49972,1,8,0:0:0:0:
401,173,50047,1,8,0:0:0:0:
449,223,50122,1,0,0:0:0:0:
396,205,50272,1,0,0:0:0:0:
314,177,50347,1,0,0:0:0:0:
396,205,50422,1,8,0:0:0:0:
387,212,50497,1,0,0:0:0:0:
433,205,50572,1,8,0:0:0:0:
396,164,50647,1,8,0:0:0:0:
433,205,50722,1,0,0:0:0:0:
307,212,50872,1,8,0:0:0:0:
350,212,51022,1,0,0:0:0:0:
350,212,51172,1,8,0:0:0:0:
350,212,51247,1,8,0:0:0:0:
350,212,51322,1,0,0:0:0:0:
350,212,51472,1,0,0:0:0:0:
350,212,51622,1,0,0:0:0:0:
350,212,51697,1,8,0:0:0:0:
349,218,51772,1,8,0:0:0:0:
350,212,51847,1,8,0:0:0:0:
252,158,51922,1,0,0:0:0:0:
213,140,52072,1,8,0:0:0:0:
361,200,52222,1,8,0:0:0:0:
361,200,52297,1,0,0:0:0:0:
411,180,52372,1,8,0:0:0:0:
279,203,52522,1,8,0:0:0:0:
279,203,52672,1,0,0:0:0:0:
279,203,52822,1,8,0:0:0:0:
358,179,52897,1,8,0:0:0:0:
213,140,52972,1,0,0:0:0:0:
332,219,53047,1,8,0:0:0:0:
294,226,53122,1,0,0:0:0:0:
376,215,53197,1,0,0:0:0:0:
414,235,53272,1,8,0:0:0:0:
374,225,53422,1,0,0:0:0:0:
397,199,53572,1,8,0:0:0:0:
432,197,53647,1,8,0:0:0:0:
409,195,53722,1,0,0:0:0:0:
208,170,53872,1,0,0:0:0:0:
208,170,53947,1,0,0:0:0:0:
208,170,54022,1,8,0:0:0:0:
397,199,54172,1,8,0:0:0:0:
397,199,54322,1,0,0:0:0:0:
451,209,54397,1,8,0:0:0:0:
451,209,54472,1,0,0:0:0:0:
451,209,54622,1,8,0:0:0:0:
400,203,54772,1,0,0:0:0:0:
400,203,54847,1,0,0:0:0:0:
476,195,54922,1,8,0:0:0:0:
389,181,55072,1,0,0:0:0:0:
389,181,55147,1,8,0:0:0:0:
389,181,55222,1,0,0:0:0:0:
389,181,55297,1,0,0:0:0:0:
389,181,55372,1,8,0:0:0:0:
389,181,55447,1,8,0:0:0:0:
127,171,55522,1,0,0:0:0:0:
302,149,55672,1,0,0:0:0:0:
302,149,55822,1,8,0:0:0:0:
302,149,55972,1,8,0:0:0:0:
331,133,56047,1,0,0:0:0:0:
302,149,56122,1,8,0:0:0:0:
302,149,56272,1,0,0:0:0:0:
302,149,56422,5,0,0:0:0:0:
364,192,56497,1,8,0:0:0:0:
302,149,56572,1,0,0:0:0:0:
53,159,56647,1,0,0:0:0:0:
53,159,56722,1,8,0:0:0:0:
53,159,56797,1,0,0:0:0:0:
302,149,56872,1,8,0:0:0:0:
53,159,56947,1,0,0:0:0:0:
302,149,57022,1,0,0:0:0:0:
53,159,57097,1,0,0:0:0:0:
302,149,57172,1,8,0:0:0:0:
53,159,57247,1,0,0:0:0:0:
302,149,57322,1,8,0:0:0:0:
53,159,57397,1,8,0:0:0:0:
302,149,57472,1,0,0:0:0:0:
53,159,57547,1,0,0:0:0:0:
302,149,57622,1,8,0:0:0:0:
271,191,57772,1,0,0:0:0:0:
346,202,57847,1,8,0:0:0:0:
346,202,57922,1,0,0:0:0:0:
282,210,58072,1,8,0:0:0:0:
282,210,58222,1,0,0:0:0:0:
282,210,58372,1,8,0:0:0:0:
282,210,58447,1,8,0:0:0:0:
282,210,58522,1,0,0:0:0:0:
290,194,58672,1,0,0:0:0:0:
290,194,58822,1,0,0:0:0:0:
251,200,58897,1,0,0:0:0:0:
260,216,58972,1,8,0:0:0:0:
260,216,59122,1,8,0:0:0:0:
363,190,59197,1,0,0:0:0:0:
317,239,59272,1,8,0:0:0:0:
253,190,59422,1,8,0:0:0:0:
401,173,59572,1,8,0:0:0:0:
401,173,59647,1,8,0:0:0:0:
449,223,59722,1,0,0:0:0:0:
396,205,59872,1,0,0:0:0:0:
314,177,59947,1,0,0:0:0:0:
396,205,60022,1,8,0:0:0:0:
387,212,60097,1,0,0:0:0:0:
433,205,60172,1,8,0:0:0:0:
396,164,60247,1,8,0:0:0:0:
433,205,60322,1,0,0:0:0:0:
307,212,60472,1,8,0:0:0:0:
350,212,60622,1,0,0:0:0:0:
350,212,60772,1,8,0:0:0:0:
350,212,60847,1,8,0:0:0:0:
350,212,60922,1,0,0:0:0:0:
350,212,61072,1,0,0:0:0:0:
350,212,61222,1,0,0:0:0:0:
350,212,61297,1,8,0:0:0:0:
349,218,61372,1,8,0:0:0:0:
350,212,61447,1,8,0:0:0:0:
252,158,61522,1,0,0:0:0:0:
213,140,61672,1,8,0:0:0:0:
361,200,61822,1,8,0:0:0:0:
361,200,61897,1,0,0:0:0:0:
411,180,61972,1,8,0:0:0:0:
279,203,62122,1,8,0:0:0:0:
279,203,62272,1,0,0:0:0:0:
279,203,62422,1,8,0:0:0:0:
358,179,62497,1,8,0:0:0:0:
213,140,62572,1,0,0:0:0:0:
332,219,62647,1,8,0:0:0:0:
294,226,62722,1,0,0:0:0:0:
376,215,62797,1,0,0:0:0:0:
414,235,62872,1,8,0:0:0:0:
374,225,63022,1,0,0:0:0:0:
397,199,63172,1,8,0:0:0:0:
432,197,63247,1,8,0:0:0:0:
409,195,63322,1,0,0:0:0:0:
208,170,63472,1,0,0:0:0:0:
208,170,63547,1,0,0:0:0:0:
208,170,63622,1,8,0:0:0:0:
397,199,63772,1,8,0:0:0:0:
397,199,63922,1,0,0:0:0:0:
451,209,63997,1,8,0:0:0:0:
451,209,64072,1,0,0:0:0:0:
451,209,64222,1,8,0:0:0:0:
400,203,64372,1,0,0:0:0:0:
400,203,64447,1,0,0:0:0:0:
476,195,64522,1,8,0:0:0:0:
389,181,64672,1,0,0:0:0:0:
389,181,64747,1,8,0:0:0:0:
389,181,64822,1,0,0:0:0:0:
389,181,64897,1,0,0:0:0:0:
389,181,64972,1,8,0:0:0:0:
389,181,65047,1,8,0:0:0:0:
127,171,65122,1,0,0:0:0:0:
302,149,65272,1,0,0:0:0:0:
302,149,65422,1,8,0:0:0:0:
302,149,65572,1,8,0:0:0:0:
331,133,65647,1,0,0:0:0:0:
302,149,65722,1,8,0:0:0:0:
302,149,65872,1,0,0:0:0:0:
243,201,66022,1,0,0:0:0:0:
243,201,66097,1,8,0:0:0:0:
212,167,66172,1,0,0:0:0:0:
212,167,66322,1,8,0:0:0:0:
212,167,66397,1,8,0:0:0:0:
212,167,66472,1,0,0:0:0:0:
250,167,66622,1,0,0:0:0:0:
250,167,66772,1,8,0:0:0:0:
250,167,66922,1,8,0:0:0:0:
250,167,67072,1,8,0:0:0:0:
218,225,67222,1,0,0:0:0:0:
467,192,75022,5,8,0:0:0:0:
243,175,75172,5,0,0:0:0:0:
257,162,75322,1,8,0:0:0:0:
257,162,75472,1,0,0:0:0:0:
252,159,75622,1,8,0:0:0:0:
252,159,75772,1,0,0:0:0:0:
332,211,75922,1,8,0:0:0:0:
316,265,75997,1,8,0:0:0:0:
316,265,76072,1,8,0:0:0:0:
316,265,76147,1,8,0:0:0:0:
316,265,76222,1,0,0:0:0:0:
316,265,76372,1,0,0:0:0:0:
316,265,76522,1,8,0:0:0:0:
299,183,76597,1,8,0:0:0:0:
299,183,76672,1,8,0:0:0:0:
299,183,76747,1,8,0:0:0:0:
299,183,76822,1,4,0:0:0:0:
250,174,76972,1,4,0:0:0:0:
213,168,77272,1,8,0:0:0:0:
226,178,77722,1,0,0:0:0:0:
226,178,78022,1,8,0:0:0:0:
226,178,78472,1,0,0:0:0:0:
155,199,78922,1,0,0:0:0:0:
356,253,79072,1,12,0:0:0:0:
220,201,79222,1,4,0:0:0:0:
220,201,79372,1,4,0:0:0:0:
220,201,79522,1,4,0:0:0:0:
319,222,79672,1,8,0:0:0:0:
296,237,80122,1,0,0:0:0:0:
319,222,80422,1,8,0:0:0:0:
272,207,80872,1,0,0:0:0:0:
272,207,81322,1,0,0:0:0:0:
272,207,81622,1,12,0:0:0:0:
272,207,81772,1,12,0:0:0:0:
250,191,82072,1,0,0:0:0:0:
243,191,82522,1,8,0:0:0:0:
243,191,82822,1,0,0:0:0:0:
243,191,83272,1,8,0:0:0:0:
243,191,83722,1,0,0:0:0:0:
236,186,83872,1,12,0:0:0:0:
236,186,84022,1,4,0:0:0:0:
236,186,84172,1,4,0:0:0:0:
236,186,84322,1,4,0:0:0:0:
236,186,84622,1,0,0:0:0:0:
236,186,84922,1,0,0:0:0:0:
236,186,85222,1,12,0:0:0:0:
236,186,85372,1,0,0:0:0:0:
236,186,85522,1,12,0:0:0:0:
236,186,85672,1,0,0:0:0:0:
236,186,85822,1,12,0:0:0:0:
236,186,85972,1,0,0:0:0:0:
236,186,86122,1,8,0:0:0:0:
250,172,86197,1,8,0:0:0:0:
236,186,86272,1,8,0:0:0:0:
250,172,86347,1,8,0:0:0:0:
236,186,86422,1,4,0:0:0:0:
250,174,86572,1,0,0:0:0:0:
226,185,86647,1,0,0:0:0:0:
242,131,86722,1,8,0:0:0:0:
213,168,86872,1,0,0:0:0:0:
386,217,87022,1,8,0:0:0:0:
306,216,87172,1,8,0:0:0:0:
355,198,87222,1,8,0:0:0:0:
347,223,87272,1,8,0:0:0:0:
226,178,87322,1,0,0:0:0:0:
253,172,87472,1,0,0:0:0:0:
245,200,87622,1,8,0:0:0:0:
351,233,87697,1,0,0:0:0:0:
196,216,87772,1,0,0:0:0:0:
246,178,87847,1,0,0:0:0:0:
417,166,87922,1,8,0:0:0:0:
226,178,88072,1,0,0:0:0:0:
370,221,88222,1,8,0:0:0:0:
306,216,88372,1,8,0:0:0:0:
355,198,88422,1,8,0:0:0:0:
347,223,88472,1,8,0:0:0:0:
226,178,88522,1,0,0:0:0:0:
253,172,88672,1,0,0:0:0:0:
245,200,88822,1,8,0:0:0:0:
351,233,88897,1,0,0:0:0:0:
196,216,88972,1,0,0:0:0:0:
246,178,89047,1,0,0:0:0:0:
417,166,89122,1,8,0:0:0:0:
226,178,89272,1,0,0:0:0:0:
307,228,89422,1,8,0:0:0:0:
306,216,89572,1,8,0:0:0:0:
355,198,89622,1,8,0:0:0:0:
347,223,89672,1,8,0:0:0:0:
226,178,89722,1,0,0:0:0:0:
253,172,89872,1,0,0:0:0:0:
245,200,90022,1,8,0:0:0:0:
351,233,90097,1,0,0:0:0:0:
196,216,90172,1,0,0:0:0:0:
246,178,90247,1,0,0:0:0:0:
417,166,90322,1,8,0:0:0:0:
226,178,90472,1,0,0:0:0:0:
307,228,90622,1,8,0:0:0:0:
306,216,90772,1,8,0:0:0:0:
355,198,90822,1,8,0:0:0:0:
347,223,90872,1,8,0:0:0:0:
226,178,90922,1,0,0:0:0:0:
253,172,91072,1,0,0:0:0:0:
245,200,91222,1,8,0:0:0:0:
351,233,91297,1,0,0:0:0:0:
196,216,91372,1,0,0:0:0:0:
246,178,91447,1,8,0:0:0:0:
417,166,91522,1,0,0:0:0:0:
226,178,91672,1,8,0:0:0:0:
260,198,91822,1,0,0:0:0:0:
306,216,91972,1,0,0:0:0:0:
355,198,92022,1,0,0:0:0:0:
347,223,92072,1,0,0:0:0:0:
226,178,92122,1,8,0:0:0:0:
253,172,92272,1,0,0:0:0:0:
245,200,92422,1,8,0:0:0:0:
351,233,92497,1,0,0:0:0:0:
196,216,92572,1,0,0:0:0:0:
246,178,92647,1,8,0:0:0:0:
417,166,92722,1,0,0:0:0:0:
226,178,92872,1,8,0:0:0:0:
260,198,93022,1,0,0:0:0:0:
306,216,93172,1,0,0:0:0:0:
355,198,93222,1,0,0:0:0:0:
347,223,93272,1,0,0:0:0:0:
226,178,93322,1,8,0:0:0:0:
352,180,93472,1,0,0:0:0:0:
352,180,93622,1,0,0:0:0:0:
352,180,93697,1,8,0:0:0:0:
276,196,93772,1,0,0:0:0:0:
352,180,93847,1,8,0:0:0:0:
344,228,93922,1,0,0:0:0:0:
184,165,93997,1,0,0:0:0:0:
276,196,94072,1,8,0:0:0:0:
276,196,94222,1,0,0:0:0:0:
276,196,94372,1,0,0:0:0:0:
256,260,94447,1,8,0:0:0:0:
276,196,94522,1,8,0:0:0:0:
276,196,94597,1,8,0:0:0:0:
276,196,94672,1,0,0:0:0:0:
272,192,94822,1,8,0:0:0:0:
304,177,94897,1,0,0:0:0:0:
272,192,94972,1,8,0:0:0:0:
205,195,95047,1,0,0:0:0:0:
276,196,95122,1,8,0:0:0:0:
304,177,95272,5,8,0:0:0:0:
226,204,95422,1,0,0:0:0:0:
185,219,95572,1,0,0:0:0:0:
240,232,95722,1,0,0:0:0:0:
226,204,95872,1,0,0:0:0:0:
226,232,96022,1,8,0:0:0:0:
271,191,96172,1,0,0:0:0:0:
346,202,96247,1,8,0:0:0:0:
346,202,96322,1,0,0:0:0:0:
248,200,96397,1,0,0:0:0:0:
282,210,96472,1,8,0:0:0:0:
282,210,96622,1,0,0:0:0:0:
282,210,96772,1,8,0:0:0:0:
332,200,96822,1,8,0:0:0:0:
282,210,96872,1,8,0:0:0:0:
282,210,96922,1,0,0:0:0:0:
290,194,97072,1,0,0:0:0:0:
290,194,97222,1,0,0:0:0:0:
251,200,97297,1,0,0:0:0:0:
260,216,97372,1,8,0:0:0:0:
348,196,97447,1,8,0:0:0:0:
260,216,97522,1,8,0:0:0:0:
363,190,97597,1,0,0:0:0:0:
317,239,97672,1,8,0:0:0:0:
253,190,97822,1,8,0:0:0:0:
401,173,97972,1,8,0:0:0:0:
420,200,98022,1,8,0:0:0:0:
401,173,98072,1,8,0:0:0:0:
449,223,98122,1,0,0:0:0:0:
396,205,98272,1,0,0:0:0:0:
314,177,98347,1,0,0:0:0:0:
396,205,98422,1,8,0:0:0:0:
387,212,98497,1,0,0:0:0:0:
433,205,98572,1,8,0:0:0:0:
232,96,98622,1,8,0:0:0:0:
396,164,98672,1,8,0:0:0:0:
433,205,98722,1,0,0:0:0:0:
307,212,98872,1,8,0:0:0:0:
350,212,99022,1,0,0:0:0:0:
412,212,99097,1,0,0:0:0:0:
350,212,99172,1,8,0:0:0:0:
350,212,99247,1,8,0:0:0:0:
350,212,99322,1,0,0:0:0:0:
240,172,99397,1,8,0:0:0:0:
350,212,99472,1,0,0:0:0:0:
350,212,99622,1,0,0:0:0:0:
349,218,99772,1,8,0:0:0:0:
350,212,99847,1,8,0:0:0:0:
252,158,99922,1,0,0:0:0:0:
240,168,99997,1,0,0:0:0:0:
213,140,100072,1,8,0:0:0:0:
361,200,100222,1,8,0:0:0:0:
361,200,100297,1,0,0:0:0:0:
411,180,100372,1,8,0:0:0:0:
320,224,100447,1,0,0:0:0:0:
279,203,100522,1,8,0:0:0:0:
279,203,100672,1,0,0:0:0:0:
279,203,100822,1,8,0:0:0:0:
358,179,100897,1,8,0:0:0:0:
213,140,100972,1,0,0:0:0:0:
332,219,101047,1,8,0:0:0:0:
294,226,101122,1,0,0:0:0:0:
236,216,101172,1,0,0:0:0:0:
376,215,101222,1,0,0:0:0:0:
414,235,101272,1,8,0:0:0:0:
381,172,101347,1,8,0:0:0:0:
374,225,101422,1,0,0:0:0:0:
397,199,101572,1,8,0:0:0:0:
432,197,101622,1,8,0:0:0:0:
300,184,101672,1,0,0:0:0:0:
409,195,101722,1,0,0:0:0:0:
208,170,101872,1,0,0:0:0:0:
208,170,101947,1,0,0:0:0:0:
208,170,102022,1,8,0:0:0:0:
397,199,102172,1,8,0:0:0:0:
397,199,102322,1,0,0:0:0:0:
451,209,102397,1,8,0:0:0:0:
451,209,102472,1,0,0:0:0:0:
192,164,102547,1,0,0:0:0:0:
451,209,102622,1,8,0:0:0:0:
400,203,102772,1,0,0:0:0:0:
421,172,102822,1,0,0:0:0:0:
400,203,102872,1,0,0:0:0:0:
476,195,102922,1,8,0:0:0:0:
389,181,103072,1,0,0:0:0:0:
389,181,103147,1,8,0:0:0:0:
389,181,103222,1,0,0:0:0:0:
389,181,103297,1,0,0:0:0:0:
389,181,103372,1,8,0:0:0:0:
409,197,103422,1,8,0:0:0:0:
389,181,103472,1,8,0:0:0:0:
127,171,103522,1,0,0:0:0:0:
302,149,103672,1,0,0:0:0:0:
302,149,103822,1,8,0:0:0:0:
302,149,103972,1,8,0:0:0:0:
331,133,104047,1,0,0:0:0:0:
302,149,104122,1,8,0:0:0:0:
200,176,104172,1,0,0:0:0:0:
200,176,104222,1,0,0:0:0:0:
302,149,104272,5,8,0:0:0:0:
243,201,104422,1,0,0:0:0:0:
243,201,104497,1,8,0:0:0:0:
212,167,104572,1,0,0:0:0:0:
212,167,104722,1,8,0:0:0:0:
212,167,104797,1,8,0:0:0:0:
212,167,104872,1,0,0:0:0:0:
250,167,105022,1,0,0:0:0:0:
250,167,105172,1,8,0:0:0:0:
250,167,105322,1,8,0:0:0:0:
236,208,105397,1,8,0:0:0:0:
236,208,105472,1,8,0:0:0:0:
236,208,105547,1,8,0:0:0:0:
236,208,105622,1,0,0:0:0:0:
271,191,105772,1,0,0:0:0:0:
346,202,105847,1,8,0:0:0:0:
346,202,105922,1,0,0:0:0:0:
282,210,106072,1,8,0:0:0:0:
282,210,106222,1,0,0:0:0:0:
282,210,106372,1,8,0:0:0:0:
404,192,106422,1,8,0:0:0:0:
282,210,106472,1,8,0:0:0:0:
282,210,106522,1,0,0:0:0:0:
290,194,106672,1,0,0:0:0:0:
290,194,106822,1,0,0:0:0:0:
251,200,106897,1,0,0:0:0:0:
260,216,106972,1,8,0:0:0:0:
260,216,107122,1,8,0:0:0:0:
363,190,107197,1,0,0:0:0:0:
317,239,107272,1,8,0:0:0:0:
253,190,107422,1,8,0:0:0:0:
401,173,107572,1,8,0:0:0:0:
344,264,107622,1,8,0:0:0:0:
401,173,107672,1,8,0:0:0:0:
449,223,107722,1,0,0:0:0:0:
396,205,107872,1,0,0:0:0:0:
314,177,107947,1,0,0:0:0:0:
396,205,108022,1,8,0:0:0:0:
387,212,108097,1,0,0:0:0:0:
433,205,108172,1,8,0:0:0:0:
396,164,108247,1,8,0:0:0:0:
433,205,108322,1,0,0:0:0:0:
307,212,108472,1,8,0:0:0:0:
350,212,108622,1,0,0:0:0:0:
350,212,108772,1,8,0:0:0:0:
392,212,108822,1,8,0:0:0:0:
350,212,108872,1,8,0:0:0:0:
350,212,108922,1,0,0:0:0:0:
350,212,109072,1,0,0:0:0:0:
350,212,109222,1,0,0:0:0:0:
350,212,109297,1,8,0:0:0:0:
349,218,109372,1,8,0:0:0:0:
350,212,109447,1,8,0:0:0:0:
252,158,109522,1,0,0:0:0:0:
213,140,109672,1,8,0:0:0:0:
361,200,109822,1,8,0:0:0:0:
361,200,109897,1,0,0:0:0:0:
411,180,109972,1,8,0:0:0:0:
320,220,110022,1,8,0:0:0:0:
320,220,110072,1,8,0:0:0:0:
279,203,110122,1,0,0:0:0:0:
279,203,110272,1,0,0:0:0:0:
279,203,110422,1,8,0:0:0:0:
358,179,110497,1,8,0:0:0:0:
213,140,110572,1,0,0:0:0:0:
332,219,110647,1,8,0:0:0:0:
294,226,110722,1,0,0:0:0:0:
376,215,110797,1,0,0:0:0:0:
414,235,110872,1,8,0:0:0:0:
374,225,111022,1,0,0:0:0:0:
397,199,111172,1,8,0:0:0:0:
256,184,111222,1,8,0:0:0:0:
432,197,111272,1,8,0:0:0:0:
409,195,111322,1,0,0:0:0:0:
208,170,111472,1,0,0:0:0:0:
208,170,111547,1,0,0:0:0:0:
208,170,111622,1,8,0:0:0:0:
397,199,111772,1,8,0:0:0:0:
397,199,111922,1,0,0:0:0:0:
451,209,111997,1,8,0:0:0:0:
451,209,112072,1,0,0:0:0:0:
451,209,112222,1,8,0:0:0:0:
256,184,112297,1,0,0:0:0:0:
400,203,112372,1,8,0:0:0:0:
400,203,112422,1,8,0:0:0:0:
256,184,112472,1,8,0:0:0:0:
476,195,112522,1,0,0:0:0:0:
389,181,112672,1,0,0:0:0:0:
389,181,112747,1,8,0:0:0:0:
389,181,112822,1,0,0:0:0:0:
389,181,112897,1,0,0:0:0:0:
389,181,112972,1,8,0:0:0:0:
389,181,113047,1,8,0:0:0:0:
127,171,113122,1,0,0:0:0:0:
302,149,113272,1,0,0:0:0:0:
302,149,113422,1,8,0:0:0:0:
302,149,113572,1,8,0:0:0:0:
316,176,113622,1,8,0:0:0:0:
331,133,113672,1,8,0:0:0:0:
302,149,113722,1,0,0:0:0:0:
302,149,113872,1,0,0:0:0:0:
243,201,114022,1,0,0:0:0:0:
243,201,114097,1,8,0:0:0:0:
212,167,114172,1,0,0:0:0:0:
212,167,114322,1,8,0:0:0:0:
304,180,114397,1,8,0:0:0:0:
212,167,114472,1,0,0:0:0:0:
250,167,114622,1,0,0:0:0:0:
250,167,114772,1,8,0:0:0:0:
250,167,114922,1,8,0:0:0:0:
250,167,115072,1,8,0:0:0:0:
218,225,115222,1,8,0:0:0:0:
149,195,115297,1,0,0:0:0:0:
294,195,115372,1,0,0:0:0:0:
149,195,115447,1,8,0:0:0:0:
249,228,115522,1,0,0:0:0:0:
389,208,115597,1,8,0:0:0:0:
293,221,115672,1,8,0:0:0:0:
274,244,115747,1,8,0:0:0:0:
494,216,115822,1,0,0:0:0:0:
205,193,115972,1,8,0:0:0:0:
205,193,116047,1,0,0:0:0:0:
173,208,116122,1,8,0:0:0:0:
507,245,116197,1,8,0:0:0:0:
507,245,116272,1,0,0:0:0:0:
315,216,116347,1,0,0:0:0:0:
437,222,116422,1,8,0:0:0:0:
281,186,116572,1,0,0:0:0:0:
198,196,116647,1,0,0:0:0:0:
281,186,116722,1,8,0:0:0:0:
333,212,116797,1,0,0:0:0:0:
333,212,116872,1,8,0:0:0:0:
408,188,116922,1,8,0:0:0:0:
484,183,116972,1,8,0:0:0:0:
443,215,117022,1,0,0:0:0:0:
244,174,117172,1,8,0:0:0:0:
420,201,117247,1,0,0:0:0:0:
387,207,117322,1,8,0:0:0:0:
360,179,117397,1,8,0:0:0:0:
372,215,117472,1,0,0:0:0:0:
372,215,117547,1,0,0:0:0:0:
372,215,117622,1,8,0:0:0:0:
372,215,117697,1,0,0:0:0:0:
372,215,117772,1,8,0:0:0:0:
458,217,117822,1,8,0:0:0:0:
458,217,117872,1,8,0:0:0:0:
458,217,117922,1,8,0:0:0:0:
246,186,117997,1,0,0:0:0:0:
256,208,118072,1,8,0:0:0:0:
112,136,118222,1,0,0:0:0:0:
328,196,118297,1,8,0:0:0:0:
309,198,118372,1,0,0:0:0:0:
243,202,118447,1,0,0:0:0:0:
372,215,118522,1,8,0:0:0:0:
294,216,118597,1,0,0:0:0:0:
344,216,118672,1,8,0:0:0:0:
368,218,118822,1,8,0:0:0:0:
346,195,118897,1,0,0:0:0:0:
346,195,118972,1,0,0:0:0:0:
341,212,119047,1,8,0:0:0:0:
334,224,119122,1,0,0:0:0:0:
315,195,119197,1,8,0:0:0:0:
284,204,119272,1,0,0:0:0:0:
284,204,119322,1,8,0:0:0:0:
395,154,119372,1,8,0:0:0:0:
284,204,119422,1,0,0:0:0:0:
292,182,119497,1,0,0:0:0:0:
330,191,119572,1,8,0:0:0:0:
292,182,119647,1,0,0:0:0:0:
330,191,119722,1,8,0:0:0:0:
376,189,119772,1,8,0:0:0:0:
376,189,119822,1,8,0:0:0:0:
320,206,119872,1,0,0:0:0:0:
368,218,120022,1,0,0:0:0:0:
346,195,120097,1,0,0:0:0:0:
346,195,120172,1,8,0:0:0:0:
341,212,120247,1,8,0:0:0:0:
334,224,120322,1,0,0:0:0:0:
315,195,120397,1,8,0:0:0:0:
284,204,120472,1,8,0:0:0:0:
284,204,120522,1,0,0:0:0:0:
395,154,120572,1,0,0:0:0:0:
284,204,120622,1,8,0:0:0:0:
292,182,120697,1,0,0:0:0:0:
196,169,120772,1,0,0:0:0:0:
330,191,120847,1,8,0:0:0:0:
330,191,120922,1,8,0:0:0:0:
376,189,120972,1,8,0:0:0:0:
376,189,121022,1,0,0:0:0:0:
320,206,121072,1,0,0:0:0:0:
289,192,121147,1,0,0:0:0:0:
414,225,121222,1,8,0:0:0:0:
499,207,121372,1,8,0:0:0:0:
389,205,121422,1,8,0:0:0:0:
176,184,121472,1,8,0:0:0:0:
411,201,121522,1,0,0:0:0:0:
420,224,121597,1,0,0:0:0:0:
382,184,121672,1,8,0:0:0:0:
245,205,121822,1,0,0:0:0:0:
411,201,121897,1,0,0:0:0:0:
203,192,121972,1,8,0:0:0:0:
159,184,122047,1,0,0:0:0:0:
203,192,122122,1,8,0:0:0:0:
396,200,122172,1,8,0:0:0:0:
389,205,122222,1,8,0:0:0:0:
464,200,122272,1,0,0:0:0:0:
286,211,122422,1,0,0:0:0:0:
440,192,122497,1,8,0:0:0:0:
456,192,122572,1,0,0:0:0:0:
472,236,122622,1,0,0:0:0:0:
456,192,122672,1,0,0:0:0:0:
456,192,122722,1,8,0:0:0:0:
456,192,122797,1,0,0:0:0:0:
456,192,122872,1,8,0:0:0:0:
360,176,123022,1,0,0:0:0:0:
152,160,123072,1,0,0:0:0:0:
308,188,123122,1,0,0:0:0:0:
296,208,123172,1,8,0:0:0:0:
286,211,123247,1,8,0:0:0:0:
360,188,123322,1,0,0:0:0:0:
232,160,123397,1,8,0:0:0:0:
248,244,123472,1,0,0:0:0:0:
496,184,123622,1,8,0:0:0:0:
472,208,123772,1,8,0:0:0:0:
472,208,123922,1,8,0:0:0:0:
472,208,124072,1,8,0:0:0:0:
472,208,124222,1,0,0:0:0:0:
236,208,124372,1,0,0:0:0:0:
236,208,124522,1,8,0:0:0:0:
236,208,124597,1,8,0:0:0:0:
236,208,124672,1,8,0:0:0:0:
236,208,124747,1,8,0:0:0:0:
236,208,124822,1,0,0:0:0:0:
260,216,124972,1,0,0:0:0:0:
260,216,125047,1,0,0:0:0:0:
288,232,125122,1,8,0:0:0:0:
293,221,125197,1,0,0:0:0:0:
274,244,125272,1,8,0:0:0:0:
494,216,125422,1,0,0:0:0:0:
205,193,125572,1,8,0:0:0:0:
205,193,125647,1,0,0:0:0:0:
173,208,125722,1,8,0:0:0:0:
507,245,125797,1,8,0:0:0:0:
507,245,125872,1,0,0:0:0:0:
315,216,125947,1,0,0:0:0:0:
437,222,126022,1,8,0:0:0:0:
281,186,126172,1,0,0:0:0:0:
198,196,126247,1,0,0:0:0:0:
281,186,126322,1,8,0:0:0:0:
333,212,126397,1,0,0:0:0:0:
333,212,126472,1,8,0:0:0:0:
408,188,126522,1,8,0:0:0:0:
484,183,126572,1,8,0:0:0:0:
443,215,126622,1,0,0:0:0:0:
244,174,126772,1,8,0:0:0:0:
420,201,126847,1,0,0:0:0:0:
387,207,126922,1,8,0:0:0:0:
360,179,126997,1,8,0:0:0:0:
372,215,127072,1,0,0:0:0:0:
372,215,127147,1,0,0:0:0:0:
372,215,127222,1,8,0:0:0:0:
372,215,127297,1,0,0:0:0:0:
372,215,127372,1,8,0:0:0:0:
458,217,127422,1,8,0:0:0:0:
458,217,127472,1,8,0:0:0:0:
458,217,127522,1,8,0:0:0:0:
246,186,127597,1,0,0:0:0:0:
256,208,127672,1,8,0:0:0:0:
112,136,127822,1,0,0:0:0:0:
328,196,127897,1,8,0:0:0:0:
309,198,127972,1,0,0:0:0:0:
243,202,128047,1,0,0:0:0:0:
372,215,128122,1,8,0:0:0:0:
294,216,128197,1,0,0:0:0:0:
344,216,128272,1,8,0:0:0:0:
368,218,128422,1,8,0:0:0:0:
346,195,128497,1,0,0:0:0:0:
346,195,128572,1,0,0:0:0:0:
341,212,128647,1,8,0:0:0:0:
334,224,128722,1,0,0:0:0:0:
315,195,128797,1,8,0:0:0:0:
284,204,128872,1,0,0:0:0:0:
284,204,128922,1,8,0:0:0:0:
395,154,128972,1,8,0:0:0:0:
284,204,129022,1,0,0:0:0:0:
292,182,129097,1,0,0:0:0:0:
330,191,129172,1,8,0:0:0:0:
292,182,129247,1,0,0:0:0:0:
330,191,129322,1,8,0:0:0:0:
376,189,129372,1,8,0:0:0:0:
376,189,129422,1,8,0:0:0:0:
320,206,129472,1,0,0:0:0:0:
368,218,129622,1,0,0:0:0:0:
346,195,129697,1,0,0:0:0:0:
346,195,129772,1,8,0:0:0:0:
341,212,129847,1,8,0:0:0:0:
334,224,129922,1,0,0:0:0:0:
315,195,129997,1,8,0:0:0:0:
284,204,130072,1,8,0:0:0:0:
284,204,130122,1,0,0:0:0:0:
395,154,130172,1,0,0:0:0:0:
284,204,130222,1,8,0:0:0:0:
292,182,130297,1,0,0:0:0:0:
330,191,130372,1,8,0:0:0:0:
196,169,130447,1,0,0:0:0:0:
330,191,130522,1,8,0:0:0:0:
376,189,130572,1,8,0:0:0:0:
376,189,130622,1,0,0:0:0:0:
320,206,130672,1,0,0:0:0:0:
289,192,130747,1,0,0:0:0:0:
414,225,130822,1,8,0:0:0:0:
499,207,130972,1,8,0:0:0:0:
389,205,131022,1,8,0:0:0:0:
176,184,131072,1,8,0:0:0:0:
411,201,131122,1,0,0:0:0:0:
420,224,131197,1,0,0:0:0:0:
382,184,131272,1,8,0:0:0:0:
245,205,131422,1,0,0:0:0:0:
411,201,131497,1,0,0:0:0:0:
203,192,131572,1,8,0:0:0:0:
159,184,131647,1,0,0:0:0:0:
203,192,131722,1,8,0:0:0:0:
396,200,131772,1,8,0:0:0:0:
389,205,131822,1,8,0:0:0:0:
464,200,131872,1,0,0:0:0:0:
286,211,132022,1,0,0:0:0:0:
440,192,132097,1,8,0:0:0:0:
456,192,132172,1,0,0:0:0:0:
472,236,132222,1,0,0:0:0:0:
456,192,132272,1,0,0:0:0:0:
456,192,132322,1,8,0:0:0:0:
456,192,132397,1,0,0:0:0:0:
456,192,132472,1,8,0:0:0:0:
360,176,132622,1,0,0:0:0:0:
152,160,132672,1,0,0:0:0:0:
308,188,132722,1,0,0:0:0:0:
296,208,132772,1,8,0:0:0:0:
286,211,132847,1,8,0:0:0:0:
360,188,132922,1,0,0:0:0:0:
232,160,132997,1,8,0:0:0:0:
248,244,133072,1,0,0:0:0:0:
496,184,133222,5,8,0:0:0:0:
144,208,133297,1,0,0:0:0:0:
472,208,133372,1,8,0:0:0:0:
150,209,133447,1,0,0:0:0:0:
472,208,133522,1,8,0:0:0:0:
150,209,133597,1,0,0:0:0:0:
472,208,133672,1,8,0:0:0:0:
445,227,133747,1,8,0:0:0:0:
472,208,133822,1,0,0:0:0:0:
401,250,133897,1,8,0:0:0:0:
236,208,133972,1,0,0:0:0:0:
491,232,134047,1,0,0:0:0:0:
236,208,134122,1,8,0:0:0:0:
236,208,134197,1,8,0:0:0:0:
236,208,134272,1,8,0:0:0:0:
236,208,134347,1,8,0:0:0:0:
236,208,134422,1,4,0:0:0:0:
