osu file format v14

[General]
AudioFilename: audio.mp3
AudioLeadIn: 0
PreviewTime: 76822
Countdown: 0
SampleSet: Normal
StackLeniency: 1
Mode: 1
LetterboxInBreaks: 0
WidescreenStoryboard: 0

[Editor]
Bookmarks: 9622,19222,28822,38422,48022,57622,67222,76822,86422,96022,105622,115222,124822,134422
DistanceSpacing: 1.5
BeatDivisor: 2
GridSize: 32
TimelineZoom: 1.8

[Metadata]
Title:contra88
TitleUnicode:contra88
Artist:Kola Kid
ArtistUnicode:Kola Kid
Creator:Gamelan4
Version:Kantan
Source:osu!
Tags:Axer Coryn Nepuri fa featured artist instrumental electronic mpg breakcore mg mappers' guild chiptune
BeatmapID:2357572
BeatmapSetID:1126630

[Difficulty]
HPDrainRate:8
CircleSize:2
OverallDifficulty:3
ApproachRate:10
SliderMultiplier:1.4
SliderTickRate:1

[Events]
//Background and Video events
0,0,"pucha bg bonito uwu.png",0,0
//Break Periods
2,67422,74572
//Storyboard Layer 0 (Background)
//Storyboard Layer 1 (Fail)
//Storyboard Layer 2 (Pass)
//Storyboard Layer 3 (Foreground)
//Storyboard Layer 4 (Overlay)
//Storyboard Sound Samples

[TimingPoints]
22,300,4,1,0,80,1,0
76822,-100,4,1,0,80,0,1
86422,-100,4,1,0,80,0,0
115222,-100,4,1,0,80,0,1
124522,-100,4,1,0,80,0,0
124822,-100,4,1,0,80,0,1
134422,-100,4,1,0,80,0,0

[HitObjects]
109,185,22,5,0,0:0:0:0:
256,192,2272,1,0,0:0:0:0:
259,199,2422,1,0,0:0:0:0:
235,211,4822,1,0,0:0:0:0:
256,192,7072,1,0,0:0:0:0:
258,192,7222,1,0,0:0:0:0:
263,205,8422,1,0,0:0:0:0:
258,192,8722,1,0,0:0:0:0:
263,205,9022,1,0,0:0:0:0:
258,192,9322,1,0,0:0:0:0:
263,205,9622,1,0,0:0:0:0:
263,205,10072,1,8,0:0:0:0:
258,194,10822,1,8,0:0:0:0:
258,194,11272,1,8,0:0:0:0:
258,194,12022,1,0,0:0:0:0:
258,194,12472,1,8,0:0:0:0:
258,194,13222,1,8,0:0:0:0:
274,222,14422,1,0,0:0:0:0:
274,222,14872,1,8,0:0:0:0:
274,222,15622,1,8,0:0:0:0:
274,222,16072,1,8,0:0:0:0:
256,192,16822,1,0,0:0:0:0:
256,192,17272,1,8,0:0:0:0:
256,192,18022,1,8,0:0:0:0:
256,192,18322,1,8,0:0:0:0:
256,192,18622,1,8,0:0:0:0:
256,192,18922,1,8,0:0:0:0:
256,192,19222,1,0,0:0:0:0:
256,192,19822,1,0,0:0:0:0:
256,192,20422,1,0,0:0:0:0:
256,192,20872,1,0,0:0:0:0:
256,192,21622,1,8,0:0:0:0:
256,192,22222,1,8,0:0:0:0:
256,192,22822,1,0,0:0:0:0:
256,192,24022,1,0,0:0:0:0:
256,192,24622,1,0,0:0:0:0:
256,192,25222,1,0,0:0:0:0:
256,192,25672,1,0,0:0:0:0:
256,192,26422,1,8,0:0:0:0:
256,192,27022,1,8,0:0:0:0:
256,192,27622,1,0,0:0:0:0:
256,192,27922,1,8,0:0:0:0:
256,192,28222,1,8,0:0:0:0:
256,192,28522,1,8,0:0:0:0:
256,192,28822,1,0,0:0:0:0:
256,192,29272,1,8,0:0:0:0:
256,192,30022,1,0,0:0:0:0:
256,192,30322,1,0,0:0:0:0:
256,192,30622,1,0,0:0:0:0:
256,192,31222,1,0,0:0:0:0:
256,192,31672,1,8,0:0:0:0:
256,192,32422,1,0,0:0:0:0:
256,192,33622,1,0,0:0:0:0:
256,192,34072,1,8,0:0:0:0:
256,192,34822,1,0,0:0:0:0:
256,192,35122,1,0,0:0:0:0:
256,192,35422,1,0,0:0:0:0:
256,192,36022,1,0,0:0:0:0:
256,192,36472,1,8,0:0:0:0:
256,192,37222,1,0,0:0:0:0:
256,192,37522,1,0,0:0:0:0:
256,192,37822,1,0,0:0:0:0:
256,192,38122,1,0,0:0:0:0:
256,192,38422,1,8,0:0:0:0:
256,192,38872,1,0,0:0:0:0:
256,192,39622,1,8,0:0:0:0:
256,192,40072,1,0,0:0:0:0:
256,192,40522,1,8,0:0:0:0:
256,192,40822,1,8,0:0:0:0:
256,192,41122,1,0,0:0:0:0:
256,224,42022,1,8,0:0:0:0:
288,224,42472,1,0,0:0:0:0:
352,192,42922,1,8,0:0:0:0:
288,224,43222,1,8,0:0:0:0:
224,224,43672,1,0,0:0:0:0:
288,224,44422,1,8,0:0:0:0:
256,192,44872,1,0,0:0:0:0:
352,192,45322,1,8,0:0:0:0:
256,192,45622,1,8,0:0:0:0:
256,192,45922,1,0,0:0:0:0:
256,192,46822,1,8,0:0:0:0:
224,160,47122,1,8,0:0:0:0:
224,160,47422,1,8,0:0:0:0:
224,160,47722,1,8,0:0:0:0:
224,160,48022,1,0,0:0:0:0:
256,192,48472,1,0,0:0:0:0:
256,192,48922,1,8,0:0:0:0:
256,192,49222,1,0,0:0:0:0:
224,192,49822,1,0,0:0:0:0:
224,192,50422,1,0,0:0:0:0:
224,192,50722,1,0,0:0:0:0:
224,192,51322,1,8,0:0:0:0:
224,192,51622,1,0,0:0:0:0:
224,192,52072,1,0,0:0:0:0:
224,160,52522,1,8,0:0:0:0:
224,160,52822,1,0,0:0:0:0:
224,160,54022,1,8,0:0:0:0:
224,192,54472,1,0,0:0:0:0:
224,160,54922,1,8,0:0:0:0:
224,160,55222,1,0,0:0:0:0:
224,160,55522,1,0,0:0:0:0:
224,160,56422,1,8,0:0:0:0:
224,160,56722,1,8,0:0:0:0:
224,160,57022,1,8,0:0:0:0:
224,160,57322,1,8,0:0:0:0:
224,160,57622,1,0,0:0:0:0:
256,192,58072,1,0,0:0:0:0:
256,192,58522,1,8,0:0:0:0:
256,192,58822,1,0,0:0:0:0:
224,192,59272,1,0,0:0:0:0:
224,192,59722,1,8,0:0:0:0:
224,192,60022,1,0,0:0:0:0:
224,192,60322,1,0,0:0:0:0:
224,192,60922,1,8,0:0:0:0:
224,192,61222,1,0,0:0:0:0:
224,192,61672,1,0,0:0:0:0:
224,160,62122,1,8,0:0:0:0:
224,160,62422,1,0,0:0:0:0:
224,160,63622,1,8,0:0:0:0:
224,160,64072,1,0,0:0:0:0:
224,160,64522,1,8,0:0:0:0:
224,160,64822,1,0,0:0:0:0:
224,160,65122,1,0,0:0:0:0:
224,160,66022,1,8,0:0:0:0:
224,160,66322,1,8,0:0:0:0:
224,160,66622,1,8,0:0:0:0:
224,160,66922,1,8,0:0:0:0:
224,160,67222,1,0,0:0:0:0:
256,192,75022,5,8,0:0:0:0:
192,160,75322,1,8,0:0:0:0:
192,160,75622,1,8,0:0:0:0:
192,160,76222,1,8,0:0:0:0:
192,160,76822,1,4,0:0:0:0:
288,192,79222,1,4,0:0:0:0:
288,192,79522,1,4,0:0:0:0:
256,192,81622,1,4,0:0:0:0:
256,192,84022,1,4,0:0:0:0:
256,192,84322,1,4,0:0:0:0:
256,192,85222,1,12,0:0:0:0:
256,192,85522,1,12,0:0:0:0:
256,192,85822,1,12,0:0:0:0:
256,192,86122,1,12,0:0:0:0:
256,192,86422,1,4,0:0:0:0:
288,192,86872,1,0,0:0:0:0:
288,128,87322,1,0,0:0:0:0:
288,128,87622,1,8,0:0:0:0:
288,128,88522,1,0,0:0:0:0:
288,128,88822,1,8,0:0:0:0:
288,128,89272,1,0,0:0:0:0:
288,128,89722,1,0,0:0:0:0:
288,128,90022,1,8,0:0:0:0:
320,224,90472,1,8,0:0:0:0:
384,224,90922,1,0,0:0:0:0:
384,224,91222,1,8,0:0:0:0:
256,192,91672,1,0,0:0:0:0:
256,192,92122,1,8,0:0:0:0:
256,192,92422,1,0,0:0:0:0:
256,192,93322,1,8,0:0:0:0:
256,192,93622,1,0,0:0:0:0:
256,192,94222,1,0,0:0:0:0:
256,192,94822,1,8,0:0:0:0:
256,192,95122,1,8,0:0:0:0:
256,192,95422,1,0,0:0:0:0:
256,192,95722,1,0,0:0:0:0:
256,192,96022,1,8,0:0:0:0:
288,192,96472,1,0,0:0:0:0:
288,128,96922,1,0,0:0:0:0:
288,128,97222,1,8,0:0:0:0:
288,128,98122,1,0,0:0:0:0:
288,128,98422,1,8,0:0:0:0:
288,128,98872,1,0,0:0:0:0:
288,128,99322,1,0,0:0:0:0:
480,224,99622,1,8,0:0:0:0:
352,192,100822,1,8,0:0:0:0:
256,192,101272,1,0,0:0:0:0:
256,192,101722,1,8,0:0:0:0:
256,192,102022,1,0,0:0:0:0:
256,192,102922,1,8,0:0:0:0:
256,192,103222,1,0,0:0:0:0:
256,192,103822,1,8,0:0:0:0:
256,192,104422,1,8,0:0:0:0:
256,192,104722,1,8,0:0:0:0:
256,192,105022,1,0,0:0:0:0:
256,192,105322,1,0,0:0:0:0:
256,192,105622,1,8,0:0:0:0:
288,192,106072,1,0,0:0:0:0:
288,128,106522,1,0,0:0:0:0:
288,128,106822,1,8,0:0:0:0:
288,128,107722,1,0,0:0:0:0:
288,128,108022,1,8,0:0:0:0:
288,128,108472,1,0,0:0:0:0:
288,128,108922,1,0,0:0:0:0:
288,128,109222,1,8,0:0:0:0:
320,224,109672,1,8,0:0:0:0:
384,224,110122,1,0,0:0:0:0:
384,224,110422,1,8,0:0:0:0:
256,192,110872,1,0,0:0:0:0:
256,192,111322,1,8,0:0:0:0:
256,192,111622,1,0,0:0:0:0:
256,192,112522,1,8,0:0:0:0:
256,192,112822,1,0,0:0:0:0:
256,192,113422,1,0,0:0:0:0:
256,192,114022,1,8,0:0:0:0:
256,192,114322,1,8,0:0:0:0:
256,192,114622,1,0,0:0:0:0:
256,192,114922,1,0,0:0:0:0:
256,192,115222,1,8,0:0:0:0:
160,224,115822,1,0,0:0:0:0:
32,160,116422,1,0,0:0:0:0:
96,160,116722,1,0,0:0:0:0:
256,128,117022,1,0,0:0:0:0:
288,128,117622,1,8,0:0:0:0:
288,128,118072,1,0,0:0:0:0:
288,128,118522,1,8,0:0:0:0:
288,128,118822,1,0,0:0:0:0:
288,160,120022,1,0,0:0:0:0:
288,160,120622,1,0,0:0:0:0:
288,160,121222,1,0,0:0:0:0:
288,160,121522,1,0,0:0:0:0:
288,160,121822,1,0,0:0:0:0:
288,160,122422,1,8,0:0:0:0:
288,160,122722,1,0,0:0:0:0:
288,160,123022,1,8,0:0:0:0:
288,160,123622,1,8,0:0:0:0:
288,160,123922,1,8,0:0:0:0:
288,160,124222,1,0,0:0:0:0:
288,160,124522,1,0,0:0:0:0:
288,192,124822,1,8,0:0:0:0:
160,224,125422,1,0,0:0:0:0:
32,160,126022,1,0,0:0:0:0:
96,160,126322,1,0,0:0:0:0:
256,128,126622,1,0,0:0:0:0:
288,128,127222,1,8,0:0:0:0:
288,128,127672,1,0,0:0:0:0:
288,128,128122,1,8,0:0:0:0:
288,128,128422,1,0,0:0:0:0:
288,160,129622,1,0,0:0:0:0:
288,160,130222,1,0,0:0:0:0:
288,160,130822,1,0,0:0:0:0:
288,160,131122,1,0,0:0:0:0:
288,160,131422,1,0,0:0:0:0:
288,160,132022,1,8,0:0:0:0:
288,160,132322,1,0,0:0:0:0:
288,160,132622,1,8,0:0:0:0:
288,160,133222,1,8,0:0:0:0:
288,160,133522,1,8,0:0:0:0:
288,160,133822,1,0,0:0:0:0:
288,160,134122,1,0,0:0:0:0:
288,192,134422,1,8,0:0:0:0:
