osu file format v14

[General]
AudioFilename: audio.mp3
AudioLeadIn: 0
PreviewTime: 115103
Countdown: 0
SampleSet: Normal
StackLeniency: 0.7
Mode: 1
LetterboxInBreaks: 0
WidescreenStoryboard: 1

[Editor]
Bookmarks: 203,9803,19403,29003,38603,48203,57803,67403,77003,86603,96203,105803,115403,125003,134603,144203,153803,163403
DistanceSpacing: 0.1
BeatDivisor: 4
GridSize: 32
TimelineZoom: 2.2

[Metadata]
Title:cash machine go!
TitleUnicode:cash machine go!
Artist:Kola Kid
ArtistUnicode:Kola Kid
Creator:gaston_2199
Version:Muzukashii
Source:osu!
Tags:fa featured artist chiptune breakcore electronic instrumental 8bit 8-bit mpg mg mappers' guild
BeatmapID:2349761
BeatmapSetID:1123501

[Difficulty]
HPDrainRate:6
CircleSize:2
OverallDifficulty:5
ApproachRate:10
SliderMultiplier:1.4
SliderTickRate:1

[Events]
//Background and Video events
0,0,"BG.png",0,-120
//Break Periods
2,106003,110453
//Storyboard Layer 0 (Background)
//Storyboard Layer 1 (Fail)
//Storyboard Layer 2 (Pass)
//Storyboard Layer 3 (Foreground)
//Storyboard Layer 4 (Overlay)
//Storyboard Sound Samples

[TimingPoints]
203,300,4,1,0,70,1,0
203,-142.857142857143,4,1,0,70,0,0
9503,-133.333333333333,4,1,0,70,0,0
9803,-125,4,1,0,70,0,0
19103,-122.448979591837,4,1,0,70,0,0
19253,-116.279069767442,4,1,0,70,0,0
19403,-111.111111111111,4,1,0,70,0,0
38603,-100,4,1,0,80,0,0
58403,-106.382978723404,4,1,0,70,0,0
59003,-113.636363636364,4,1,0,70,0,0
59603,-121.951219512195,4,1,0,70,0,0
59903,-131.578947368421,4,1,0,70,0,0
60203,-142.857142857143,4,1,0,70,0,0
66803,-138.461538461538,4,1,0,70,0,0
66878,-134.328358208955,4,1,0,70,0,0
66953,-130.434782608696,4,1,0,70,0,0
67103,-123.287671232877,4,1,0,70,0,0
67253,-116.883116883117,4,1,0,70,0,0
67403,-111.111111111111,4,1,0,70,0,0
77003,-100,4,1,0,80,0,0
86603,-100,4,1,0,90,0,1
105803,-100,4,1,0,90,0,0
107003,-142.857142857143,4,1,0,70,0,0
115403,-125,4,1,0,70,0,0
124403,-120.689655172414,4,1,0,80,0,0
124553,-116.666666666667,4,1,0,80,0,0
124703,-112.903225806452,4,1,0,80,0,0
124778,-109.375,4,1,0,80,0,0
124853,-106.060606060606,4,1,0,80,0,0
125003,-100,4,1,0,80,0,0
134303,-102.040816326531,4,1,0,80,0,0
134453,-106.382978723404,4,1,0,80,0,0
134603,-111.111111111111,4,1,0,70,0,0
143903,-109.090909090909,4,1,0,70,0,0
143978,-107.142857142857,4,1,0,70,0,0
144053,-105.263157894737,4,1,0,70,0,0
144203,-100,4,1,0,90,0,1
163403,-100,4,1,0,90,0,0
164003,-111.111111111111,4,1,0,70,0,0
164603,-125,4,1,0,70,0,0
165503,-142.857142857143,4,1,0,70,0,0

[HitObjects]
256,192,203,5,0,0:0:0:0:
256,192,803,1,8,0:0:0:0:
256,192,1403,1,8,0:0:0:0:
256,192,2003,1,0,0:0:0:0:
256,192,2303,1,8,0:0:0:0:
256,192,2903,1,8,0:0:0:0:
256,192,3803,1,8,0:0:0:0:
256,192,4403,1,0,0:0:0:0:
256,192,4703,1,8,0:0:0:0:
256,192,5003,1,0,0:0:0:0:
256,192,5603,1,8,0:0:0:0:
256,192,6203,1,8,0:0:0:0:
256,192,6803,1,0,0:0:0:0:
256,192,7103,1,8,0:0:0:0:
256,192,7703,1,8,0:0:0:0:
256,192,8603,1,8,0:0:0:0:
256,192,9203,1,0,0:0:0:0:
256,192,9503,1,8,0:0:0:0:
256,192,9803,1,0,0:0:0:0:
256,192,9953,1,0,0:0:0:0:
320,256,10103,1,8,0:0:0:0:
288,160,10703,1,8,0:0:0:0:
288,160,11003,1,0,0:0:0:0:
288,160,11303,1,8,0:0:0:0:
288,160,11753,1,0,0:0:0:0:
256,224,11903,1,8,0:0:0:0:
384,64,12203,1,0,0:0:0:0:
320,128,12353,1,0,0:0:0:0:
256,192,12503,1,8,0:0:0:0:
256,192,13103,1,8,0:0:0:0:
256,192,13403,1,0,0:0:0:0:
256,192,13703,1,8,0:0:0:0:
256,192,14153,1,0,0:0:0:0:
256,192,14303,1,8,0:0:0:0:
256,192,14603,1,0,0:0:0:0:
256,192,14753,1,0,0:0:0:0:
256,192,14903,1,8,0:0:0:0:
256,192,15503,1,8,0:0:0:0:
256,192,15803,1,0,0:0:0:0:
256,192,16103,1,8,0:0:0:0:
256,192,16553,1,0,0:0:0:0:
256,192,16703,1,8,0:0:0:0:
256,192,17003,1,0,0:0:0:0:
256,192,17153,1,0,0:0:0:0:
256,192,17303,1,8,0:0:0:0:
256,192,17903,1,8,0:0:0:0:
256,192,18203,1,0,0:0:0:0:
256,192,18503,1,8,0:0:0:0:
256,192,18953,1,0,0:0:0:0:
256,192,19103,1,8,0:0:0:0:
256,192,19253,1,8,0:0:0:0:
256,192,19403,1,0,0:0:0:0:
256,192,19553,1,0,0:0:0:0:
256,192,19703,1,8,0:0:0:0:
256,192,20303,1,8,0:0:0:0:
256,128,20603,1,0,0:0:0:0:
256,160,20753,1,0,0:0:0:0:
256,160,20903,1,8,0:0:0:0:
256,160,21353,1,0,0:0:0:0:
256,160,21503,1,8,0:0:0:0:
256,64,21803,1,0,0:0:0:0:
256,160,21953,1,0,0:0:0:0:
256,64,22103,1,8,0:0:0:0:
256,64,22403,1,0,0:0:0:0:
256,96,22703,1,8,0:0:0:0:
256,96,23003,1,0,0:0:0:0:
256,96,23153,1,0,0:0:0:0:
256,96,23303,1,8,0:0:0:0:
256,96,23753,1,0,0:0:0:0:
256,96,23903,1,8,0:0:0:0:
256,192,24203,1,0,0:0:0:0:
256,192,24353,1,0,0:0:0:0:
256,192,24503,1,8,0:0:0:0:
256,192,25103,1,8,0:0:0:0:
256,128,25403,1,0,0:0:0:0:
256,160,25553,1,0,0:0:0:0:
256,160,25703,1,8,0:0:0:0:
256,160,26153,1,0,0:0:0:0:
256,160,26303,1,8,0:0:0:0:
256,64,26603,1,0,0:0:0:0:
256,160,26753,1,0,0:0:0:0:
256,64,26903,1,8,0:0:0:0:
256,128,27203,1,0,0:0:0:0:
256,96,27503,1,8,0:0:0:0:
256,96,27803,1,0,0:0:0:0:
256,96,27953,1,0,0:0:0:0:
256,96,28103,1,8,0:0:0:0:
256,96,28553,1,0,0:0:0:0:
256,96,28703,1,8,0:0:0:0:
256,192,29003,1,0,0:0:0:0:
256,192,29153,1,0,0:0:0:0:
256,192,29303,1,8,0:0:0:0:
256,192,29903,1,8,0:0:0:0:
256,128,30203,1,0,0:0:0:0:
256,160,30353,1,0,0:0:0:0:
256,160,30503,1,8,0:0:0:0:
256,160,30953,1,0,0:0:0:0:
256,160,31103,1,8,0:0:0:0:
256,64,31403,1,0,0:0:0:0:
256,160,31553,1,0,0:0:0:0:
256,64,31703,1,8,0:0:0:0:
256,64,32003,1,0,0:0:0:0:
256,96,32303,1,8,0:0:0:0:
256,96,32603,1,0,0:0:0:0:
256,96,32753,1,0,0:0:0:0:
256,96,32903,1,8,0:0:0:0:
256,96,33353,1,0,0:0:0:0:
256,96,33503,1,8,0:0:0:0:
256,192,33803,1,0,0:0:0:0:
256,192,33953,1,0,0:0:0:0:
256,192,34103,1,8,0:0:0:0:
256,192,34703,1,8,0:0:0:0:
256,128,35003,1,0,0:0:0:0:
256,160,35153,1,0,0:0:0:0:
256,160,35303,1,8,0:0:0:0:
256,160,35753,1,0,0:0:0:0:
256,160,35903,1,8,0:0:0:0:
256,64,36203,1,0,0:0:0:0:
256,160,36353,1,0,0:0:0:0:
256,64,36503,1,8,0:0:0:0:
256,128,36803,1,0,0:0:0:0:
256,96,37103,1,8,0:0:0:0:
256,96,37403,1,0,0:0:0:0:
256,96,37553,1,0,0:0:0:0:
256,96,37703,1,8,0:0:0:0:
256,96,37853,1,0,0:0:0:0:
256,96,38003,1,0,0:0:0:0:
256,96,38153,1,0,0:0:0:0:
256,96,38303,1,8,0:0:0:0:
256,96,38603,1,0,0:0:0:0:
256,192,38753,5,0,0:0:0:0:
256,192,38903,1,8,0:0:0:0:
320,96,39203,1,0,0:0:0:0:
256,192,39503,1,8,0:0:0:0:
320,96,39653,1,8,0:0:0:0:
256,128,39803,1,0,0:0:0:0:
256,160,40103,1,8,0:0:0:0:
256,160,40253,1,0,0:0:0:0:
256,160,40553,1,0,0:0:0:0:
256,160,40703,1,8,0:0:0:0:
256,64,41303,1,8,0:0:0:0:
256,96,41453,1,0,0:0:0:0:
256,64,41603,1,8,0:0:0:0:
256,96,41903,1,8,0:0:0:0:
256,64,42053,1,0,0:0:0:0:
256,96,42203,1,0,0:0:0:0:
256,96,42353,1,0,0:0:0:0:
256,96,42653,1,8,0:0:0:0:
224,128,42728,1,8,0:0:0:0:
320,128,42803,1,8,0:0:0:0:
256,96,42953,1,0,0:0:0:0:
256,96,43103,1,8,0:0:0:0:
256,192,43403,1,0,0:0:0:0:
256,192,43703,1,8,0:0:0:0:
256,192,43853,1,0,0:0:0:0:
256,96,44003,1,8,0:0:0:0:
256,192,44303,1,8,0:0:0:0:
224,160,44453,1,0,0:0:0:0:
256,96,44603,1,0,0:0:0:0:
256,160,44753,1,0,0:0:0:0:
256,160,44903,1,8,0:0:0:0:
256,160,45353,1,0,0:0:0:0:
256,160,45503,1,8,0:0:0:0:
256,64,46103,1,8,0:0:0:0:
256,96,46253,1,0,0:0:0:0:
256,128,46403,1,8,0:0:0:0:
256,96,46703,1,8,0:0:0:0:
256,96,46853,1,0,0:0:0:0:
256,96,47003,1,0,0:0:0:0:
256,96,47153,1,0,0:0:0:0:
256,96,47453,1,8,0:0:0:0:
224,32,47528,1,8,0:0:0:0:
224,64,47603,1,8,0:0:0:0:
256,96,47753,1,0,0:0:0:0:
256,96,47903,1,8,0:0:0:0:
256,192,48203,1,0,0:0:0:0:
255,181,48353,1,0,0:0:0:0:
256,192,48503,1,8,0:0:0:0:
320,96,48803,1,0,0:0:0:0:
256,192,49103,1,8,0:0:0:0:
320,96,49253,1,8,0:0:0:0:
256,128,49403,1,0,0:0:0:0:
256,160,49703,1,8,0:0:0:0:
256,160,49853,1,0,0:0:0:0:
256,160,50153,1,0,0:0:0:0:
256,160,50303,1,8,0:0:0:0:
256,64,50903,1,8,0:0:0:0:
256,96,51053,1,0,0:0:0:0:
256,64,51203,1,8,0:0:0:0:
256,96,51503,1,8,0:0:0:0:
256,96,51653,1,0,0:0:0:0:
256,96,51803,1,0,0:0:0:0:
256,96,51953,1,0,0:0:0:0:
256,96,52253,1,8,0:0:0:0:
288,96,52328,1,8,0:0:0:0:
320,128,52403,1,8,0:0:0:0:
256,96,52553,1,0,0:0:0:0:
256,96,52703,1,8,0:0:0:0:
256,192,53003,1,0,0:0:0:0:
256,192,53303,1,8,0:0:0:0:
256,192,53453,1,0,0:0:0:0:
256,96,53603,1,8,0:0:0:0:
256,192,53903,1,8,0:0:0:0:
256,128,54053,1,0,0:0:0:0:
256,96,54203,1,0,0:0:0:0:
256,160,54353,1,0,0:0:0:0:
256,160,54503,1,8,0:0:0:0:
256,160,54953,1,0,0:0:0:0:
256,160,55103,1,8,0:0:0:0:
256,64,55703,1,8,0:0:0:0:
256,96,55853,1,0,0:0:0:0:
256,128,56003,1,8,0:0:0:0:
256,96,56303,1,8,0:0:0:0:
256,96,56453,1,0,0:0:0:0:
256,96,56603,1,0,0:0:0:0:
256,96,56753,1,0,0:0:0:0:
256,96,57053,1,0,0:0:0:0:
256,96,57203,1,8,0:0:0:0:
256,96,57353,1,0,0:0:0:0:
256,96,57503,1,8,0:0:0:0:
256,96,57578,1,8,0:0:0:0:
256,96,57653,1,8,0:0:0:0:
256,192,57803,5,4,0:0:0:0:
256,192,58403,1,8,0:0:0:0:
256,192,59003,1,8,0:0:0:0:
256,192,59603,1,0,0:0:0:0:
256,192,59903,1,8,0:0:0:0:
256,192,60503,1,8,0:0:0:0:
256,192,61403,1,8,0:0:0:0:
256,192,62003,1,0,0:0:0:0:
256,192,62303,1,8,0:0:0:0:
256,192,62603,1,0,0:0:0:0:
256,192,63203,1,8,0:0:0:0:
256,192,63803,1,8,0:0:0:0:
256,192,64403,1,0,0:0:0:0:
256,192,64703,1,8,0:0:0:0:
256,192,65303,1,8,0:0:0:0:
256,192,66203,1,8,0:0:0:0:
256,192,66803,1,0,0:0:0:0:
256,160,66878,1,0,0:0:0:0:
288,128,66953,1,0,0:0:0:0:
256,192,67103,1,8,0:0:0:0:
288,128,67253,1,8,0:0:0:0:
288,128,67403,1,0,0:0:0:0:
288,128,67703,1,8,0:0:0:0:
288,64,68153,1,0,0:0:0:0:
288,64,68303,1,8,0:0:0:0:
288,64,68753,1,8,0:0:0:0:
288,64,68903,1,8,0:0:0:0:
275,65,69203,1,0,0:0:0:0:
320,64,69503,1,8,0:0:0:0:
96,64,69803,1,8,0:0:0:0:
160,64,69953,1,0,0:0:0:0:
256,64,70103,1,8,0:0:0:0:
256,64,70403,1,8,0:0:0:0:
256,64,70478,1,8,0:0:0:0:
256,64,70553,1,8,0:0:0:0:
320,160,70703,1,8,0:0:0:0:
256,64,70853,1,8,0:0:0:0:
256,32,71153,1,0,0:0:0:0:
288,96,71303,1,8,0:0:0:0:
288,96,71603,1,8,0:0:0:0:
311,12,71753,1,0,0:0:0:0:
256,32,71903,1,8,0:0:0:0:
256,64,72053,1,0,0:0:0:0:
256,32,72503,1,8,0:0:0:0:
256,32,72653,1,8,0:0:0:0:
256,32,72953,1,0,0:0:0:0:
256,32,73103,1,8,0:0:0:0:
256,32,73403,1,8,0:0:0:0:
256,32,73553,1,0,0:0:0:0:
256,32,73703,1,8,0:0:0:0:
256,32,74003,1,0,0:0:0:0:
256,32,74303,1,8,0:0:0:0:
256,32,74603,1,0,0:0:0:0:
256,32,74903,1,8,0:0:0:0:
256,32,75053,1,8,0:0:0:0:
288,224,75353,1,8,0:0:0:0:
288,192,75503,1,0,0:0:0:0:
288,192,75803,1,8,0:0:0:0:
288,192,75953,1,8,0:0:0:0:
288,192,76103,1,8,0:0:0:0:
288,192,76253,1,0,0:0:0:0:
288,192,76403,1,8,0:0:0:0:
288,192,76478,1,8,0:0:0:0:
288,192,76553,1,8,0:0:0:0:
288,192,76703,1,8,0:0:0:0:
389,217,77003,1,0,0:0:0:0:
389,217,77303,1,8,0:0:0:0:
389,217,77453,1,0,0:0:0:0:
389,217,77603,1,0,0:0:0:0:
389,217,77903,1,8,0:0:0:0:
389,217,78053,1,0,0:0:0:0:
357,153,78503,1,8,0:0:0:0:
357,153,78803,1,8,0:0:0:0:
357,153,78953,1,0,0:0:0:0:
389,121,79103,1,8,0:0:0:0:
389,121,79403,1,8,0:0:0:0:
389,121,79553,1,8,0:0:0:0:
389,121,79703,1,8,0:0:0:0:
335,201,80003,1,0,0:0:0:0:
335,201,80303,1,8,0:0:0:0:
335,201,80453,1,8,0:0:0:0:
335,201,80603,1,0,0:0:0:0:
335,201,80903,1,8,0:0:0:0:
335,187,81053,1,0,0:0:0:0:
370,183,81203,1,8,0:0:0:0:
335,201,81353,1,0,0:0:0:0:
335,201,81503,1,8,0:0:0:0:
335,201,81803,1,0,0:0:0:0:
376,197,82103,1,8,0:0:0:0:
376,197,82253,1,0,0:0:0:0:
376,197,82403,1,0,0:0:0:0:
376,197,82703,1,8,0:0:0:0:
376,197,82853,1,0,0:0:0:0:
352,125,83303,1,8,0:0:0:0:
352,125,83603,1,8,0:0:0:0:
352,125,83753,1,0,0:0:0:0:
352,125,83903,1,8,0:0:0:0:
337,28,84203,1,8,0:0:0:0:
348,101,84353,1,8,0:0:0:0:
348,101,84503,1,8,0:0:0:0:
348,101,84803,1,0,0:0:0:0:
348,101,85103,1,8,0:0:0:0:
348,101,85253,1,8,0:0:0:0:
348,101,85403,1,0,0:0:0:0:
348,101,85703,1,8,0:0:0:0:
348,101,85853,1,0,0:0:0:0:
348,101,86003,1,8,0:0:0:0:
348,101,86153,1,0,0:0:0:0:
348,101,86303,1,8,0:0:0:0:
348,101,86453,1,8,0:0:0:0:
389,217,86603,1,0,0:0:0:0:
389,217,86903,1,8,0:0:0:0:
389,217,87353,1,0,0:0:0:0:
389,217,87503,1,8,0:0:0:0:
389,217,87653,1,0,0:0:0:0:
357,153,87953,1,0,0:0:0:0:
314,101,88103,1,8,0:0:0:0:
357,153,88328,1,8,0:0:0:0:
357,153,88553,1,0,0:0:0:0:
389,121,88703,1,8,0:0:0:0:
389,121,89003,1,8,0:0:0:0:
279,180,89078,1,8,0:0:0:0:
389,121,89153,1,8,0:0:0:0:
389,121,89303,1,8,0:0:0:0:
335,201,89603,1,0,0:0:0:0:
335,201,89753,1,0,0:0:0:0:
335,201,89903,1,8,0:0:0:0:
335,201,90353,1,0,0:0:0:0:
331,134,90503,1,8,0:0:0:0:
370,183,90803,1,8,0:0:0:0:
335,201,90953,1,0,0:0:0:0:
335,201,91103,1,8,0:0:0:0:
335,201,91253,1,0,0:0:0:0:
335,201,91403,1,0,0:0:0:0:
376,197,91703,1,8,0:0:0:0:
376,197,91853,1,0,0:0:0:0:
376,197,92303,1,8,0:0:0:0:
376,197,92603,1,8,0:0:0:0:
376,197,92753,1,0,0:0:0:0:
352,125,92903,1,8,0:0:0:0:
352,125,93128,1,0,0:0:0:0:
352,125,93353,1,0,0:0:0:0:
352,125,93503,1,8,0:0:0:0:
337,28,93803,1,8,0:0:0:0:
348,101,94103,1,8,0:0:0:0:
348,101,94253,1,8,0:0:0:0:
348,101,94403,1,0,0:0:0:0:
158,113,94553,1,0,0:0:0:0:
348,101,94703,1,8,0:0:0:0:
313,67,95003,1,8,0:0:0:0:
313,67,95153,1,0,0:0:0:0:
306,63,95303,1,0,0:0:0:0:
348,101,95453,1,8,0:0:0:0:
348,101,95603,1,8,0:0:0:0:
314,60,95678,1,8,0:0:0:0:
348,101,95753,1,8,0:0:0:0:
348,101,95903,1,0,0:0:0:0:
348,101,96053,1,8,0:0:0:0:
389,217,96203,1,0,0:0:0:0:
389,217,96353,1,0,0:0:0:0:
389,217,96503,1,8,0:0:0:0:
389,217,96953,1,0,0:0:0:0:
389,217,97103,1,8,0:0:0:0:
389,217,97253,1,8,0:0:0:0:
389,217,97403,1,0,0:0:0:0:
386,211,97553,1,0,0:0:0:0:
314,101,97703,1,8,0:0:0:0:
357,153,97928,1,8,0:0:0:0:
357,153,98153,1,0,0:0:0:0:
389,121,98303,1,8,0:0:0:0:
389,121,98603,1,8,0:0:0:0:
240,126,98678,1,8,0:0:0:0:
389,121,98753,1,8,0:0:0:0:
389,121,98903,1,8,0:0:0:0:
335,201,99203,1,0,0:0:0:0:
335,201,99353,1,0,0:0:0:0:
335,201,99503,1,8,0:0:0:0:
335,201,99953,1,0,0:0:0:0:
331,134,100103,1,8,0:0:0:0:
370,183,100403,1,8,0:0:0:0:
300,102,100553,1,0,0:0:0:0:
335,201,100703,1,8,0:0:0:0:
335,201,100853,1,0,0:0:0:0:
335,201,101003,1,0,0:0:0:0:
376,197,101303,1,8,0:0:0:0:
376,197,101453,1,8,0:0:0:0:
376,197,101603,1,0,0:0:0:0:
376,197,101903,1,8,0:0:0:0:
376,197,102203,1,8,0:0:0:0:
352,125,102353,1,0,0:0:0:0:
352,125,102503,1,8,0:0:0:0:
352,125,102728,1,0,0:0:0:0:
352,125,102953,1,0,0:0:0:0:
352,125,103103,1,8,0:0:0:0:
337,28,103403,1,8,0:0:0:0:
348,101,103703,1,8,0:0:0:0:
348,101,103853,1,8,0:0:0:0:
348,101,104003,1,0,0:0:0:0:
348,101,104153,1,0,0:0:0:0:
348,101,104303,1,8,0:0:0:0:
313,67,104603,1,8,0:0:0:0:
313,67,104753,1,0,0:0:0:0:
348,101,104903,1,0,0:0:0:0:
348,101,105053,1,8,0:0:0:0:
348,101,105203,1,8,0:0:0:0:
314,60,105278,1,8,0:0:0:0:
348,101,105353,1,8,0:0:0:0:
348,101,105503,1,0,0:0:0:0:
348,101,105653,1,8,0:0:0:0:
262,139,105803,5,0,0:0:0:0:
389,121,110903,5,8,0:0:0:0:
389,121,111503,1,8,0:0:0:0:
389,121,112103,1,8,0:0:0:0:
389,121,112703,1,8,0:0:0:0:
389,121,113003,1,8,0:0:0:0:
389,121,113303,1,8,0:0:0:0:
389,121,113453,1,8,0:0:0:0:
389,121,113603,1,8,0:0:0:0:
389,121,113903,1,8,0:0:0:0:
389,121,114203,1,8,0:0:0:0:
389,121,114503,1,8,0:0:0:0:
389,121,114653,1,0,0:0:0:0:
389,121,114803,1,8,0:0:0:0:
389,121,114953,1,8,0:0:0:0:
389,121,115403,1,0,0:0:0:0:
389,121,115703,1,0,0:0:0:0:
307,110,116003,1,0,0:0:0:0:
307,110,116603,1,0,0:0:0:0:
307,110,116903,1,0,0:0:0:0:
307,110,117203,1,0,0:0:0:0:
307,110,117803,1,0,0:0:0:0:
307,110,118103,1,0,0:0:0:0:
307,110,118403,1,0,0:0:0:0:
307,110,118703,1,0,0:0:0:0:
307,110,119003,1,0,0:0:0:0:
307,110,119603,1,0,0:0:0:0:
307,110,120203,1,0,0:0:0:0:
307,110,120503,1,0,0:0:0:0:
307,110,120803,1,0,0:0:0:0:
307,110,121403,1,0,0:0:0:0:
307,110,121703,1,0,0:0:0:0:
307,110,122003,1,0,0:0:0:0:
307,110,122603,1,0,0:0:0:0:
307,110,122903,1,0,0:0:0:0:
307,110,123203,1,0,0:0:0:0:
307,110,123503,1,0,0:0:0:0:
307,110,123803,1,0,0:0:0:0:
307,110,124403,1,0,0:0:0:0:
323,91,124553,1,0,0:0:0:0:
307,110,124703,1,0,0:0:0:0:
323,91,124778,1,0,0:0:0:0:
323,91,124853,1,0,0:0:0:0:
389,217,125003,1,0,0:0:0:0:
389,217,125153,1,0,0:0:0:0:
389,217,125303,1,8,0:0:0:0:
389,217,125603,1,0,0:0:0:0:
389,217,125753,1,8,0:0:0:0:
389,217,125903,1,8,0:0:0:0:
389,217,126203,1,0,0:0:0:0:
357,153,126503,1,8,0:0:0:0:
357,153,126653,1,0,0:0:0:0:
357,153,126803,1,8,0:0:0:0:
389,121,127103,1,8,0:0:0:0:
389,121,127253,1,0,0:0:0:0:
389,121,127403,1,0,0:0:0:0:
389,121,127478,1,0,0:0:0:0:
389,121,127553,1,0,0:0:0:0:
389,121,127703,1,8,0:0:0:0:
335,201,127853,1,0,0:0:0:0:
335,201,128003,1,0,0:0:0:0:
335,201,128303,1,8,0:0:0:0:
335,201,128753,1,0,0:0:0:0:
335,201,128903,1,8,0:0:0:0:
335,187,129053,1,0,0:0:0:0:
370,183,129203,1,8,0:0:0:0:
335,201,129503,1,8,0:0:0:0:
335,201,129653,1,0,0:0:0:0:
335,201,129803,1,0,0:0:0:0:
335,194,129953,1,0,0:0:0:0:
376,197,130103,1,8,0:0:0:0:
376,197,130403,1,0,0:0:0:0:
376,197,130553,1,8,0:0:0:0:
376,197,130703,1,8,0:0:0:0:
376,197,131003,1,0,0:0:0:0:
352,125,131303,1,8,0:0:0:0:
352,125,131453,1,0,0:0:0:0:
352,125,131603,1,8,0:0:0:0:
352,125,131903,1,8,0:0:0:0:
352,125,132053,1,0,0:0:0:0:
337,28,132203,1,0,0:0:0:0:
348,101,132278,1,0,0:0:0:0:
348,101,132353,1,0,0:0:0:0:
348,101,132503,1,8,0:0:0:0:
348,101,132653,1,0,0:0:0:0:
348,101,132803,1,0,0:0:0:0:
348,101,133103,1,8,0:0:0:0:
348,101,133553,1,0,0:0:0:0:
348,101,133703,1,8,0:0:0:0:
348,101,133853,1,0,0:0:0:0:
348,101,134003,1,8,0:0:0:0:
348,101,134303,5,8,0:0:0:0:
348,101,134453,1,8,0:0:0:0:
256,192,134603,1,0,0:0:0:0:
256,192,134753,1,0,0:0:0:0:
256,192,134903,1,8,0:0:0:0:
256,192,135503,1,8,0:0:0:0:
256,128,135803,1,0,0:0:0:0:
256,160,135953,1,0,0:0:0:0:
256,160,136103,1,8,0:0:0:0:
256,160,136553,1,0,0:0:0:0:
256,160,136703,1,8,0:0:0:0:
256,64,137003,1,0,0:0:0:0:
256,160,137153,1,0,0:0:0:0:
256,64,137303,1,8,0:0:0:0:
256,64,137603,1,0,0:0:0:0:
256,96,137903,1,8,0:0:0:0:
256,96,138203,1,0,0:0:0:0:
256,96,138353,1,0,0:0:0:0:
256,96,138503,1,8,0:0:0:0:
256,96,138953,1,0,0:0:0:0:
256,96,139103,1,8,0:0:0:0:
256,192,139403,1,0,0:0:0:0:
256,192,139553,1,0,0:0:0:0:
256,192,139703,1,8,0:0:0:0:
256,192,140303,1,8,0:0:0:0:
256,128,140603,1,0,0:0:0:0:
256,160,140753,1,0,0:0:0:0:
256,160,140903,1,8,0:0:0:0:
256,160,141353,1,0,0:0:0:0:
256,160,141503,1,8,0:0:0:0:
256,64,141803,1,0,0:0:0:0:
256,160,141953,1,0,0:0:0:0:
256,64,142103,1,8,0:0:0:0:
256,128,142403,1,0,0:0:0:0:
256,96,142703,1,8,0:0:0:0:
256,96,143003,1,0,0:0:0:0:
256,96,143153,1,0,0:0:0:0:
256,96,143303,1,8,0:0:0:0:
256,96,143453,1,0,0:0:0:0:
256,96,143603,1,8,0:0:0:0:
256,96,143753,1,8,0:0:0:0:
256,96,143903,5,8,0:0:0:0:
256,96,143978,1,8,0:0:0:0:
256,96,144053,1,8,0:0:0:0:
389,217,144203,5,0,0:0:0:0:
389,217,144353,1,0,0:0:0:0:
389,217,144503,1,8,0:0:0:0:
389,217,144953,1,0,0:0:0:0:
389,217,145103,1,8,0:0:0:0:
389,217,145253,1,0,0:0:0:0:
357,153,145553,1,0,0:0:0:0:
340,185,145703,1,8,0:0:0:0:
357,153,145928,1,8,0:0:0:0:
357,153,146153,1,0,0:0:0:0:
389,121,146303,1,8,0:0:0:0:
382,120,146453,1,0,0:0:0:0:
389,121,146603,1,8,0:0:0:0:
253,101,146678,1,8,0:0:0:0:
389,121,146753,1,8,0:0:0:0:
389,121,146903,1,8,0:0:0:0:
335,201,147203,1,0,0:0:0:0:
357,153,147278,1,0,0:0:0:0:
335,201,147353,1,0,0:0:0:0:
335,201,147503,1,8,0:0:0:0:
335,201,147653,1,0,0:0:0:0:
335,201,147953,1,0,0:0:0:0:
327,121,148103,1,8,0:0:0:0:
370,183,148403,1,8,0:0:0:0:
335,201,148553,1,0,0:0:0:0:
335,201,148703,1,8,0:0:0:0:
335,201,148853,1,0,0:0:0:0:
335,201,149003,1,0,0:0:0:0:
300,102,149153,1,0,0:0:0:0:
376,197,149303,1,8,0:0:0:0:
376,197,149453,1,0,0:0:0:0:
376,197,149903,1,8,0:0:0:0:
376,197,150203,1,8,0:0:0:0:
352,125,150353,1,0,0:0:0:0:
352,125,150503,1,8,0:0:0:0:
352,125,150728,1,0,0:0:0:0:
352,125,150953,1,0,0:0:0:0:
352,125,151103,1,8,0:0:0:0:
337,28,151403,1,8,0:0:0:0:
339,34,151553,1,0,0:0:0:0:
348,101,151703,1,8,0:0:0:0:
344,100,151778,1,8,0:0:0:0:
349,103,151853,1,8,0:0:0:0:
348,101,152003,1,0,0:0:0:0:
109,137,152153,1,0,0:0:0:0:
348,101,152303,1,8,0:0:0:0:
313,67,152603,1,8,0:0:0:0:
313,67,152753,1,0,0:0:0:0:
348,101,152903,1,0,0:0:0:0:
348,101,153053,1,8,0:0:0:0:
348,101,153203,1,8,0:0:0:0:
314,60,153278,1,8,0:0:0:0:
348,101,153353,1,8,0:0:0:0:
348,101,153503,1,0,0:0:0:0:
348,101,153653,1,8,0:0:0:0:
389,217,153803,1,0,0:0:0:0:
389,217,153953,1,0,0:0:0:0:
389,217,154103,1,8,0:0:0:0:
293,126,154553,1,0,0:0:0:0:
389,217,154703,1,8,0:0:0:0:
389,217,154853,1,8,0:0:0:0:
389,217,155003,1,0,0:0:0:0:
385,211,155153,1,0,0:0:0:0:
361,153,155303,1,8,0:0:0:0:
357,153,155528,1,8,0:0:0:0:
357,153,155753,1,0,0:0:0:0:
389,121,155903,1,8,0:0:0:0:
381,118,156053,1,0,0:0:0:0:
389,121,156203,1,8,0:0:0:0:
245,90,156278,1,8,0:0:0:0:
389,121,156353,1,8,0:0:0:0:
389,121,156503,1,8,0:0:0:0:
335,201,156803,1,0,0:0:0:0:
357,153,156878,1,0,0:0:0:0:
335,201,156953,1,0,0:0:0:0:
335,201,157103,1,8,0:0:0:0:
335,201,157253,1,0,0:0:0:0:
335,201,157553,1,0,0:0:0:0:
337,148,157703,1,8,0:0:0:0:
370,183,158003,1,8,0:0:0:0:
335,201,158153,1,0,0:0:0:0:
335,201,158303,1,8,0:0:0:0:
335,201,158453,1,0,0:0:0:0:
335,201,158603,1,0,0:0:0:0:
300,102,158753,1,0,0:0:0:0:
376,197,158903,1,8,0:0:0:0:
376,197,159053,1,8,0:0:0:0:
376,197,159203,1,0,0:0:0:0:
376,197,159503,1,8,0:0:0:0:
376,197,159803,1,8,0:0:0:0:
352,125,159953,1,0,0:0:0:0:
352,125,160103,1,8,0:0:0:0:
352,125,160328,1,0,0:0:0:0:
352,125,160553,1,0,0:0:0:0:
352,125,160703,1,8,0:0:0:0:
337,28,161003,1,8,0:0:0:0:
348,101,161153,1,0,0:0:0:0:
348,101,161303,1,8,0:0:0:0:
409,105,161378,1,8,0:0:0:0:
348,101,161453,1,8,0:0:0:0:
348,101,161603,1,0,0:0:0:0:
348,101,161753,1,0,0:0:0:0:
348,101,161903,1,8,0:0:0:0:
313,67,162203,1,8,0:0:0:0:
313,67,162353,1,0,0:0:0:0:
313,67,162428,1,0,0:0:0:0:
348,101,162503,1,0,0:0:0:0:
348,101,162653,1,8,0:0:0:0:
348,101,162803,1,8,0:0:0:0:
314,60,162878,1,8,0:0:0:0:
348,101,162953,1,8,0:0:0:0:
348,101,163103,1,0,0:0:0:0:
348,101,163253,1,8,0:0:0:0:
262,139,163403,5,4,0:0:0:0:
262,139,164003,1,8,0:0:0:0:
262,139,164603,1,0,0:0:0:0:
262,139,165503,1,8,0:0:0:0:
262,139,166103,1,8,0:0:0:0:
262,139,167003,1,0,0:0:0:0:
262,139,167303,1,8,0:0:0:0:
262,139,167603,1,0,0:0:0:0:
262,139,168203,1,0,0:0:0:0:
262,139,168803,1,8,0:0:0:0:
279,88,169403,1,8,0:0:0:0:
279,88,170303,1,8,0:0:0:0:
255,96,170903,1,8,0:0:0:0:
255,96,171203,1,0,0:0:0:0:
255,96,171803,1,0,0:0:0:0:
255,96,172103,1,8,0:0:0:0:
255,96,172403,1,0,0:0:0:0:
255,96,173003,1,0,0:0:0:0:
255,96,173303,1,8,0:0:0:0:
255,96,173903,1,8,0:0:0:0:
255,96,174053,1,8,0:0:0:0:
255,96,174203,1,0,0:0:0:0:
255,96,174503,1,8,0:0:0:0:
255,96,175103,1,8,0:0:0:0:
255,96,175703,1,8,0:0:0:0:
255,96,176003,1,0,0:0:0:0:
255,96,176303,1,8,0:0:0:0:
255,96,176603,1,8,0:0:0:0:
255,96,176753,1,8,0:0:0:0:
255,96,177203,1,8,0:0:0:0:
255,96,177503,1,8,0:0:0:0:
255,96,177803,1,0,0:0:0:0:
255,96,178103,1,8,0:0:0:0:
255,96,178253,1,0,0:0:0:0:
255,96,178403,1,8,0:0:0:0:
255,96,179003,1,8,0:0:0:0:
255,96,179303,1,8,0:0:0:0:
255,96,179903,1,0,0:0:0:0:
255,96,180503,1,0,0:0:0:0:
255,96,180803,1,8,0:0:0:0:
255,96,181103,1,0,0:0:0:0:
255,96,181403,1,8,0:0:0:0:
255,96,181553,1,8,0:0:0:0:
255,96,182003,1,8,0:0:0:0:
255,96,182303,1,8,0:0:0:0:
