osu file format v14

[General]
AudioFilename: audio.mp3
AudioLeadIn: 0
PreviewTime: 115103
Countdown: 0
SampleSet: Normal
StackLeniency: 0.7
Mode: 1
LetterboxInBreaks: 0
WidescreenStoryboard: 0

[Editor]
Bookmarks: 203,9803,19403,29003,38603,48203,57803,67403,77003,86603,96203,105803,115403,125003,134603,144203,153803,163403
DistanceSpacing: 1.5
BeatDivisor: 4
GridSize: 32
TimelineZoom: 2.999999

[Metadata]
Title:cash machine go!
TitleUnicode:cash machine go!
Artist:Kola Kid
ArtistUnicode:Kola Kid
Creator:gaston_2199
Version:Inner Oni
Source:osu!
Tags:fa featured artist chiptune breakcore electronic instrumental 8bit 8-bit mpg mg mappers' guild
BeatmapID:2347722
BeatmapSetID:1123501

[Difficulty]
HPDrainRate:6
CircleSize:2
OverallDifficulty:7
ApproachRate:10
SliderMultiplier:1.4
SliderTickRate:1

[Events]
//Background and Video events
0,0,"BG.png",0,-120
//Break Periods
2,106003,110453
//Storyboard Layer 0 (Background)
//Storyboard Layer 1 (Fail)
//Storyboard Layer 2 (Pass)
//Storyboard Layer 3 (Foreground)
//Storyboard Layer 4 (Overlay)
//Storyboard Sound Samples

[TimingPoints]
203,300,4,1,0,70,1,0
203,-142.857142857143,4,1,0,70,0,0
9503,-133.333333333333,4,1,0,70,0,0
9803,-125,4,1,0,70,0,0
19103,-122.448979591837,4,1,0,70,0,0
19178,-119.047619047619,4,1,0,70,0,0
19253,-116.279069767442,4,1,0,70,0,0
19328,-113.636363636364,4,1,0,70,0,0
19403,-111.111111111111,4,1,0,70,0,0
38228,-108.695652173913,4,1,0,70,0,0
38303,-106.382978723404,4,1,0,70,0,0
38378,-104.166666666667,4,1,0,70,0,0
38453,-102.040816326531,4,1,0,70,0,0
38603,-100,4,1,0,80,0,0
58103,-104.477611940299,4,1,0,70,0,0
58403,-109.375,4,1,0,70,0,0
59003,-114.754098360656,4,1,0,70,0,0
59303,-120.689655172414,4,1,0,70,0,0
59603,-127.272727272727,4,1,0,70,0,0
59903,-134.615384615385,4,1,0,70,0,0
60203,-142.857142857143,4,1,0,70,0,0
66803,-138.461538461538,4,1,0,70,0,0
66878,-134.328358208955,4,1,0,70,0,0
66953,-130.434782608696,4,1,0,70,0,0
67028,-126.760563380282,4,1,0,70,0,0
67103,-123.287671232877,4,1,0,70,0,0
67178,-120,4,1,0,70,0,0
67253,-116.883116883117,4,1,0,70,0,0
67403,-111.111111111111,4,1,0,70,0,0
77003,-100,4,1,0,80,0,0
86603,-100,4,1,0,90,0,1
105803,-100,4,1,0,90,0,0
107003,-142.857142857143,4,1,0,70,0,0
115403,-125,4,1,0,70,0,0
124403,-120.689655172414,4,1,0,80,0,0
124553,-116.666666666667,4,1,0,80,0,0
124703,-112.903225806452,4,1,0,80,0,0
124778,-109.375,4,1,0,80,0,0
124853,-106.060606060606,4,1,0,80,0,0
124928,-102.941176470588,4,1,0,80,0,0
125003,-100,4,1,0,80,0,0
134303,-102.040816326531,4,1,0,80,0,0
134378,-104.166666666667,4,1,0,80,0,0
134453,-106.382978723404,4,1,0,80,0,0
134603,-111.111111111111,4,1,0,70,0,0
143903,-109.090909090909,4,1,0,70,0,0
143978,-107.142857142857,4,1,0,70,0,0
144053,-105.263157894737,4,1,0,70,0,0
144103,-103.448275862069,4,1,0,70,0,0
144153,-101.694915254237,4,1,0,70,0,0
144203,-100,4,1,0,90,0,1
161003,-99.3975903614458,4,1,0,90,0,1
161078,-98.8023952095808,4,1,0,90,0,1
161153,-98.2142857142857,4,1,0,90,0,1
161228,-97.6331360946746,4,1,0,90,0,1
161303,-97.0588235294118,4,1,0,90,0,1
161353,-96.4912280701754,4,1,0,90,0,1
161403,-95.9302325581395,4,1,0,90,0,1
161453,-95.3757225433526,4,1,0,90,0,1
161603,-94.8275862068966,4,1,0,90,0,1
161678,-94.2857142857143,4,1,0,90,0,1
161753,-93.75,4,1,0,90,0,1
161828,-93.2203389830509,4,1,0,90,0,1
161903,-92.6966292134831,4,1,0,90,0,1
161978,-92.1787709497207,4,1,0,90,0,1
162053,-91.6666666666667,4,1,0,90,0,1
162203,-91.1602209944751,4,1,0,90,0,1
162278,-90.6593406593407,4,1,0,90,0,1
162353,-90.1639344262295,4,1,0,90,0,1
162428,-89.6739130434783,4,1,0,90,0,1
162503,-89.1891891891892,4,1,0,90,0,1
162578,-88.7096774193548,4,1,0,90,0,1
162653,-88.2352941176471,4,1,0,90,0,1
162728,-87.7659574468085,4,1,0,90,0,1
162803,-87.3015873015873,4,1,0,90,0,1
162853,-86.8421052631579,4,1,0,90,0,1
162903,-86.3874345549738,4,1,0,90,0,1
162953,-85.9375,4,1,0,90,0,1
163003,-85.4922279792746,4,1,0,90,0,1
163053,-85.0515463917526,4,1,0,90,0,1
163103,-84.6153846153846,4,1,0,90,0,1
163178,-84.1836734693878,4,1,0,90,0,1
163253,-83.756345177665,4,1,0,90,0,1
163403,-83.3333333333333,4,1,0,90,0,0
164003,-95.2380952380952,4,1,0,70,0,0
164603,-111.111111111111,4,1,0,70,0,0
164903,-117.64705882353,4,1,0,70,0,0
165203,-125,4,1,0,70,0,0
165503,-133.333333333333,4,1,0,70,0,0
165803,-142.857142857143,4,1,0,70,0,0

[HitObjects]
256,192,203,5,0,0:0:0:0:
256,192,503,1,8,0:0:0:0:
256,192,803,1,8,0:0:0:0:
256,192,1403,1,8,0:0:0:0:
256,192,1703,1,8,0:0:0:0:
256,192,2003,1,0,0:0:0:0:
256,192,2303,1,8,0:0:0:0:
256,192,2603,1,0,0:0:0:0:
256,192,2903,1,8,0:0:0:0:
256,192,3203,1,8,0:0:0:0:
256,192,3803,1,8,0:0:0:0:
256,192,4103,1,8,0:0:0:0:
256,192,4403,1,0,0:0:0:0:
256,192,4703,1,8,0:0:0:0:
256,192,5003,1,0,0:0:0:0:
256,192,5303,1,0,0:0:0:0:
256,192,5603,1,8,0:0:0:0:
256,192,6203,1,8,0:0:0:0:
256,192,6503,1,8,0:0:0:0:
256,192,6803,1,0,0:0:0:0:
256,192,7103,1,8,0:0:0:0:
256,192,7403,1,0,0:0:0:0:
256,192,7703,1,0,0:0:0:0:
256,192,8003,1,8,0:0:0:0:
256,192,8603,1,8,0:0:0:0:
256,192,8903,1,8,0:0:0:0:
256,192,9203,1,0,0:0:0:0:
256,192,9503,1,8,0:0:0:0:
256,192,9803,1,8,0:0:0:0:
256,192,9953,1,0,0:0:0:0:
320,256,10103,1,8,0:0:0:0:
288,160,10553,1,0,0:0:0:0:
288,160,10703,1,8,0:0:0:0:
288,160,11003,1,0,0:0:0:0:
288,160,11153,1,0,0:0:0:0:
288,160,11303,1,8,0:0:0:0:
288,160,11528,1,8,0:0:0:0:
288,160,11753,1,0,0:0:0:0:
256,224,11903,1,8,0:0:0:0:
384,64,12203,1,8,0:0:0:0:
320,128,12353,1,0,0:0:0:0:
256,192,12503,1,8,0:0:0:0:
256,192,12953,1,0,0:0:0:0:
256,192,13103,1,8,0:0:0:0:
256,192,13403,1,0,0:0:0:0:
256,192,13553,1,0,0:0:0:0:
256,192,13703,1,8,0:0:0:0:
256,192,13928,1,8,0:0:0:0:
256,192,14153,1,0,0:0:0:0:
256,192,14303,1,8,0:0:0:0:
256,192,14603,1,0,0:0:0:0:
256,192,14753,1,0,0:0:0:0:
256,192,14903,1,8,0:0:0:0:
256,192,15353,1,0,0:0:0:0:
256,192,15503,1,8,0:0:0:0:
256,192,15803,1,0,0:0:0:0:
256,192,15953,1,0,0:0:0:0:
256,192,16103,1,8,0:0:0:0:
256,192,16328,1,8,0:0:0:0:
256,192,16553,1,0,0:0:0:0:
256,192,16703,1,8,0:0:0:0:
256,192,17003,1,0,0:0:0:0:
256,192,17153,1,0,0:0:0:0:
256,192,17303,1,8,0:0:0:0:
256,192,17753,1,0,0:0:0:0:
256,192,17903,1,8,0:0:0:0:
256,192,18203,1,0,0:0:0:0:
256,192,18353,1,0,0:0:0:0:
256,192,18503,1,8,0:0:0:0:
256,192,18728,1,8,0:0:0:0:
256,192,18953,1,0,0:0:0:0:
256,192,19103,1,8,0:0:0:0:
256,192,19178,1,8,0:0:0:0:
256,192,19253,1,8,0:0:0:0:
256,192,19328,1,8,0:0:0:0:
256,192,19403,1,0,0:0:0:0:
256,192,19553,1,0,0:0:0:0:
256,192,19703,1,8,0:0:0:0:
256,128,19778,1,8,0:0:0:0:
256,192,19853,1,0,0:0:0:0:
256,192,20153,1,0,0:0:0:0:
256,192,20303,1,8,0:0:0:0:
256,128,20378,1,8,0:0:0:0:
256,128,20453,1,0,0:0:0:0:
256,128,20603,1,8,0:0:0:0:
256,160,20753,1,0,0:0:0:0:
256,160,20903,1,8,0:0:0:0:
256,160,21053,1,0,0:0:0:0:
256,160,21128,1,8,0:0:0:0:
256,160,21353,1,0,0:0:0:0:
256,160,21503,1,8,0:0:0:0:
256,128,21578,1,8,0:0:0:0:
256,160,21653,1,8,0:0:0:0:
256,64,21803,1,0,0:0:0:0:
256,160,21953,1,0,0:0:0:0:
256,64,22103,1,8,0:0:0:0:
192,32,22178,1,8,0:0:0:0:
256,96,22253,1,0,0:0:0:0:
256,64,22403,1,8,0:0:0:0:
256,96,22553,1,0,0:0:0:0:
256,96,22703,1,8,0:0:0:0:
256,96,23003,1,8,0:0:0:0:
256,96,23153,1,0,0:0:0:0:
256,96,23228,1,0,0:0:0:0:
256,96,23303,1,8,0:0:0:0:
256,96,23453,1,0,0:0:0:0:
256,96,23528,1,8,0:0:0:0:
256,96,23753,1,8,0:0:0:0:
256,96,23828,1,0,0:0:0:0:
256,96,23903,1,8,0:0:0:0:
256,96,23978,1,8,0:0:0:0:
256,96,24053,1,8,0:0:0:0:
256,192,24203,1,0,0:0:0:0:
256,192,24353,1,0,0:0:0:0:
256,192,24503,1,8,0:0:0:0:
256,128,24578,1,8,0:0:0:0:
256,192,24653,1,0,0:0:0:0:
256,192,24953,1,0,0:0:0:0:
256,192,25103,1,8,0:0:0:0:
256,128,25178,1,8,0:0:0:0:
256,128,25253,1,0,0:0:0:0:
256,128,25403,1,8,0:0:0:0:
256,160,25553,1,0,0:0:0:0:
256,160,25703,1,8,0:0:0:0:
256,160,25853,1,0,0:0:0:0:
256,160,25928,1,8,0:0:0:0:
256,160,26153,1,0,0:0:0:0:
256,160,26303,1,8,0:0:0:0:
256,128,26378,1,8,0:0:0:0:
256,160,26453,1,8,0:0:0:0:
256,64,26603,1,0,0:0:0:0:
256,160,26753,1,0,0:0:0:0:
256,64,26903,1,8,0:0:0:0:
192,32,26978,1,8,0:0:0:0:
256,96,27053,1,0,0:0:0:0:
256,128,27203,1,8,0:0:0:0:
256,96,27353,1,0,0:0:0:0:
256,96,27503,1,8,0:0:0:0:
256,96,27803,1,8,0:0:0:0:
256,96,27953,1,0,0:0:0:0:
256,96,28028,1,0,0:0:0:0:
256,96,28103,1,8,0:0:0:0:
256,96,28253,1,0,0:0:0:0:
256,96,28328,1,8,0:0:0:0:
225,77,28478,1,0,0:0:0:0:
256,96,28553,1,8,0:0:0:0:
256,96,28628,1,0,0:0:0:0:
256,96,28703,1,8,0:0:0:0:
256,96,28778,1,8,0:0:0:0:
256,96,28853,1,8,0:0:0:0:
256,192,29003,1,0,0:0:0:0:
256,192,29153,1,0,0:0:0:0:
256,192,29303,1,8,0:0:0:0:
256,128,29378,1,8,0:0:0:0:
256,192,29453,1,0,0:0:0:0:
256,192,29753,1,0,0:0:0:0:
256,192,29903,1,8,0:0:0:0:
256,128,29978,1,8,0:0:0:0:
256,128,30053,1,0,0:0:0:0:
256,128,30203,1,8,0:0:0:0:
256,160,30353,1,0,0:0:0:0:
256,160,30503,1,8,0:0:0:0:
256,160,30653,1,0,0:0:0:0:
256,160,30728,1,8,0:0:0:0:
256,160,30878,1,0,0:0:0:0:
256,160,30953,1,0,0:0:0:0:
256,160,31103,1,8,0:0:0:0:
256,128,31178,1,8,0:0:0:0:
256,160,31253,1,8,0:0:0:0:
256,64,31403,1,0,0:0:0:0:
256,160,31553,1,0,0:0:0:0:
256,64,31703,1,8,0:0:0:0:
192,32,31778,1,8,0:0:0:0:
256,96,31853,1,0,0:0:0:0:
256,64,32003,1,8,0:0:0:0:
256,96,32153,1,0,0:0:0:0:
256,96,32303,1,8,0:0:0:0:
256,96,32603,1,8,0:0:0:0:
256,96,32753,1,0,0:0:0:0:
256,96,32828,1,0,0:0:0:0:
256,96,32903,1,8,0:0:0:0:
256,96,33053,1,0,0:0:0:0:
256,96,33128,1,8,0:0:0:0:
256,96,33278,1,0,0:0:0:0:
256,96,33353,1,8,0:0:0:0:
256,96,33428,1,0,0:0:0:0:
256,96,33503,1,8,0:0:0:0:
256,96,33578,1,8,0:0:0:0:
256,96,33653,1,8,0:0:0:0:
256,192,33803,1,0,0:0:0:0:
256,192,33953,1,0,0:0:0:0:
256,192,34103,1,8,0:0:0:0:
256,128,34178,1,8,0:0:0:0:
256,192,34253,1,0,0:0:0:0:
256,192,34553,1,0,0:0:0:0:
256,192,34703,1,8,0:0:0:0:
256,128,34778,1,8,0:0:0:0:
256,128,34853,1,0,0:0:0:0:
256,128,35003,1,8,0:0:0:0:
256,160,35153,1,0,0:0:0:0:
256,160,35303,1,8,0:0:0:0:
256,160,35453,1,0,0:0:0:0:
256,160,35528,1,8,0:0:0:0:
256,160,35678,1,0,0:0:0:0:
256,160,35753,1,0,0:0:0:0:
256,160,35903,1,8,0:0:0:0:
256,128,35978,1,8,0:0:0:0:
256,160,36053,1,8,0:0:0:0:
256,64,36203,1,0,0:0:0:0:
256,160,36353,1,0,0:0:0:0:
256,64,36503,1,8,0:0:0:0:
192,32,36578,1,8,0:0:0:0:
256,96,36653,1,0,0:0:0:0:
256,128,36803,1,8,0:0:0:0:
256,96,36953,1,0,0:0:0:0:
256,96,37103,1,8,0:0:0:0:
256,96,37403,1,8,0:0:0:0:
256,96,37553,1,0,0:0:0:0:
256,96,37628,1,0,0:0:0:0:
256,96,37703,1,8,0:0:0:0:
256,96,37853,1,0,0:0:0:0:
256,96,37928,1,8,0:0:0:0:
256,96,38078,1,0,0:0:0:0:
256,96,38153,1,8,0:0:0:0:
256,96,38228,1,0,0:0:0:0:
256,96,38303,1,8,0:0:0:0:
256,96,38378,1,8,0:0:0:0:
256,96,38453,1,8,0:0:0:0:
256,192,38603,1,0,0:0:0:0:
256,192,38753,1,0,0:0:0:0:
256,192,38903,1,8,0:0:0:0:
256,128,38978,1,8,0:0:0:0:
256,192,39053,1,0,0:0:0:0:
320,96,39203,1,8,0:0:0:0:
256,192,39353,1,0,0:0:0:0:
256,192,39503,1,8,0:0:0:0:
320,96,39578,1,0,0:0:0:0:
320,96,39653,1,8,0:0:0:0:
256,128,39803,1,8,0:0:0:0:
256,160,39953,1,0,0:0:0:0:
320,96,40028,1,0,0:0:0:0:
256,160,40103,1,8,0:0:0:0:
256,160,40253,1,0,0:0:0:0:
256,160,40328,1,8,0:0:0:0:
256,160,40478,1,0,0:0:0:0:
256,160,40553,1,0,0:0:0:0:
256,160,40703,1,8,0:0:0:0:
256,64,41003,1,0,0:0:0:0:
256,160,41153,1,0,0:0:0:0:
256,64,41303,1,8,0:0:0:0:
192,32,41378,1,8,0:0:0:0:
256,96,41453,1,0,0:0:0:0:
288,128,41528,1,0,0:0:0:0:
256,64,41603,1,8,0:0:0:0:
320,128,41753,1,0,0:0:0:0:
256,96,41903,1,8,0:0:0:0:
320,128,41978,1,8,0:0:0:0:
320,128,42053,1,0,0:0:0:0:
256,96,42203,1,8,0:0:0:0:
256,96,42278,1,0,0:0:0:0:
256,96,42353,1,8,0:0:0:0:
256,96,42503,1,0,0:0:0:0:
256,96,42653,1,8,0:0:0:0:
256,96,42728,1,0,0:0:0:0:
320,128,42803,1,8,0:0:0:0:
256,96,42878,1,8,0:0:0:0:
256,96,42953,1,0,0:0:0:0:
256,96,43028,1,0,0:0:0:0:
256,96,43103,1,8,0:0:0:0:
256,96,43253,1,8,0:0:0:0:
256,192,43403,1,0,0:0:0:0:
256,192,43553,1,0,0:0:0:0:
256,192,43703,1,8,0:0:0:0:
256,128,43778,1,0,0:0:0:0:
256,192,43853,1,8,0:0:0:0:
256,96,44003,1,8,0:0:0:0:
256,96,44153,1,0,0:0:0:0:
256,192,44303,1,8,0:0:0:0:
256,128,44378,1,8,0:0:0:0:
256,128,44453,1,0,0:0:0:0:
256,96,44603,1,8,0:0:0:0:
256,160,44753,1,0,0:0:0:0:
256,96,44828,1,0,0:0:0:0:
256,160,44903,1,8,0:0:0:0:
256,160,45053,1,0,0:0:0:0:
256,160,45128,1,8,0:0:0:0:
256,160,45278,1,0,0:0:0:0:
256,160,45353,1,0,0:0:0:0:
256,160,45503,1,8,0:0:0:0:
256,64,45803,1,0,0:0:0:0:
256,160,45953,1,0,0:0:0:0:
256,64,46103,1,8,0:0:0:0:
192,32,46178,1,8,0:0:0:0:
256,96,46253,1,0,0:0:0:0:
256,128,46328,1,0,0:0:0:0:
256,128,46403,1,8,0:0:0:0:
256,96,46553,1,0,0:0:0:0:
256,96,46703,1,8,0:0:0:0:
256,96,46778,1,8,0:0:0:0:
256,96,46853,1,0,0:0:0:0:
256,96,47003,1,8,0:0:0:0:
256,96,47078,1,0,0:0:0:0:
256,96,47153,1,8,0:0:0:0:
256,96,47303,1,0,0:0:0:0:
256,96,47453,1,8,0:0:0:0:
256,96,47528,1,0,0:0:0:0:
256,96,47603,1,8,0:0:0:0:
256,96,47678,1,8,0:0:0:0:
256,96,47753,1,0,0:0:0:0:
256,96,47828,1,0,0:0:0:0:
256,96,47903,1,8,0:0:0:0:
256,96,48053,1,8,0:0:0:0:
256,192,48203,1,0,0:0:0:0:
256,192,48353,1,0,0:0:0:0:
288,160,48428,1,0,0:0:0:0:
256,192,48503,1,8,0:0:0:0:
256,128,48578,1,8,0:0:0:0:
256,192,48653,1,0,0:0:0:0:
320,96,48803,1,8,0:0:0:0:
256,192,48953,1,0,0:0:0:0:
256,192,49103,1,8,0:0:0:0:
320,96,49178,1,0,0:0:0:0:
320,96,49253,1,8,0:0:0:0:
256,128,49403,1,8,0:0:0:0:
256,160,49553,1,0,0:0:0:0:
320,96,49628,1,0,0:0:0:0:
256,160,49703,1,8,0:0:0:0:
256,160,49853,1,0,0:0:0:0:
256,160,49928,1,8,0:0:0:0:
256,160,50078,1,0,0:0:0:0:
256,160,50153,1,0,0:0:0:0:
256,160,50303,1,8,0:0:0:0:
256,64,50603,1,0,0:0:0:0:
256,160,50753,1,0,0:0:0:0:
256,64,50903,1,8,0:0:0:0:
192,32,50978,1,8,0:0:0:0:
256,96,51053,1,0,0:0:0:0:
288,128,51128,1,0,0:0:0:0:
256,64,51203,1,8,0:0:0:0:
320,128,51353,1,0,0:0:0:0:
256,96,51503,1,8,0:0:0:0:
320,128,51578,1,8,0:0:0:0:
320,128,51653,1,0,0:0:0:0:
256,96,51803,1,8,0:0:0:0:
256,96,51878,1,0,0:0:0:0:
256,96,51953,1,8,0:0:0:0:
256,96,52103,1,0,0:0:0:0:
256,96,52253,1,8,0:0:0:0:
256,96,52328,1,0,0:0:0:0:
320,128,52403,1,8,0:0:0:0:
256,96,52478,1,8,0:0:0:0:
256,96,52553,1,0,0:0:0:0:
256,96,52628,1,0,0:0:0:0:
256,96,52703,1,8,0:0:0:0:
256,96,52853,1,8,0:0:0:0:
256,192,53003,1,0,0:0:0:0:
256,192,53153,1,0,0:0:0:0:
256,96,53228,1,0,0:0:0:0:
256,192,53303,1,8,0:0:0:0:
256,128,53378,1,0,0:0:0:0:
256,192,53453,1,8,0:0:0:0:
256,96,53603,1,8,0:0:0:0:
256,96,53753,1,0,0:0:0:0:
256,96,53828,1,0,0:0:0:0:
256,192,53903,1,8,0:0:0:0:
256,128,53978,1,8,0:0:0:0:
256,128,54053,1,0,0:0:0:0:
256,96,54203,1,8,0:0:0:0:
256,160,54353,1,0,0:0:0:0:
256,96,54428,1,0,0:0:0:0:
256,160,54503,1,8,0:0:0:0:
256,160,54653,1,0,0:0:0:0:
256,160,54728,1,8,0:0:0:0:
256,160,54878,1,0,0:0:0:0:
256,160,54953,1,0,0:0:0:0:
256,160,55103,1,8,0:0:0:0:
256,64,55403,1,0,0:0:0:0:
256,160,55553,1,0,0:0:0:0:
256,64,55703,1,8,0:0:0:0:
192,32,55778,1,8,0:0:0:0:
256,96,55853,1,0,0:0:0:0:
256,128,55928,1,0,0:0:0:0:
256,128,56003,1,8,0:0:0:0:
256,96,56153,1,0,0:0:0:0:
256,96,56303,1,8,0:0:0:0:
256,96,56378,1,8,0:0:0:0:
256,96,56453,1,0,0:0:0:0:
256,96,56603,1,8,0:0:0:0:
256,96,56678,1,0,0:0:0:0:
256,96,56753,1,8,0:0:0:0:
256,96,56903,1,0,0:0:0:0:
256,96,57053,1,8,0:0:0:0:
256,96,57128,1,0,0:0:0:0:
256,96,57203,1,8,0:0:0:0:
256,96,57278,1,8,0:0:0:0:
256,96,57353,1,0,0:0:0:0:
256,96,57428,1,0,0:0:0:0:
256,96,57503,1,8,0:0:0:0:
256,96,57578,1,0,0:0:0:0:
256,96,57653,1,8,0:0:0:0:
256,192,57803,5,4,0:0:0:0:
256,192,58103,1,8,0:0:0:0:
256,192,58403,1,8,0:0:0:0:
256,192,59003,1,8,0:0:0:0:
256,192,59303,1,8,0:0:0:0:
256,192,59603,1,0,0:0:0:0:
256,192,59903,1,8,0:0:0:0:
256,192,60203,1,0,0:0:0:0:
256,192,60503,1,8,0:0:0:0:
256,192,60803,1,8,0:0:0:0:
256,192,61403,1,8,0:0:0:0:
256,192,61703,1,8,0:0:0:0:
256,192,62003,1,0,0:0:0:0:
256,192,62303,1,8,0:0:0:0:
256,192,62603,1,0,0:0:0:0:
256,192,62903,1,0,0:0:0:0:
256,192,63203,1,8,0:0:0:0:
256,192,63803,1,8,0:0:0:0:
256,192,64103,1,8,0:0:0:0:
256,192,64403,1,0,0:0:0:0:
256,192,64703,1,8,0:0:0:0:
256,192,65003,1,0,0:0:0:0:
256,192,65303,1,0,0:0:0:0:
256,192,65603,1,8,0:0:0:0:
256,192,66203,1,8,0:0:0:0:
256,192,66503,1,8,0:0:0:0:
256,192,66803,1,0,0:0:0:0:
256,160,66878,1,0,0:0:0:0:
288,128,66953,1,8,0:0:0:0:
288,128,67028,1,0,0:0:0:0:
256,192,67103,1,8,0:0:0:0:
288,128,67178,1,8,0:0:0:0:
288,128,67253,1,8,0:0:0:0:
288,128,67403,1,8,0:0:0:0:
288,128,67478,1,8,0:0:0:0:
288,128,67703,1,8,0:0:0:0:
288,64,67778,1,8,0:0:0:0:
288,64,67853,1,0,0:0:0:0:
288,64,68153,1,8,0:0:0:0:
288,64,68303,1,8,0:0:0:0:
288,64,68378,1,8,0:0:0:0:
288,64,68453,1,0,0:0:0:0:
288,64,68603,1,0,0:0:0:0:
288,64,68753,1,8,0:0:0:0:
288,64,68828,1,8,0:0:0:0:
288,64,68903,1,8,0:0:0:0:
288,64,69128,1,8,0:0:0:0:
288,64,69203,1,8,0:0:0:0:
224,64,69353,1,0,0:0:0:0:
320,64,69503,1,8,0:0:0:0:
96,64,69803,1,8,0:0:0:0:
160,64,69878,1,8,0:0:0:0:
192,64,69953,1,0,0:0:0:0:
224,64,70028,1,8,0:0:0:0:
256,64,70103,1,8,0:0:0:0:
256,64,70253,1,8,0:0:0:0:
256,64,70403,1,8,0:0:0:0:
256,64,70453,1,8,0:0:0:0:
256,64,70503,1,8,0:0:0:0:
256,64,70553,1,0,0:0:0:0:
320,160,70703,1,8,0:0:0:0:
288,128,70778,1,0,0:0:0:0:
256,64,70853,1,8,0:0:0:0:
288,128,71003,1,0,0:0:0:0:
288,96,71053,1,0,0:0:0:0:
288,96,71103,1,0,0:0:0:0:
256,32,71153,1,8,0:0:0:0:
288,96,71228,1,8,0:0:0:0:
288,96,71303,1,8,0:0:0:0:
288,96,71528,1,8,0:0:0:0:
288,96,71603,1,8,0:0:0:0:
288,64,71678,1,0,0:0:0:0:
256,32,71753,1,8,0:0:0:0:
256,32,71903,1,8,0:0:0:0:
256,64,72053,1,8,0:0:0:0:
256,64,72103,1,8,0:0:0:0:
256,64,72153,1,8,0:0:0:0:
256,64,72203,1,0,0:0:0:0:
256,32,72353,1,8,0:0:0:0:
256,32,72503,1,8,0:0:0:0:
256,32,72578,1,0,0:0:0:0:
256,32,72653,1,8,0:0:0:0:
256,32,72953,1,8,0:0:0:0:
256,32,73103,1,8,0:0:0:0:
256,32,73178,1,8,0:0:0:0:
256,32,73253,1,8,0:0:0:0:
256,32,73403,1,8,0:0:0:0:
256,32,73478,1,8,0:0:0:0:
256,32,73553,1,0,0:0:0:0:
256,32,73628,1,8,0:0:0:0:
256,32,73703,1,8,0:0:0:0:
256,32,73928,1,8,0:0:0:0:
256,32,74003,1,8,0:0:0:0:
256,32,74153,1,8,0:0:0:0:
256,32,74303,1,8,0:0:0:0:
256,32,74378,1,8,0:0:0:0:
256,32,74453,1,0,0:0:0:0:
256,32,74603,1,8,0:0:0:0:
256,32,74678,1,8,0:0:0:0:
256,32,74828,1,0,0:0:0:0:
256,32,74903,1,8,0:0:0:0:
256,32,74978,1,8,0:0:0:0:
224,32,75015,1,8,0:0:0:0:
256,32,75053,1,8,0:0:0:0:
288,224,75353,1,8,0:0:0:0:
288,192,75428,1,8,0:0:0:0:
288,192,75503,1,8,0:0:0:0:
288,192,75653,1,0,0:0:0:0:
288,192,75803,1,8,0:0:0:0:
288,192,75953,1,8,0:0:0:0:
288,192,76028,1,8,0:0:0:0:
288,192,76103,1,8,0:0:0:0:
288,192,76178,1,0,0:0:0:0:
288,192,76253,1,8,0:0:0:0:
288,192,76328,1,0,0:0:0:0:
288,192,76403,1,8,0:0:0:0:
288,192,76478,1,8,0:0:0:0:
288,192,76553,1,0,0:0:0:0:
288,192,76603,1,0,0:0:0:0:
256,160,76653,1,0,0:0:0:0:
288,192,76703,1,8,0:0:0:0:
389,217,77003,1,0,0:0:0:0:
380,175,77078,1,0,0:0:0:0:
389,217,77153,1,8,0:0:0:0:
389,217,77303,1,8,0:0:0:0:
389,217,77378,1,8,0:0:0:0:
389,217,77453,1,0,0:0:0:0:
389,217,77603,1,0,0:0:0:0:
389,217,77678,1,8,0:0:0:0:
389,217,77753,1,0,0:0:0:0:
389,217,77903,1,8,0:0:0:0:
389,217,77978,1,0,0:0:0:0:
389,217,78053,1,0,0:0:0:0:
389,217,78203,1,0,0:0:0:0:
389,185,78278,1,0,0:0:0:0:
357,153,78353,1,8,0:0:0:0:
357,153,78503,1,8,0:0:0:0:
357,153,78578,1,8,0:0:0:0:
357,153,78653,1,0,0:0:0:0:
357,153,78728,1,8,0:0:0:0:
357,153,78803,1,0,0:0:0:0:
357,153,78953,1,0,0:0:0:0:
389,121,79103,1,8,0:0:0:0:
361,117,79178,1,8,0:0:0:0:
389,121,79253,1,0,0:0:0:0:
389,121,79403,1,8,0:0:0:0:
389,121,79478,1,0,0:0:0:0:
389,121,79553,1,8,0:0:0:0:
389,121,79628,1,0,0:0:0:0:
389,121,79703,1,8,0:0:0:0:
335,201,79853,1,0,0:0:0:0:
335,201,80003,1,0,0:0:0:0:
361,117,80078,1,0,0:0:0:0:
335,201,80153,1,8,0:0:0:0:
335,201,80303,1,8,0:0:0:0:
335,201,80378,1,0,0:0:0:0:
335,201,80453,1,8,0:0:0:0:
335,201,80603,1,0,0:0:0:0:
370,183,80678,1,0,0:0:0:0:
335,201,80753,1,8,0:0:0:0:
335,201,80903,1,8,0:0:0:0:
335,201,80978,1,8,0:0:0:0:
335,187,81053,1,0,0:0:0:0:
300,102,81128,1,8,0:0:0:0:
370,183,81203,1,8,0:0:0:0:
335,201,81353,1,0,0:0:0:0:
335,201,81503,1,8,0:0:0:0:
335,201,81578,1,0,0:0:0:0:
335,201,81653,1,8,0:0:0:0:
335,201,81803,1,0,0:0:0:0:
376,197,81878,1,0,0:0:0:0:
335,201,81953,1,8,0:0:0:0:
376,197,82103,1,8,0:0:0:0:
376,197,82178,1,8,0:0:0:0:
376,197,82253,1,0,0:0:0:0:
376,197,82403,1,0,0:0:0:0:
376,197,82478,1,8,0:0:0:0:
376,197,82553,1,0,0:0:0:0:
376,197,82703,1,8,0:0:0:0:
376,197,82778,1,0,0:0:0:0:
376,197,82853,1,0,0:0:0:0:
376,197,83003,1,0,0:0:0:0:
352,125,83078,1,0,0:0:0:0:
352,125,83153,1,8,0:0:0:0:
352,125,83303,1,8,0:0:0:0:
352,125,83378,1,8,0:0:0:0:
352,125,83453,1,0,0:0:0:0:
352,125,83528,1,8,0:0:0:0:
352,125,83603,1,0,0:0:0:0:
352,125,83753,1,0,0:0:0:0:
352,125,83903,1,8,0:0:0:0:
352,125,83978,1,8,0:0:0:0:
352,125,84053,1,0,0:0:0:0:
337,28,84203,1,8,0:0:0:0:
348,101,84278,1,0,0:0:0:0:
348,101,84353,1,8,0:0:0:0:
348,101,84428,1,0,0:0:0:0:
348,101,84503,1,8,0:0:0:0:
348,101,84653,1,0,0:0:0:0:
348,101,84803,1,0,0:0:0:0:
348,101,84878,1,0,0:0:0:0:
348,101,84953,1,8,0:0:0:0:
348,101,85103,1,8,0:0:0:0:
348,101,85178,1,0,0:0:0:0:
348,101,85253,1,8,0:0:0:0:
348,101,85403,1,0,0:0:0:0:
348,101,85478,1,0,0:0:0:0:
348,101,85553,1,8,0:0:0:0:
348,101,85703,1,8,0:0:0:0:
348,101,85778,1,8,0:0:0:0:
348,101,85853,1,0,0:0:0:0:
348,101,85928,1,8,0:0:0:0:
348,101,86003,1,8,0:0:0:0:
348,101,86153,1,0,0:0:0:0:
348,101,86303,1,8,0:0:0:0:
348,101,86378,1,0,0:0:0:0:
348,101,86453,1,8,0:0:0:0:
389,217,86603,1,8,0:0:0:0:
380,175,86678,1,8,0:0:0:0:
389,217,86753,1,0,0:0:0:0:
375,195,86828,1,0,0:0:0:0:
389,217,86903,1,8,0:0:0:0:
389,217,87053,1,0,0:0:0:0:
389,217,87203,1,0,0:0:0:0:
389,217,87278,1,0,0:0:0:0:
389,217,87353,1,8,0:0:0:0:
389,217,87503,1,8,0:0:0:0:
389,217,87578,1,0,0:0:0:0:
389,217,87653,1,8,0:0:0:0:
365,189,87728,1,0,0:0:0:0:
389,217,87803,1,0,0:0:0:0:
357,153,87953,1,8,0:0:0:0:
389,185,88028,1,0,0:0:0:0:
357,153,88103,1,8,0:0:0:0:
357,153,88178,1,0,0:0:0:0:
357,153,88253,1,0,0:0:0:0:
357,153,88328,1,8,0:0:0:0:
357,153,88403,1,8,0:0:0:0:
357,153,88553,1,8,0:0:0:0:
389,121,88703,1,8,0:0:0:0:
357,153,88778,1,8,0:0:0:0:
389,121,88853,1,0,0:0:0:0:
389,121,89003,1,8,0:0:0:0:
389,121,89078,1,8,0:0:0:0:
389,121,89153,1,8,0:0:0:0:
389,121,89228,1,0,0:0:0:0:
389,121,89303,1,8,0:0:0:0:
335,201,89453,1,8,0:0:0:0:
335,201,89603,1,0,0:0:0:0:
357,153,89653,1,0,0:0:0:0:
361,117,89703,1,0,0:0:0:0:
335,201,89753,1,0,0:0:0:0:
361,117,89828,1,0,0:0:0:0:
335,201,89903,1,8,0:0:0:0:
335,201,89978,1,0,0:0:0:0:
335,201,90053,1,8,0:0:0:0:
335,201,90203,1,0,0:0:0:0:
335,201,90353,1,8,0:0:0:0:
357,153,90428,1,8,0:0:0:0:
335,201,90503,1,0,0:0:0:0:
331,134,90578,1,8,0:0:0:0:
300,102,90728,1,8,0:0:0:0:
370,183,90803,1,0,0:0:0:0:
300,102,90878,1,8,0:0:0:0:
335,201,90953,1,0,0:0:0:0:
351,167,91028,1,0,0:0:0:0:
335,201,91103,1,8,0:0:0:0:
335,201,91253,1,8,0:0:0:0:
316,179,91303,1,8,0:0:0:0:
316,179,91353,1,8,0:0:0:0:
335,201,91403,1,0,0:0:0:0:
335,201,91553,1,8,0:0:0:0:
376,197,91703,1,8,0:0:0:0:
376,197,91778,1,0,0:0:0:0:
376,197,91853,1,8,0:0:0:0:
346,155,91928,1,8,0:0:0:0:
376,197,92003,1,0,0:0:0:0:
376,197,92153,1,8,0:0:0:0:
376,197,92303,1,8,0:0:0:0:
376,197,92378,1,8,0:0:0:0:
376,197,92453,1,8,0:0:0:0:
376,197,92603,1,8,0:0:0:0:
348,163,92678,1,8,0:0:0:0:
352,125,92753,1,8,0:0:0:0:
320,110,92828,1,0,0:0:0:0:
352,125,92903,1,8,0:0:0:0:
352,125,93053,1,0,0:0:0:0:
352,125,93128,1,8,0:0:0:0:
352,125,93203,1,0,0:0:0:0:
352,125,93353,1,8,0:0:0:0:
352,125,93503,1,8,0:0:0:0:
352,125,93578,1,8,0:0:0:0:
352,125,93653,1,0,0:0:0:0:
337,28,93803,1,8,0:0:0:0:
348,101,93878,1,0,0:0:0:0:
298,75,93953,1,8,0:0:0:0:
348,101,94028,1,8,0:0:0:0:
348,101,94103,1,0,0:0:0:0:
382,103,94153,1,0,0:0:0:0:
409,105,94203,1,0,0:0:0:0:
348,101,94253,1,8,0:0:0:0:
348,101,94403,1,0,0:0:0:0:
348,101,94478,1,0,0:0:0:0:
348,101,94553,1,8,0:0:0:0:
382,97,94628,1,0,0:0:0:0:
348,101,94703,1,8,0:0:0:0:
348,101,94853,1,8,0:0:0:0:
313,67,95003,1,8,0:0:0:0:
348,101,95078,1,0,0:0:0:0:
313,67,95153,1,0,0:0:0:0:
313,67,95228,1,8,0:0:0:0:
348,101,95303,1,8,0:0:0:0:
348,101,95378,1,0,0:0:0:0:
348,101,95453,1,8,0:0:0:0:
348,101,95603,1,8,0:0:0:0:
314,60,95678,1,8,0:0:0:0:
348,101,95753,1,0,0:0:0:0:
343,74,95803,1,0,0:0:0:0:
314,60,95853,1,0,0:0:0:0:
348,101,95903,1,8,0:0:0:0:
348,101,95978,1,0,0:0:0:0:
348,101,96053,1,8,0:0:0:0:
389,217,96203,1,8,0:0:0:0:
380,175,96278,1,8,0:0:0:0:
389,217,96353,1,0,0:0:0:0:
375,195,96428,1,0,0:0:0:0:
389,217,96503,1,8,0:0:0:0:
389,217,96653,1,0,0:0:0:0:
389,217,96803,1,0,0:0:0:0:
389,217,96878,1,0,0:0:0:0:
389,217,96953,1,8,0:0:0:0:
389,217,97103,1,8,0:0:0:0:
389,217,97178,1,0,0:0:0:0:
389,217,97253,1,8,0:0:0:0:
365,189,97328,1,0,0:0:0:0:
389,217,97403,1,8,0:0:0:0:
357,153,97553,1,8,0:0:0:0:
389,185,97628,1,0,0:0:0:0:
357,153,97703,1,8,0:0:0:0:
357,153,97778,1,0,0:0:0:0:
357,153,97853,1,0,0:0:0:0:
357,153,97928,1,8,0:0:0:0:
357,153,98003,1,8,0:0:0:0:
357,153,98153,1,8,0:0:0:0:
389,121,98303,1,8,0:0:0:0:
357,153,98378,1,8,0:0:0:0:
389,121,98453,1,0,0:0:0:0:
389,121,98603,1,8,0:0:0:0:
389,121,98678,1,8,0:0:0:0:
389,121,98753,1,8,0:0:0:0:
389,121,98828,1,0,0:0:0:0:
389,121,98903,1,8,0:0:0:0:
335,201,99053,1,8,0:0:0:0:
335,201,99203,1,0,0:0:0:0:
357,153,99253,1,0,0:0:0:0:
361,117,99303,1,0,0:0:0:0:
335,201,99353,1,0,0:0:0:0:
361,117,99428,1,0,0:0:0:0:
335,201,99503,1,8,0:0:0:0:
335,201,99578,1,0,0:0:0:0:
335,201,99653,1,8,0:0:0:0:
335,201,99803,1,0,0:0:0:0:
335,201,99953,1,8,0:0:0:0:
357,153,100028,1,8,0:0:0:0:
335,201,100103,1,0,0:0:0:0:
331,134,100178,1,8,0:0:0:0:
300,102,100328,1,8,0:0:0:0:
370,183,100403,1,0,0:0:0:0:
300,102,100478,1,8,0:0:0:0:
335,201,100553,1,0,0:0:0:0:
351,167,100628,1,0,0:0:0:0:
335,201,100703,1,8,0:0:0:0:
335,201,100853,1,8,0:0:0:0:
316,179,100903,1,8,0:0:0:0:
316,179,100953,1,8,0:0:0:0:
335,201,101003,1,0,0:0:0:0:
335,201,101153,1,8,0:0:0:0:
376,197,101303,1,8,0:0:0:0:
376,197,101378,1,0,0:0:0:0:
376,197,101453,1,8,0:0:0:0:
346,155,101528,1,8,0:0:0:0:
376,197,101603,1,0,0:0:0:0:
340,163,101678,1,0,0:0:0:0:
376,197,101753,1,8,0:0:0:0:
376,197,101903,1,8,0:0:0:0:
376,197,101978,1,8,0:0:0:0:
376,197,102053,1,8,0:0:0:0:
376,197,102203,1,8,0:0:0:0:
348,163,102278,1,8,0:0:0:0:
352,125,102353,1,8,0:0:0:0:
320,110,102428,1,0,0:0:0:0:
352,125,102503,1,8,0:0:0:0:
352,125,102578,1,8,0:0:0:0:
352,125,102653,1,0,0:0:0:0:
352,125,102728,1,8,0:0:0:0:
352,125,102803,1,0,0:0:0:0:
352,125,102953,1,8,0:0:0:0:
352,125,103103,1,8,0:0:0:0:
352,125,103178,1,8,0:0:0:0:
352,125,103253,1,0,0:0:0:0:
337,28,103403,1,8,0:0:0:0:
348,101,103478,1,0,0:0:0:0:
298,75,103553,1,8,0:0:0:0:
348,101,103628,1,8,0:0:0:0:
348,101,103703,1,0,0:0:0:0:
382,103,103753,1,0,0:0:0:0:
409,105,103803,1,0,0:0:0:0:
348,101,103853,1,8,0:0:0:0:
348,101,104003,1,0,0:0:0:0:
348,101,104078,1,0,0:0:0:0:
348,101,104153,1,8,0:0:0:0:
382,97,104228,1,0,0:0:0:0:
348,101,104303,1,8,0:0:0:0:
320,60,104378,1,0,0:0:0:0:
348,101,104453,1,8,0:0:0:0:
313,67,104603,1,8,0:0:0:0:
348,101,104678,1,0,0:0:0:0:
313,67,104753,1,0,0:0:0:0:
313,67,104828,1,8,0:0:0:0:
348,101,104903,1,8,0:0:0:0:
348,101,104978,1,0,0:0:0:0:
348,101,105053,1,8,0:0:0:0:
348,101,105203,1,8,0:0:0:0:
314,60,105278,1,8,0:0:0:0:
348,101,105353,1,0,0:0:0:0:
343,74,105403,1,0,0:0:0:0:
314,60,105453,1,0,0:0:0:0:
348,101,105503,1,8,0:0:0:0:
348,101,105578,1,0,0:0:0:0:
348,101,105653,1,8,0:0:0:0:
262,139,105803,1,0,0:0:0:0:
389,121,110903,5,8,0:0:0:0:
389,121,111503,1,8,0:0:0:0:
389,121,112103,1,8,0:0:0:0:
389,121,112703,1,8,0:0:0:0:
389,121,113003,1,8,0:0:0:0:
389,121,113303,1,8,0:0:0:0:
389,121,113453,1,8,0:0:0:0:
389,121,113603,1,8,0:0:0:0:
389,121,113903,1,8,0:0:0:0:
389,121,114203,1,8,0:0:0:0:
389,121,114503,1,8,0:0:0:0:
389,121,114578,1,8,0:0:0:0:
389,121,114653,1,8,0:0:0:0:
389,121,114803,1,8,0:0:0:0:
389,121,114953,1,8,0:0:0:0:
389,121,115403,1,0,0:0:0:0:
389,121,115703,1,8,0:0:0:0:
307,110,116003,1,0,0:0:0:0:
307,110,116303,1,0,0:0:0:0:
307,110,116603,1,0,0:0:0:0:
307,110,116903,1,8,0:0:0:0:
307,110,117203,1,0,0:0:0:0:
307,110,117503,1,0,0:0:0:0:
307,110,117803,1,0,0:0:0:0:
307,110,117953,1,8,0:0:0:0:
307,110,118103,1,8,0:0:0:0:
307,110,118403,1,0,0:0:0:0:
307,110,118703,1,8,0:0:0:0:
307,110,118853,1,8,0:0:0:0:
307,110,119003,1,0,0:0:0:0:
307,110,119303,1,8,0:0:0:0:
307,110,119603,1,0,0:0:0:0:
307,110,119903,1,0,0:0:0:0:
307,110,120203,1,0,0:0:0:0:
307,110,120503,1,8,0:0:0:0:
307,110,120803,1,0,0:0:0:0:
307,110,121103,1,0,0:0:0:0:
307,110,121403,1,0,0:0:0:0:
307,110,121703,1,8,0:0:0:0:
307,110,122003,1,0,0:0:0:0:
307,110,122303,1,0,0:0:0:0:
307,110,122603,1,0,0:0:0:0:
307,110,122753,1,8,0:0:0:0:
307,110,122903,1,8,0:0:0:0:
307,110,123203,1,0,0:0:0:0:
307,110,123503,1,8,0:0:0:0:
307,110,123653,1,8,0:0:0:0:
307,110,123803,1,0,0:0:0:0:
307,110,124103,1,8,0:0:0:0:
307,110,124403,1,0,0:0:0:0:
323,91,124553,1,0,0:0:0:0:
307,110,124703,1,0,0:0:0:0:
323,91,124778,1,0,0:0:0:0:
323,91,124853,1,0,0:0:0:0:
323,91,124928,1,0,0:0:0:0:
389,217,125003,1,8,0:0:0:0:
380,175,125078,1,0,0:0:0:0:
389,217,125153,1,8,0:0:0:0:
389,217,125303,1,8,0:0:0:0:
389,217,125378,1,8,0:0:0:0:
389,217,125453,1,0,0:0:0:0:
389,217,125603,1,0,0:0:0:0:
389,217,125678,1,8,0:0:0:0:
389,217,125753,1,0,0:0:0:0:
389,217,125903,1,8,0:0:0:0:
389,217,125978,1,8,0:0:0:0:
389,217,126053,1,0,0:0:0:0:
389,217,126203,1,0,0:0:0:0:
389,185,126278,1,0,0:0:0:0:
357,153,126353,1,8,0:0:0:0:
357,153,126503,1,8,0:0:0:0:
357,153,126578,1,8,0:0:0:0:
357,153,126653,1,0,0:0:0:0:
357,153,126728,1,8,0:0:0:0:
357,153,126803,1,0,0:0:0:0:
357,153,126953,1,0,0:0:0:0:
389,121,127103,1,8,0:0:0:0:
361,117,127178,1,8,0:0:0:0:
389,121,127253,1,0,0:0:0:0:
389,121,127403,1,8,0:0:0:0:
389,121,127478,1,0,0:0:0:0:
389,121,127553,1,0,0:0:0:0:
389,121,127628,1,0,0:0:0:0:
389,121,127703,1,8,0:0:0:0:
349,130,127778,1,8,0:0:0:0:
335,201,127853,1,0,0:0:0:0:
335,201,128003,1,0,0:0:0:0:
361,117,128078,1,0,0:0:0:0:
335,201,128153,1,8,0:0:0:0:
335,201,128303,1,8,0:0:0:0:
335,201,128378,1,0,0:0:0:0:
335,201,128453,1,8,0:0:0:0:
335,201,128603,1,0,0:0:0:0:
370,183,128678,1,0,0:0:0:0:
335,201,128753,1,8,0:0:0:0:
335,201,128903,1,8,0:0:0:0:
335,201,128978,1,8,0:0:0:0:
335,187,129053,1,0,0:0:0:0:
300,102,129128,1,8,0:0:0:0:
370,183,129203,1,8,0:0:0:0:
345,132,129278,1,0,0:0:0:0:
339,119,129353,1,0,0:0:0:0:
335,201,129503,1,8,0:0:0:0:
335,201,129578,1,0,0:0:0:0:
335,201,129653,1,8,0:0:0:0:
335,201,129803,1,0,0:0:0:0:
376,197,129878,1,0,0:0:0:0:
335,201,129953,1,8,0:0:0:0:
376,197,130103,1,8,0:0:0:0:
376,197,130178,1,8,0:0:0:0:
376,197,130253,1,0,0:0:0:0:
376,197,130403,1,0,0:0:0:0:
376,197,130478,1,8,0:0:0:0:
376,197,130553,1,0,0:0:0:0:
376,197,130703,1,8,0:0:0:0:
376,197,130778,1,8,0:0:0:0:
376,197,130853,1,0,0:0:0:0:
376,197,131003,1,0,0:0:0:0:
352,125,131078,1,0,0:0:0:0:
352,125,131153,1,8,0:0:0:0:
352,125,131303,1,8,0:0:0:0:
352,125,131378,1,8,0:0:0:0:
352,125,131453,1,0,0:0:0:0:
352,125,131528,1,8,0:0:0:0:
352,125,131603,1,0,0:0:0:0:
352,125,131753,1,0,0:0:0:0:
352,125,131903,1,8,0:0:0:0:
352,125,131978,1,8,0:0:0:0:
352,125,132053,1,0,0:0:0:0:
337,28,132203,1,8,0:0:0:0:
348,101,132278,1,0,0:0:0:0:
348,101,132353,1,0,0:0:0:0:
348,101,132428,1,0,0:0:0:0:
348,101,132503,1,8,0:0:0:0:
319,140,132578,1,8,0:0:0:0:
348,101,132653,1,0,0:0:0:0:
348,101,132803,1,0,0:0:0:0:
348,101,132878,1,0,0:0:0:0:
348,101,132953,1,8,0:0:0:0:
348,101,133103,1,8,0:0:0:0:
348,101,133178,1,0,0:0:0:0:
348,101,133253,1,8,0:0:0:0:
348,101,133403,1,0,0:0:0:0:
348,101,133478,1,0,0:0:0:0:
348,101,133553,1,8,0:0:0:0:
348,101,133703,1,8,0:0:0:0:
348,101,133778,1,8,0:0:0:0:
348,101,133853,1,0,0:0:0:0:
348,101,133928,1,8,0:0:0:0:
348,101,134003,1,8,0:0:0:0:
273,80,134078,1,0,0:0:0:0:
348,101,134153,1,0,0:0:0:0:
348,101,134303,1,8,0:0:0:0:
348,101,134378,1,0,0:0:0:0:
348,101,134453,1,8,0:0:0:0:
256,192,134603,1,0,0:0:0:0:
256,192,134753,1,0,0:0:0:0:
256,192,134903,1,8,0:0:0:0:
256,128,134978,1,8,0:0:0:0:
256,192,135053,1,0,0:0:0:0:
256,192,135353,1,0,0:0:0:0:
256,192,135503,1,8,0:0:0:0:
256,128,135578,1,8,0:0:0:0:
256,128,135653,1,0,0:0:0:0:
256,128,135803,1,0,0:0:0:0:
256,160,135953,1,0,0:0:0:0:
256,160,136103,1,8,0:0:0:0:
256,160,136253,1,0,0:0:0:0:
256,160,136328,1,8,0:0:0:0:
256,160,136478,1,0,0:0:0:0:
256,160,136553,1,0,0:0:0:0:
256,160,136703,1,8,0:0:0:0:
256,128,136778,1,8,0:0:0:0:
256,160,136853,1,8,0:0:0:0:
256,64,137003,1,0,0:0:0:0:
256,160,137153,1,0,0:0:0:0:
256,64,137303,1,8,0:0:0:0:
192,32,137378,1,8,0:0:0:0:
256,96,137453,1,0,0:0:0:0:
256,64,137603,1,8,0:0:0:0:
256,96,137753,1,0,0:0:0:0:
256,96,137903,1,8,0:0:0:0:
256,96,138203,1,8,0:0:0:0:
256,96,138353,1,0,0:0:0:0:
256,96,138428,1,0,0:0:0:0:
256,96,138503,1,8,0:0:0:0:
256,96,138653,1,0,0:0:0:0:
256,96,138728,1,8,0:0:0:0:
256,96,138878,1,0,0:0:0:0:
256,96,138953,1,8,0:0:0:0:
256,96,139028,1,0,0:0:0:0:
256,96,139103,1,8,0:0:0:0:
256,96,139178,1,8,0:0:0:0:
256,96,139253,1,8,0:0:0:0:
256,192,139403,1,0,0:0:0:0:
256,192,139553,1,0,0:0:0:0:
256,192,139703,1,8,0:0:0:0:
256,128,139778,1,8,0:0:0:0:
256,192,139853,1,0,0:0:0:0:
256,192,140153,1,0,0:0:0:0:
256,192,140303,1,8,0:0:0:0:
256,128,140378,1,8,0:0:0:0:
256,128,140453,1,0,0:0:0:0:
256,128,140603,1,0,0:0:0:0:
256,160,140753,1,0,0:0:0:0:
256,160,140903,1,8,0:0:0:0:
256,160,141053,1,0,0:0:0:0:
256,160,141128,1,8,0:0:0:0:
256,160,141278,1,0,0:0:0:0:
256,160,141353,1,0,0:0:0:0:
256,160,141503,1,8,0:0:0:0:
256,128,141578,1,8,0:0:0:0:
256,160,141653,1,8,0:0:0:0:
256,64,141803,1,0,0:0:0:0:
256,160,141953,1,0,0:0:0:0:
256,64,142103,1,8,0:0:0:0:
192,32,142178,1,8,0:0:0:0:
256,96,142253,1,0,0:0:0:0:
256,128,142403,1,8,0:0:0:0:
256,96,142553,1,0,0:0:0:0:
256,96,142703,1,8,0:0:0:0:
256,96,143003,1,8,0:0:0:0:
256,96,143153,1,0,0:0:0:0:
256,96,143228,1,0,0:0:0:0:
256,96,143303,1,8,0:0:0:0:
256,96,143453,1,0,0:0:0:0:
256,96,143528,1,8,0:0:0:0:
260,120,143603,1,8,0:0:0:0:
256,96,143678,1,0,0:0:0:0:
256,96,143753,1,8,0:0:0:0:
256,96,143828,1,0,0:0:0:0:
256,96,143903,1,8,0:0:0:0:
299,126,143978,1,8,0:0:0:0:
330,147,144053,1,8,0:0:0:0:
339,130,144103,1,8,0:0:0:0:
373,177,144153,1,8,0:0:0:0:
389,217,144203,1,0,0:0:0:0:
389,217,144353,1,0,0:0:0:0:
375,195,144428,1,0,0:0:0:0:
389,217,144503,1,8,0:0:0:0:
344,172,144578,1,0,0:0:0:0:
389,217,144653,1,0,0:0:0:0:
389,217,144803,1,0,0:0:0:0:
389,217,144878,1,0,0:0:0:0:
389,217,144953,1,8,0:0:0:0:
389,217,145103,1,8,0:0:0:0:
389,217,145178,1,0,0:0:0:0:
389,217,145253,1,8,0:0:0:0:
365,189,145328,1,0,0:0:0:0:
389,217,145403,1,0,0:0:0:0:
357,153,145553,1,8,0:0:0:0:
389,185,145628,1,0,0:0:0:0:
357,153,145703,1,8,0:0:0:0:
357,153,145778,1,0,0:0:0:0:
357,153,145853,1,0,0:0:0:0:
357,153,145928,1,8,0:0:0:0:
357,153,146003,1,8,0:0:0:0:
357,153,146153,1,8,0:0:0:0:
389,121,146303,1,8,0:0:0:0:
357,153,146378,1,8,0:0:0:0:
389,121,146453,1,0,0:0:0:0:
389,121,146603,1,8,0:0:0:0:
389,121,146678,1,8,0:0:0:0:
389,121,146753,1,8,0:0:0:0:
389,121,146828,1,0,0:0:0:0:
389,121,146903,1,8,0:0:0:0:
335,201,147053,1,8,0:0:0:0:
318,153,147128,1,8,0:0:0:0:
335,201,147203,1,0,0:0:0:0:
357,153,147253,1,0,0:0:0:0:
361,117,147303,1,0,0:0:0:0:
335,201,147353,1,0,0:0:0:0:
361,117,147428,1,0,0:0:0:0:
335,201,147503,1,8,0:0:0:0:
335,201,147578,1,0,0:0:0:0:
335,201,147653,1,8,0:0:0:0:
322,179,147728,1,8,0:0:0:0:
335,201,147803,1,0,0:0:0:0:
335,201,147953,1,8,0:0:0:0:
357,153,148028,1,8,0:0:0:0:
335,201,148103,1,0,0:0:0:0:
331,134,148178,1,8,0:0:0:0:
300,102,148328,1,8,0:0:0:0:
370,183,148403,1,8,0:0:0:0:
300,102,148478,1,0,0:0:0:0:
276,81,148553,1,8,0:0:0:0:
351,167,148628,1,0,0:0:0:0:
335,201,148703,1,8,0:0:0:0:
335,201,148853,1,8,0:0:0:0:
316,179,148903,1,8,0:0:0:0:
316,179,148953,1,8,0:0:0:0:
335,201,149003,1,0,0:0:0:0:
335,201,149153,1,8,0:0:0:0:
376,197,149303,1,8,0:0:0:0:
376,197,149378,1,0,0:0:0:0:
376,197,149453,1,8,0:0:0:0:
346,155,149528,1,8,0:0:0:0:
376,197,149603,1,0,0:0:0:0:
376,197,149753,1,8,0:0:0:0:
376,197,149903,1,8,0:0:0:0:
376,197,149978,1,8,0:0:0:0:
351,169,150053,1,8,0:0:0:0:
376,197,150203,1,8,0:0:0:0:
348,163,150278,1,8,0:0:0:0:
352,125,150353,1,8,0:0:0:0:
320,110,150428,1,0,0:0:0:0:
352,125,150503,1,8,0:0:0:0:
352,125,150653,1,0,0:0:0:0:
352,125,150728,1,8,0:0:0:0:
352,125,150803,1,0,0:0:0:0:
352,125,150953,1,8,0:0:0:0:
352,125,151103,1,8,0:0:0:0:
352,125,151178,1,8,0:0:0:0:
352,125,151253,1,0,0:0:0:0:
337,28,151403,1,8,0:0:0:0:
348,101,151478,1,0,0:0:0:0:
298,75,151553,1,8,0:0:0:0:
348,101,151628,1,8,0:0:0:0:
348,101,151703,1,0,0:0:0:0:
382,103,151753,1,0,0:0:0:0:
409,105,151803,1,0,0:0:0:0:
348,101,151853,1,8,0:0:0:0:
303,83,151928,1,0,0:0:0:0:
270,61,152003,1,8,0:0:0:0:
348,101,152153,1,0,0:0:0:0:
382,97,152228,1,0,0:0:0:0:
348,101,152303,1,8,0:0:0:0:
295,66,152378,1,0,0:0:0:0:
348,101,152453,1,8,0:0:0:0:
313,67,152603,1,8,0:0:0:0:
348,101,152678,1,0,0:0:0:0:
313,67,152753,1,0,0:0:0:0:
313,67,152828,1,8,0:0:0:0:
348,101,152903,1,8,0:0:0:0:
313,78,152978,1,0,0:0:0:0:
348,101,153053,1,8,0:0:0:0:
348,101,153203,1,8,0:0:0:0:
362,90,153253,1,8,0:0:0:0:
314,60,153303,1,8,0:0:0:0:
348,101,153353,1,0,0:0:0:0:
343,74,153403,1,0,0:0:0:0:
314,60,153453,1,0,0:0:0:0:
348,101,153503,1,8,0:0:0:0:
348,101,153578,1,0,0:0:0:0:
348,101,153653,1,8,0:0:0:0:
300,79,153728,1,8,0:0:0:0:
389,217,153803,1,0,0:0:0:0:
389,217,153953,1,0,0:0:0:0:
375,195,154028,1,0,0:0:0:0:
389,217,154103,1,8,0:0:0:0:
348,101,154178,1,0,0:0:0:0:
389,217,154253,1,0,0:0:0:0:
389,217,154403,1,0,0:0:0:0:
389,217,154478,1,0,0:0:0:0:
389,217,154553,1,8,0:0:0:0:
389,217,154703,1,8,0:0:0:0:
389,217,154778,1,0,0:0:0:0:
389,217,154853,1,8,0:0:0:0:
365,189,154928,1,0,0:0:0:0:
389,217,155003,1,8,0:0:0:0:
357,153,155153,1,8,0:0:0:0:
389,185,155228,1,0,0:0:0:0:
357,153,155303,1,8,0:0:0:0:
357,153,155378,1,0,0:0:0:0:
357,153,155453,1,0,0:0:0:0:
357,153,155528,1,8,0:0:0:0:
356,151,155603,1,8,0:0:0:0:
332,109,155678,1,0,0:0:0:0:
357,153,155753,1,8,0:0:0:0:
389,121,155903,1,8,0:0:0:0:
357,153,155978,1,8,0:0:0:0:
389,121,156053,1,0,0:0:0:0:
389,121,156203,1,8,0:0:0:0:
389,121,156278,1,8,0:0:0:0:
389,121,156353,1,8,0:0:0:0:
389,121,156428,1,0,0:0:0:0:
389,121,156503,1,8,0:0:0:0:
335,201,156653,1,8,0:0:0:0:
324,165,156728,1,8,0:0:0:0:
335,201,156803,1,0,0:0:0:0:
357,153,156853,1,0,0:0:0:0:
361,117,156903,1,0,0:0:0:0:
335,201,156953,1,0,0:0:0:0:
361,117,157028,1,0,0:0:0:0:
335,201,157103,1,8,0:0:0:0:
335,201,157178,1,0,0:0:0:0:
335,201,157253,1,8,0:0:0:0:
331,153,157328,1,8,0:0:0:0:
335,201,157403,1,0,0:0:0:0:
335,201,157553,1,8,0:0:0:0:
357,153,157628,1,8,0:0:0:0:
335,201,157703,1,0,0:0:0:0:
331,134,157778,1,8,0:0:0:0:
300,102,157928,1,8,0:0:0:0:
369,181,158003,1,0,0:0:0:0:
300,102,158078,1,8,0:0:0:0:
335,201,158153,1,8,0:0:0:0:
351,167,158228,1,0,0:0:0:0:
335,201,158303,1,8,0:0:0:0:
332,172,158378,1,0,0:0:0:0:
335,201,158453,1,8,0:0:0:0:
316,179,158503,1,8,0:0:0:0:
316,179,158553,1,8,0:0:0:0:
335,201,158603,1,0,0:0:0:0:
335,201,158753,1,8,0:0:0:0:
376,197,158903,1,8,0:0:0:0:
376,197,158978,1,0,0:0:0:0:
376,197,159053,1,8,0:0:0:0:
346,155,159128,1,8,0:0:0:0:
376,197,159203,1,0,0:0:0:0:
340,163,159278,1,0,0:0:0:0:
376,197,159353,1,8,0:0:0:0:
376,197,159503,1,8,0:0:0:0:
376,197,159578,1,8,0:0:0:0:
376,197,159653,1,8,0:0:0:0:
376,197,159803,1,8,0:0:0:0:
348,163,159878,1,8,0:0:0:0:
352,125,159953,1,8,0:0:0:0:
320,110,160028,1,0,0:0:0:0:
352,125,160103,1,8,0:0:0:0:
352,125,160178,1,8,0:0:0:0:
352,125,160253,1,0,0:0:0:0:
352,125,160328,1,8,0:0:0:0:
352,125,160403,1,0,0:0:0:0:
313,87,160478,1,0,0:0:0:0:
352,125,160553,1,8,0:0:0:0:
352,125,160703,1,8,0:0:0:0:
352,125,160778,1,8,0:0:0:0:
352,125,160853,1,0,0:0:0:0:
337,28,161003,1,8,0:0:0:0:
348,101,161078,1,0,0:0:0:0:
298,75,161153,1,8,0:0:0:0:
348,101,161228,1,8,0:0:0:0:
348,101,161303,1,0,0:0:0:0:
382,103,161353,1,0,0:0:0:0:
409,105,161403,1,0,0:0:0:0:
348,101,161453,1,8,0:0:0:0:
348,101,161603,1,0,0:0:0:0:
348,101,161678,1,0,0:0:0:0:
348,101,161753,1,8,0:0:0:0:
382,97,161828,1,0,0:0:0:0:
348,101,161903,1,8,0:0:0:0:
320,60,161978,1,0,0:0:0:0:
348,101,162053,1,8,0:0:0:0:
313,67,162203,1,8,0:0:0:0:
348,101,162278,1,0,0:0:0:0:
313,67,162353,1,0,0:0:0:0:
313,67,162428,1,8,0:0:0:0:
348,101,162503,1,8,0:0:0:0:
313,67,162578,1,0,0:0:0:0:
348,101,162653,1,8,0:0:0:0:
348,101,162728,1,0,0:0:0:0:
348,101,162803,1,8,0:0:0:0:
299,110,162853,1,8,0:0:0:0:
314,60,162903,1,8,0:0:0:0:
348,101,162953,1,0,0:0:0:0:
343,74,163003,1,0,0:0:0:0:
314,60,163053,1,0,0:0:0:0:
348,101,163103,1,8,0:0:0:0:
348,101,163178,1,0,0:0:0:0:
313,67,163253,1,8,0:0:0:0:
262,139,163403,1,4,0:0:0:0:
262,139,164003,1,8,0:0:0:0:
262,139,164603,1,8,0:0:0:0:
262,139,164903,1,0,0:0:0:0:
262,139,165203,1,0,0:0:0:0:
262,139,165503,1,8,0:0:0:0:
262,139,166103,1,8,0:0:0:0:
262,139,166403,1,8,0:0:0:0:
262,139,166703,1,8,0:0:0:0:
262,139,167003,1,0,0:0:0:0:
262,139,167303,1,8,0:0:0:0:
262,139,167603,1,0,0:0:0:0:
262,139,168203,1,0,0:0:0:0:
262,139,168803,1,8,0:0:0:0:
279,88,169403,1,8,0:0:0:0:
279,88,169703,1,8,0:0:0:0:
279,88,170003,1,0,0:0:0:0:
279,88,170303,1,8,0:0:0:0:
255,96,170903,1,8,0:0:0:0:
255,96,171203,1,8,0:0:0:0:
255,96,171503,1,0,0:0:0:0:
255,96,171803,1,8,0:0:0:0:
255,96,172103,1,8,0:0:0:0:
255,96,172403,1,0,0:0:0:0:
255,96,173003,1,0,0:0:0:0:
255,96,173303,1,8,0:0:0:0:
255,96,173603,1,8,0:0:0:0:
255,96,173903,1,8,0:0:0:0:
255,96,174053,1,8,0:0:0:0:
255,96,174203,1,0,0:0:0:0:
255,96,174503,1,8,0:0:0:0:
255,96,174803,1,0,0:0:0:0:
255,96,175103,1,8,0:0:0:0:
255,96,175703,1,8,0:0:0:0:
255,96,176003,1,0,0:0:0:0:
255,96,176153,1,0,0:0:0:0:
255,96,176303,1,8,0:0:0:0:
255,96,176603,1,8,0:0:0:0:
255,96,176753,1,8,0:0:0:0:
255,96,177053,1,0,0:0:0:0:
255,128,177128,1,0,0:0:0:0:
255,96,177203,1,8,0:0:0:0:
256,182,177353,1,0,0:0:0:0:
256,182,177503,1,8,0:0:0:0:
255,96,177803,1,0,0:0:0:0:
255,96,178103,1,8,0:0:0:0:
255,96,178253,1,8,0:0:0:0:
255,96,178403,1,8,0:0:0:0:
255,96,178703,1,0,0:0:0:0:
255,96,179003,1,8,0:0:0:0:
255,96,179303,1,8,0:0:0:0:
255,96,179603,1,0,0:0:0:0:
255,96,179903,1,8,0:0:0:0:
255,96,180503,1,0,0:0:0:0:
255,96,180803,1,0,0:0:0:0:
255,96,180953,1,8,0:0:0:0:
255,96,181103,1,0,0:0:0:0:
255,96,181403,1,8,0:0:0:0:
255,96,181553,1,8,0:0:0:0:
255,96,181853,1,0,0:0:0:0:
255,143,181928,1,0,0:0:0:0:
255,96,182003,1,8,0:0:0:0:
255,96,182153,1,0,0:0:0:0:
255,96,182303,1,8,0:0:0:0:
