osu file format v14

[General]
AudioFilename: audio.mp3
AudioLeadIn: 0
PreviewTime: 115103
Countdown: 0
SampleSet: Normal
StackLeniency: 0.7
Mode: 1
LetterboxInBreaks: 0
WidescreenStoryboard: 1

[Editor]
Bookmarks: 203,9803,19403,29003,38603,48203,57803,67403,77003,86603,96203,105803,115403,125003,134603,144203,153803,163403
DistanceSpacing: 0.1
BeatDivisor: 4
GridSize: 32
TimelineZoom: 2.2

[Metadata]
Title:cash machine go!
TitleUnicode:cash machine go!
Artist:Kola Kid
ArtistUnicode:Kola Kid
Creator:gaston_2199
Version:Futsuu
Source:osu!
Tags:fa featured artist chiptune breakcore electronic instrumental 8bit 8-bit mpg mg mappers' guild
BeatmapID:2371757
BeatmapSetID:1123501

[Difficulty]
HPDrainRate:7
CircleSize:2
OverallDifficulty:4
ApproachRate:10
SliderMultiplier:1.4
SliderTickRate:1

[Events]
//Background and Video events
0,0,"BG.png",0,-120
//Break Periods
2,106003,110453
//Storyboard Layer 0 (Background)
//Storyboard Layer 1 (Fail)
//Storyboard Layer 2 (Pass)
//Storyboard Layer 3 (Foreground)
//Storyboard Layer 4 (Overlay)
//Storyboard Sound Samples

[TimingPoints]
203,300,4,1,0,70,1,0
203,-142.857142857143,4,1,0,70,0,0
9803,-125,4,1,0,70,0,0
19403,-111.111111111111,4,1,0,70,0,0
38603,-100,4,1,0,80,0,0
59003,-142.857142857143,4,1,0,70,0,0
66803,-138.461538461538,4,1,0,70,0,0
66953,-130.434782608696,4,1,0,70,0,0
67103,-123.287671232877,4,1,0,70,0,0
67403,-111.111111111111,4,1,0,70,0,0
77003,-100,4,1,0,80,0,0
86603,-100,4,1,0,90,0,1
105803,-100,4,1,0,90,0,0
107003,-142.857142857143,4,1,0,70,0,0
115403,-125,4,1,0,70,0,0
124403,-120.689655172414,4,1,0,80,0,0
124703,-112.903225806452,4,1,0,80,0,0
124853,-106.060606060606,4,1,0,80,0,0
125003,-100,4,1,0,80,0,0
134303,-102.040816326531,4,1,0,80,0,0
134603,-111.111111111111,4,1,0,70,0,0
143903,-105.263157894737,4,1,0,70,0,0
144053,-103.092783505155,4,1,0,70,0,0
144203,-100,4,1,0,90,0,1
163403,-100,4,1,0,90,0,0
164603,-142.857142857143,4,1,0,70,0,0

[HitObjects]
256,192,203,5,0,0:0:0:0:
256,192,1403,1,8,0:0:0:0:
256,192,2003,1,0,0:0:0:0:
256,192,3803,1,8,0:0:0:0:
256,192,4403,1,0,0:0:0:0:
256,192,5003,1,0,0:0:0:0:
256,192,6203,1,8,0:0:0:0:
256,192,6803,1,0,0:0:0:0:
256,192,8603,1,8,0:0:0:0:
256,192,9203,1,0,0:0:0:0:
256,192,9803,1,0,0:0:0:0:
320,256,10103,1,8,0:0:0:0:
288,160,10703,1,8,0:0:0:0:
288,160,11003,1,0,0:0:0:0:
256,224,11903,1,8,0:0:0:0:
384,64,12203,1,0,0:0:0:0:
256,192,12503,1,8,0:0:0:0:
256,192,13103,1,8,0:0:0:0:
261,180,13403,1,0,0:0:0:0:
256,192,14303,1,8,0:0:0:0:
256,192,14603,1,0,0:0:0:0:
256,192,14903,1,8,0:0:0:0:
256,192,15503,1,8,0:0:0:0:
256,192,15803,1,0,0:0:0:0:
256,192,16703,1,8,0:0:0:0:
256,192,17003,1,0,0:0:0:0:
256,192,17303,1,8,0:0:0:0:
256,192,17903,1,8,0:0:0:0:
256,192,18203,1,0,0:0:0:0:
256,192,18953,1,0,0:0:0:0:
256,192,19103,1,8,0:0:0:0:
256,192,19403,1,0,0:0:0:0:
256,192,19703,1,8,0:0:0:0:
256,192,20303,1,8,0:0:0:0:
256,128,20603,1,0,0:0:0:0:
256,160,20903,1,0,0:0:0:0:
256,160,21503,1,8,0:0:0:0:
256,64,22103,1,8,0:0:0:0:
256,64,22403,1,0,0:0:0:0:
256,96,22703,1,8,0:0:0:0:
256,96,23003,1,0,0:0:0:0:
256,64,23303,1,0,0:0:0:0:
256,96,23603,1,8,0:0:0:0:
256,192,24203,1,0,0:0:0:0:
256,192,24803,1,8,0:0:0:0:
256,128,25403,1,0,0:0:0:0:
256,160,25703,1,0,0:0:0:0:
256,160,26303,1,8,0:0:0:0:
256,64,26903,1,8,0:0:0:0:
256,128,27203,1,8,0:0:0:0:
256,96,27503,1,8,0:0:0:0:
256,96,27803,1,0,0:0:0:0:
256,96,28103,1,8,0:0:0:0:
256,96,28403,1,0,0:0:0:0:
256,192,29003,1,0,0:0:0:0:
256,192,29303,1,8,0:0:0:0:
256,192,29903,1,8,0:0:0:0:
256,128,30203,1,0,0:0:0:0:
256,160,30503,1,0,0:0:0:0:
256,160,31103,1,8,0:0:0:0:
256,64,31703,1,8,0:0:0:0:
256,64,32003,1,0,0:0:0:0:
256,96,32303,1,8,0:0:0:0:
256,96,32603,1,0,0:0:0:0:
256,96,32903,1,0,0:0:0:0:
256,96,33203,1,8,0:0:0:0:
256,192,33803,1,0,0:0:0:0:
256,192,34403,1,8,0:0:0:0:
256,128,35003,1,0,0:0:0:0:
256,160,35303,1,0,0:0:0:0:
256,160,35903,1,8,0:0:0:0:
256,64,36503,1,8,0:0:0:0:
256,128,36803,1,8,0:0:0:0:
256,96,37103,1,8,0:0:0:0:
256,96,37403,1,0,0:0:0:0:
256,96,37703,1,8,0:0:0:0:
256,96,37853,1,0,0:0:0:0:
256,96,38153,1,0,0:0:0:0:
256,96,38303,1,8,0:0:0:0:
256,96,38603,1,0,0:0:0:0:
256,192,38903,1,8,0:0:0:0:
256,192,39503,1,8,0:0:0:0:
256,128,39803,1,0,0:0:0:0:
256,160,40103,1,0,0:0:0:0:
256,160,40703,1,8,0:0:0:0:
256,64,41303,1,8,0:0:0:0:
256,64,41603,1,0,0:0:0:0:
256,96,41903,1,8,0:0:0:0:
256,96,42203,1,0,0:0:0:0:
256,96,42353,1,0,0:0:0:0:
256,96,42653,1,0,0:0:0:0:
320,128,42803,1,8,0:0:0:0:
256,96,43103,1,8,0:0:0:0:
256,192,43403,1,0,0:0:0:0:
256,192,43703,1,8,0:0:0:0:
156,113,44003,1,0,0:0:0:0:
256,96,44603,1,0,0:0:0:0:
256,160,44903,1,8,0:0:0:0:
256,160,45503,1,8,0:0:0:0:
256,64,46103,1,8,0:0:0:0:
256,128,46403,1,0,0:0:0:0:
256,96,46703,1,8,0:0:0:0:
256,96,47003,1,0,0:0:0:0:
256,96,47153,1,0,0:0:0:0:
256,96,47453,1,0,0:0:0:0:
256,96,47603,1,8,0:0:0:0:
256,96,47903,1,8,0:0:0:0:
256,192,48203,1,0,0:0:0:0:
256,192,48503,1,8,0:0:0:0:
256,192,49103,1,8,0:0:0:0:
256,128,49403,1,0,0:0:0:0:
256,160,49703,1,0,0:0:0:0:
256,160,50303,1,8,0:0:0:0:
256,64,50903,1,8,0:0:0:0:
256,64,51203,1,0,0:0:0:0:
256,96,51503,1,8,0:0:0:0:
256,96,51803,1,0,0:0:0:0:
256,96,51953,1,0,0:0:0:0:
256,96,52253,1,0,0:0:0:0:
320,128,52403,1,8,0:0:0:0:
256,96,52703,1,8,0:0:0:0:
256,192,53003,1,0,0:0:0:0:
256,192,53303,1,8,0:0:0:0:
256,96,53603,1,0,0:0:0:0:
256,96,54203,1,0,0:0:0:0:
256,160,54503,1,8,0:0:0:0:
256,160,55103,1,8,0:0:0:0:
256,64,55703,1,8,0:0:0:0:
256,128,56003,1,0,0:0:0:0:
256,96,56303,1,8,0:0:0:0:
256,96,56603,1,0,0:0:0:0:
256,96,56753,1,0,0:0:0:0:
256,96,57053,1,0,0:0:0:0:
256,96,57203,1,8,0:0:0:0:
256,96,57503,1,8,0:0:0:0:
256,96,57653,1,8,0:0:0:0:
256,192,57803,5,4,0:0:0:0:
256,192,59003,1,8,0:0:0:0:
256,192,59603,1,0,0:0:0:0:
256,192,61403,1,8,0:0:0:0:
256,192,62003,1,0,0:0:0:0:
256,192,62603,1,0,0:0:0:0:
256,192,63803,1,8,0:0:0:0:
256,192,64403,1,0,0:0:0:0:
256,192,66203,1,8,0:0:0:0:
256,192,66803,1,0,0:0:0:0:
288,128,66953,1,0,0:0:0:0:
256,192,67103,1,8,0:0:0:0:
288,128,67403,1,0,0:0:0:0:
288,128,67703,1,8,0:0:0:0:
288,64,68303,1,8,0:0:0:0:
288,64,68753,1,0,0:0:0:0:
288,64,68903,1,8,0:0:0:0:
320,64,69503,1,8,0:0:0:0:
96,64,69803,1,0,0:0:0:0:
256,64,70103,1,8,0:0:0:0:
256,64,70403,1,8,0:0:0:0:
256,64,70553,1,8,0:0:0:0:
320,160,70703,1,8,0:0:0:0:
256,32,71153,1,0,0:0:0:0:
288,96,71303,1,8,0:0:0:0:
288,96,71603,1,8,0:0:0:0:
256,32,71903,1,8,0:0:0:0:
256,32,72503,1,8,0:0:0:0:
256,32,73103,1,8,0:0:0:0:
109,79,73403,1,0,0:0:0:0:
256,32,73553,1,0,0:0:0:0:
256,32,73703,1,8,0:0:0:0:
256,32,74003,1,0,0:0:0:0:
256,32,74303,1,8,0:0:0:0:
256,32,75053,1,8,0:0:0:0:
288,192,75503,1,0,0:0:0:0:
288,192,75803,1,8,0:0:0:0:
288,192,76103,1,8,0:0:0:0:
288,192,76403,1,8,0:0:0:0:
288,192,76553,1,8,0:0:0:0:
288,192,76703,1,8,0:0:0:0:
389,217,77003,1,0,0:0:0:0:
389,217,77303,1,8,0:0:0:0:
389,217,77603,1,0,0:0:0:0:
389,217,77903,1,8,0:0:0:0:
389,217,78203,1,0,0:0:0:0:
357,153,78803,1,8,0:0:0:0:
389,121,79103,1,0,0:0:0:0:
389,121,79403,1,8,0:0:0:0:
389,121,79553,1,0,0:0:0:0:
389,121,79703,1,8,0:0:0:0:
335,201,80003,1,0,0:0:0:0:
335,201,80303,1,8,0:0:0:0:
335,201,80603,1,0,0:0:0:0:
335,201,80903,1,8,0:0:0:0:
335,187,81053,1,0,0:0:0:0:
370,183,81203,1,0,0:0:0:0:
335,201,81803,1,0,0:0:0:0:
376,197,82103,1,8,0:0:0:0:
376,197,82403,1,0,0:0:0:0:
376,197,82703,1,8,0:0:0:0:
376,197,83003,1,0,0:0:0:0:
352,125,83603,1,8,0:0:0:0:
352,125,83903,1,0,0:0:0:0:
337,28,84203,1,8,0:0:0:0:
348,101,84353,1,0,0:0:0:0:
348,101,84503,1,8,0:0:0:0:
348,101,84803,1,0,0:0:0:0:
348,101,85103,1,8,0:0:0:0:
348,101,85403,1,0,0:0:0:0:
348,101,85703,1,8,0:0:0:0:
348,101,85853,1,0,0:0:0:0:
348,101,86003,1,0,0:0:0:0:
348,101,86303,1,8,0:0:0:0:
389,217,86603,1,0,0:0:0:0:
389,217,86903,1,8,0:0:0:0:
389,217,87503,1,8,0:0:0:0:
170,119,87953,1,0,0:0:0:0:
314,101,88103,1,8,0:0:0:0:
260,40,88403,1,8,0:0:0:0:
389,121,88703,1,0,0:0:0:0:
389,121,89003,1,8,0:0:0:0:
286,151,89153,1,0,0:0:0:0:
389,121,89303,1,8,0:0:0:0:
335,201,89603,1,0,0:0:0:0:
268,48,89903,1,8,0:0:0:0:
331,134,90503,1,8,0:0:0:0:
370,183,90803,1,0,0:0:0:0:
162,71,91103,1,8,0:0:0:0:
335,201,91403,1,0,0:0:0:0:
376,197,91703,1,8,0:0:0:0:
376,197,92303,1,8,0:0:0:0:
323,154,92603,1,8,0:0:0:0:
352,125,92903,1,8,0:0:0:0:
352,125,93353,1,0,0:0:0:0:
352,125,93503,1,8,0:0:0:0:
337,28,93803,1,0,0:0:0:0:
348,101,94103,1,8,0:0:0:0:
348,101,94403,1,0,0:0:0:0:
313,67,95003,1,8,0:0:0:0:
306,63,95303,1,0,0:0:0:0:
348,101,95603,1,8,0:0:0:0:
348,101,95753,1,8,0:0:0:0:
348,101,95903,1,0,0:0:0:0:
389,217,96203,1,0,0:0:0:0:
389,217,96503,1,8,0:0:0:0:
389,217,97103,1,8,0:0:0:0:
386,211,97553,1,0,0:0:0:0:
314,101,97703,1,8,0:0:0:0:
357,153,98003,1,8,0:0:0:0:
389,121,98303,1,0,0:0:0:0:
389,121,98603,1,8,0:0:0:0:
262,96,98753,1,0,0:0:0:0:
389,121,98903,1,8,0:0:0:0:
335,201,99203,1,0,0:0:0:0:
335,201,99503,1,8,0:0:0:0:
331,134,100103,1,8,0:0:0:0:
370,183,100403,1,0,0:0:0:0:
335,201,100703,1,8,0:0:0:0:
335,201,101003,1,0,0:0:0:0:
376,197,101303,1,8,0:0:0:0:
376,197,101603,1,0,0:0:0:0:
376,197,102203,1,8,0:0:0:0:
352,125,102503,1,8,0:0:0:0:
219,25,102803,1,0,0:0:0:0:
352,125,103103,1,8,0:0:0:0:
348,101,103703,1,8,0:0:0:0:
348,101,104003,1,0,0:0:0:0:
348,101,104303,1,8,0:0:0:0:
313,67,104603,1,8,0:0:0:0:
313,67,104753,1,0,0:0:0:0:
348,101,105053,1,0,0:0:0:0:
348,101,105203,1,8,0:0:0:0:
348,101,105503,1,8,0:0:0:0:
262,139,105803,5,0,0:0:0:0:
389,121,110903,5,8,0:0:0:0:
146,84,111503,1,8,0:0:0:0:
389,121,112103,1,8,0:0:0:0:
181,42,112703,1,8,0:0:0:0:
389,121,113003,1,8,0:0:0:0:
389,121,113303,1,0,0:0:0:0:
389,121,113603,1,8,0:0:0:0:
389,121,114203,1,8,0:0:0:0:
389,121,114503,1,0,0:0:0:0:
389,121,114803,1,8,0:0:0:0:
389,121,115403,1,0,0:0:0:0:
307,110,116003,1,0,0:0:0:0:
307,110,116603,1,0,0:0:0:0:
307,110,117203,1,0,0:0:0:0:
307,110,117803,1,0,0:0:0:0:
307,110,118403,1,0,0:0:0:0:
307,110,119003,1,0,0:0:0:0:
307,110,120203,1,0,0:0:0:0:
307,110,120803,1,0,0:0:0:0:
307,110,121403,1,0,0:0:0:0:
307,110,122003,1,0,0:0:0:0:
307,110,122603,1,0,0:0:0:0:
307,110,123203,1,0,0:0:0:0:
307,110,123803,1,0,0:0:0:0:
307,110,124403,1,0,0:0:0:0:
307,110,124703,1,0,0:0:0:0:
323,91,124853,1,0,0:0:0:0:
389,217,125003,1,0,0:0:0:0:
389,217,125303,1,8,0:0:0:0:
389,217,125753,1,0,0:0:0:0:
389,217,125903,1,8,0:0:0:0:
389,217,126203,1,0,0:0:0:0:
357,153,126503,1,8,0:0:0:0:
389,121,127103,1,8,0:0:0:0:
389,121,127403,1,0,0:0:0:0:
389,121,127553,1,0,0:0:0:0:
389,121,127703,1,8,0:0:0:0:
335,201,128003,1,0,0:0:0:0:
335,201,128303,1,8,0:0:0:0:
335,201,128903,1,8,0:0:0:0:
370,183,129203,1,0,0:0:0:0:
335,201,129503,1,8,0:0:0:0:
335,201,129803,1,0,0:0:0:0:
376,197,130103,1,8,0:0:0:0:
376,197,130553,1,0,0:0:0:0:
376,197,130703,1,8,0:0:0:0:
376,197,131003,1,0,0:0:0:0:
352,125,131303,1,8,0:0:0:0:
352,125,131903,1,8,0:0:0:0:
337,28,132203,1,0,0:0:0:0:
348,101,132353,1,0,0:0:0:0:
348,101,132503,1,8,0:0:0:0:
348,101,132803,1,0,0:0:0:0:
348,101,133103,1,8,0:0:0:0:
348,101,133703,1,8,0:0:0:0:
348,101,134003,1,0,0:0:0:0:
348,101,134303,5,8,0:0:0:0:
256,192,134603,1,0,0:0:0:0:
256,192,134903,1,8,0:0:0:0:
256,192,135503,1,8,0:0:0:0:
256,128,135803,1,0,0:0:0:0:
256,160,136103,1,8,0:0:0:0:
186,27,137003,1,0,0:0:0:0:
256,64,137303,1,0,0:0:0:0:
256,64,137603,1,8,0:0:0:0:
256,96,137903,1,8,0:0:0:0:
256,96,138203,1,0,0:0:0:0:
256,64,138503,1,8,0:0:0:0:
256,96,139103,1,8,0:0:0:0:
256,192,139403,1,0,0:0:0:0:
256,192,139703,1,8,0:0:0:0:
210,42,140303,1,8,0:0:0:0:
256,128,140603,1,0,0:0:0:0:
256,160,140903,1,8,0:0:0:0:
256,160,141803,1,0,0:0:0:0:
256,64,142103,1,0,0:0:0:0:
256,128,142403,1,8,0:0:0:0:
256,96,142703,1,8,0:0:0:0:
256,96,143003,1,0,0:0:0:0:
256,96,143303,1,8,0:0:0:0:
256,96,143603,1,0,0:0:0:0:
206,54,143903,1,8,0:0:0:0:
245,94,144053,1,8,0:0:0:0:
389,217,144203,5,0,0:0:0:0:
389,217,144503,1,8,0:0:0:0:
389,217,144953,1,0,0:0:0:0:
389,217,145103,1,8,0:0:0:0:
357,153,145553,1,0,0:0:0:0:
340,185,145703,1,8,0:0:0:0:
357,153,146003,1,8,0:0:0:0:
389,121,146303,1,0,0:0:0:0:
389,121,146603,1,8,0:0:0:0:
280,108,146753,1,0,0:0:0:0:
389,121,146903,1,8,0:0:0:0:
335,201,147203,1,0,0:0:0:0:
335,201,147353,1,0,0:0:0:0:
335,201,147503,1,8,0:0:0:0:
327,121,148103,1,8,0:0:0:0:
370,183,148403,1,0,0:0:0:0:
194,70,148553,1,0,0:0:0:0:
335,201,148703,1,8,0:0:0:0:
335,201,149003,1,0,0:0:0:0:
376,197,149303,1,8,0:0:0:0:
376,197,149903,1,8,0:0:0:0:
376,197,150203,1,8,0:0:0:0:
352,125,150503,1,8,0:0:0:0:
352,125,150953,1,0,0:0:0:0:
352,125,151103,1,8,0:0:0:0:
337,28,151403,1,0,0:0:0:0:
348,101,151703,1,8,0:0:0:0:
349,103,151853,1,8,0:0:0:0:
348,101,152003,1,0,0:0:0:0:
313,67,152603,1,8,0:0:0:0:
348,101,152903,1,0,0:0:0:0:
348,101,153203,1,8,0:0:0:0:
348,101,153353,1,8,0:0:0:0:
348,101,153503,1,0,0:0:0:0:
389,217,153803,1,0,0:0:0:0:
389,217,154103,1,8,0:0:0:0:
293,126,154553,1,0,0:0:0:0:
389,217,154703,1,8,0:0:0:0:
385,211,155153,1,0,0:0:0:0:
361,153,155303,1,8,0:0:0:0:
357,153,155603,1,8,0:0:0:0:
389,121,155903,1,0,0:0:0:0:
389,121,156203,1,8,0:0:0:0:
301,135,156353,1,0,0:0:0:0:
389,121,156503,1,8,0:0:0:0:
335,201,156803,1,0,0:0:0:0:
335,201,156953,1,0,0:0:0:0:
335,201,157103,1,8,0:0:0:0:
337,148,157703,1,8,0:0:0:0:
370,183,158003,1,0,0:0:0:0:
335,201,158153,1,0,0:0:0:0:
335,201,158303,1,8,0:0:0:0:
335,201,158603,1,0,0:0:0:0:
376,197,158903,1,8,0:0:0:0:
376,197,159203,1,0,0:0:0:0:
376,197,159803,1,8,0:0:0:0:
352,125,160103,1,8,0:0:0:0:
352,125,160403,1,0,0:0:0:0:
352,125,160703,1,8,0:0:0:0:
337,28,161003,1,0,0:0:0:0:
348,101,161303,1,8,0:0:0:0:
348,101,161453,1,8,0:0:0:0:
348,101,161603,1,0,0:0:0:0:
348,101,161903,1,8,0:0:0:0:
313,67,162203,1,8,0:0:0:0:
313,67,162353,1,0,0:0:0:0:
348,101,162653,1,0,0:0:0:0:
348,101,162803,1,8,0:0:0:0:
348,101,163103,1,8,0:0:0:0:
348,101,163253,1,8,0:0:0:0:
262,139,163403,5,4,0:0:0:0:
262,139,164603,1,0,0:0:0:0:
262,139,165503,1,8,0:0:0:0:
262,139,167003,1,0,0:0:0:0:
262,139,167603,1,8,0:0:0:0:
262,139,168203,1,0,0:0:0:0:
279,88,169403,1,8,0:0:0:0:
279,88,170303,1,8,0:0:0:0:
255,96,171803,1,0,0:0:0:0:
255,96,172403,1,8,0:0:0:0:
255,96,173003,1,0,0:0:0:0:
255,96,173303,1,8,0:0:0:0:
255,96,173903,1,8,0:0:0:0:
255,96,174203,1,0,0:0:0:0:
255,96,175103,1,8,0:0:0:0:
255,96,175703,1,8,0:0:0:0:
255,96,176003,1,0,0:0:0:0:
255,96,176303,1,8,0:0:0:0:
255,96,176603,1,0,0:0:0:0:
255,96,177203,1,8,0:0:0:0:
255,96,177503,1,0,0:0:0:0:
229,16,177803,1,0,0:0:0:0:
255,96,178103,1,8,0:0:0:0:
255,96,179003,1,8,0:0:0:0:
255,96,179303,1,8,0:0:0:0:
255,96,179903,1,0,0:0:0:0:
255,96,180503,1,0,0:0:0:0:
255,96,180803,1,8,0:0:0:0:
255,96,181403,1,8,0:0:0:0:
255,96,182003,1,8,0:0:0:0:
255,96,182303,1,0,0:0:0:0:
