osu file format v14

[General]
AudioFilename: audio.mp3
AudioLeadIn: 0
PreviewTime: 25160
Countdown: 0
SampleSet: Soft
StackLeniency: 0.7
Mode: 0
LetterboxInBreaks: 0
WidescreenStoryboard: 0

[Editor]
Bookmarks: 18,4589,9160,13732,18303,22875,27446,32018,36589,41160,45732,50303,54875,59160
DistanceSpacing: 1.1
BeatDivisor: 4
GridSize: 32
TimelineZoom: 2.999999

[Metadata]
Title:broken legs
TitleUnicode:broken legs
Artist:Kola Kid
ArtistUnicode:Kola Kid
Creator:eiri-
Version:normal
Source:osu!
Tags:Ayyri Featured Artist FA Electronic Instrumental Breakcore CONTRA 88
BeatmapID:2428499
BeatmapSetID:1160961

[Difficulty]
HPDrainRate:4
CircleSize:3
OverallDifficulty:5
ApproachRate:6
SliderMultiplier:1
SliderTickRate:1

[Events]
//Background and Video events
0,0,"broken legs.jpg",0,0
//Break Periods
//Storyboard Layer 0 (Background)
//Storyboard Layer 1 (Fail)
//Storyboard Layer 2 (Pass)
//Storyboard Layer 3 (Foreground)
//Storyboard Layer 4 (Overlay)
//Storyboard Sound Samples

[TimingPoints]
18,285.714285714286,4,2,1,50,1,0
54875,-100,4,2,1,75,0,0
55446,-100,4,2,1,65,0,0
56018,-100,4,2,1,55,0,0
56589,-100,4,2,1,45,0,0
57160,-100,4,2,1,35,0,0
57732,-100,4,2,1,25,0,0
58303,-100,4,2,1,15,0,0
58589,-100,4,2,1,10,0,0
58875,-100,4,2,1,7,0,0
59160,-100,4,2,1,5,0,0

[Colours]
Combo1 : 109,157,245
Combo2 : 247,153,91
Combo3 : 244,219,117
Combo4 : 124,231,133

[HitObjects]
53,304,18,6,0,L|174:280,1,100,2|2,0:0|0:0,0:0:0:0:
203,300,446,2,0,P|233:262|238:212,2,100,2|2|2,0:0|0:0|0:0,0:0:0:0:
87,181,1446,1,2,0:0:0:0:
162,100,1732,2,0,L|274:112,1,100,2|0,0:1|0:0,0:0:0:0:
361,64,2303,6,2,L|383:117,1,50,10|10,0:0|0:0,0:1:0:0:
426,140,2589,2,2,L|411:247,1,100,2|10,1:2|0:0,0:1:0:0:
387,346,3160,2,0,L|321:324,1,50,2|2,1:2|1:2,0:0:0:0:
293,298,3446,2,0,L|210:310,2,75,10|10|10,0:0|0:0|0:0,0:0:0:0:
321,250,4018,1,2,0:1:0:0:
240,175,4303,1,2,0:1:0:0:
140,222,4589,6,0,L|74:213,1,50,10|10,0:0|0:0,0:0:0:0:
42,187,4875,2,0,P|30:152|33:123,1,50,10|10,0:0|0:0,0:0:0:0:
47,87,5160,2,0,P|74:72|145:62,1,100,10|10,0:0|0:0,0:0:0:0:
258,84,5732,1,10,0:0:0:0:
184,166,6018,2,0,L|190:233,1,50,10|10,0:0|0:0,0:0:0:0:
173,268,6303,2,0,L|179:335,1,50,10|10,0:0|0:0,0:0:0:0:
215,358,6589,1,10,0:0:0:0:
325,363,6875,6,0,P|380:351|409:307,1,100,2|2,0:0|1:0,0:0:0:0:
420,265,7303,2,0,L|402:162,1,100,2|2,0:0|1:0,0:0:0:0:
420,114,7732,1,2,0:0:0:0:
332,47,8018,5,10,0:0:0:0:
227,79,8303,1,10,0:0:0:0:
122,111,8589,1,10,0:0:0:0:
80,326,9160,6,2,L|188:308,1,100,2|10,1:0|0:0,0:1:0:0:
229,330,9589,1,2,1:0:0:0:
229,330,9732,2,0,L|207:219,1,100,10|2,0:0|1:2,0:0:0:0:
228,180,10160,1,2,1:0:0:0:
324,243,10446,5,10,0:0:0:0:
324,243,10589,2,0,L|433:228,1,100,2|2,1:2|1:2,0:0:0:0:
468,197,11018,2,0,P|462:163|392:133,1,100,10|2,0:0|1:0,0:0:0:0:
363,150,11446,1,10,0:0:0:0:
254,130,11732,2,2,L|281:30,1,100,2|10,1:1|0:0,0:1:0:0:
389,19,12303,5,2,0:1:0:0:
389,19,13732,6,2,P|366:55|300:67,1,100,2|10,1:0|0:0,0:1:0:0:
258,60,14160,1,2,1:0:0:0:
258,60,14303,2,0,L|274:175,1,100,2|10,1:2|0:0,0:0:0:0:
259,213,14732,1,2,1:0:0:0:
170,276,15018,5,2,1:0:0:0:
170,276,15160,2,2,L|161:346,1,50,10|2,0:0|1:0,0:1:0:0:
193,372,15446,2,0,P|259:352|313:346,1,100,10|2,0:0|1:2,0:0:0:0:
400,345,16018,6,0,B|428:302|428:302|417:240,1,100,10|2,0:0|1:0,0:0:0:0:
397,203,16446,1,10,0:0:0:0:
292,185,16732,1,2,1:0:0:0:
292,185,16875,2,2,L|314:71,1,100,2|10,1:0|0:0,0:1:0:0:
295,33,17303,1,10,0:0:0:0:
209,102,17589,6,2,L|137:93,1,50,2|10,1:0|0:0,0:1:0:0:
107,114,17875,2,0,L|125:221,1,100,2|2,1:2|1:0,0:0:0:0:
112,266,18303,5,14,0:0:0:0:
112,266,19446,6,0,P|54:255|4:251,1,100,2|2,0:0|1:2,0:0:0:0:
50,355,20018,2,0,L|116:344,1,50,2|2,1:2|1:2,0:0:0:0:
153,357,20303,2,0,L|219:368,1,50,2|2,1:2|1:0,0:0:0:0:
257,366,20589,6,0,P|290:332|282:265,1,100,10|10,0:0|0:0,0:0:0:0:
255,177,21160,2,0,L|264:110,1,50,10|2,0:0|1:0,0:0:0:0:
256,81,21446,1,10,0:0:0:0:
159,28,21732,6,0,L|47:13,1,100,2|2,1:2|1:0,0:0:0:0:
54,124,22303,2,0,L|63:185,1,50,10|10,0:0|0:0,0:0:0:0:
104,208,22589,2,0,L|113:269,1,50,10|10,0:0|0:0,0:0:0:0:
153,293,22875,6,0,B|200:275|200:275|262:309,1,100,2|2,1:2|0:0,0:0:0:0:
341,349,23446,2,0,B|384:372|384:372|431:354,1,100,2|2,0:0|1:2,0:0:0:0:
484,333,23875,1,2,0:1:0:0:
484,333,24018,6,0,L|474:277,1,50,2|2,1:2|1:2,0:0:0:0:
449,234,24303,2,0,L|459:178,1,50,2|10,1:2|0:0,0:0:0:0:
489,139,24589,2,0,P|464:101|394:83,1,100,2|10,1:0|0:0,0:0:0:0:
307,107,25160,5,14,0:0:0:0:
307,107,27446,6,2,L|241:98,1,50,10|2,0:0|1:0,0:1:0:0:
224,144,27732,2,0,L|234:217,1,50,10|2,0:0|1:2,0:0:0:0:
236,248,28018,2,0,B|136:263|136:263|106:249|104:210,1,150,10|2,0:0|1:2,0:0:0:0:
110,120,28732,5,10,0:0:0:0:
110,120,28875,2,2,P|75:103|50:102,1,50,2|10,1:0|0:0,0:1:0:0:
15,118,29160,1,2,1:0:0:0:
15,118,29303,2,0,L|39:14,1,100,10|2,0:0|1:0,0:0:0:0:
150,43,29875,5,10,0:0:0:0:
150,43,30018,2,2,L|215:30,1,50,2|0,1:0|0:0,0:1:0:0:
248,68,30303,1,10,0:0:0:0:
248,68,30446,2,0,L|313:81,1,50,10|2,0:0|1:2,0:0:0:0:
346,43,30732,1,2,1:2:0:0:
381,147,31018,6,2,L|375:219,1,50,2|2,0:0|0:0,0:1:0:0:
400,246,31303,2,0,L|491:224,2,75,10|10|2,0:0|0:0|1:0,0:0:0:0:
337,341,32018,6,0,L|226:314,1,100,10|10,0:0|0:0,0:0:0:0:
157,244,32589,2,0,L|268:217,1,100,10|10,0:0|0:0,0:0:0:0:
333,144,33160,1,2,1:2:0:0:
9,19,34303,6,0,L|23:137,1,100,10|10,0:0|0:0,0:0:0:0:
113,178,34875,2,0,L|127:60,1,100,10|10,0:0|0:0,0:0:0:0:
217,19,35446,2,0,L|287:27,1,50,2|10,1:2|0:0,0:0:0:0:
305,64,35732,1,2,1:2:0:0:
413,44,36018,2,0,L|422:100,1,50,2|2,0:0|0:0,0:0:0:0:
452,138,36303,2,0,L|443:194,1,50,2|2,0:0|0:0,0:0:0:0:
429,240,36589,6,0,P|377:227|325:205,1,100,2|0,0:0|0:0,0:0:0:0:
236,171,37160,1,2,0:0:0:0:
236,171,37303,2,0,P|184:184|132:206,1,100,0|0,0:0|0:0,0:0:0:0:
105,243,37732,6,0,L|120:304,1,50,2|0,0:0|0:0,0:0:0:0:
133,344,38018,2,0,L|193:331,1,50,2|0,0:0|0:0,0:0:0:0:
231,358,38303,1,2,0:1:0:0:
320,293,38589,1,2,0:1:0:0:
435,322,38875,5,10,0:0:0:0:
435,322,39018,1,10,0:0:0:0:
435,322,39160,2,2,P|441:277|454:210,1,100,2|10,1:0|0:0,0:1:0:0:
474,173,39589,1,10,0:0:0:0:
474,173,39732,1,2,1:2:0:0:
478,70,40018,6,0,P|432:47|389:45,1,75,10|2,0:0|1:0,0:0:0:0:
342,92,40446,2,0,L|351:175,2,75,10|10|10,0:0|0:0|0:0,0:0:0:0:
272,6,41160,5,6,1:2:0:0:
256,192,41232,12,2,43446,0:1:0:0:
256,192,44589,6,0,P|309:176|375:179,1,100,2|2,0:0|0:0,0:0:0:0:
410,194,45018,1,2,0:0:0:0:
410,194,45160,2,0,L|414:133,2,50,2|2|2,0:1|0:1|0:1,0:0:0:0:
397,303,45732,6,2,B|361:324|361:324|283:307,1,100,2|10,1:0|0:0,0:1:0:0:
249,304,46160,2,2,L|138:331,1,100,2|2,1:0|1:2,0:1:0:0:
101,343,46589,1,2,1:0:0:0:
101,343,46732,2,0,L|124:172,1,150,10|2,0:0|1:0,0:0:0:0:
88,89,47446,2,2,L|208:68,1,100,2|10,1:0|0:0,0:1:0:0:
239,101,47875,1,2,1:0:0:0:
239,101,48018,6,0,L|229:170,1,50,10|10,0:0|0:0,0:0:0:0:
260,197,48303,1,2,1:2:0:0:
371,176,48589,1,2,1:2:0:0:
371,176,48732,2,0,L|381:245,2,50,10|2|2,0:0|1:0|1:0,0:0:0:0:
397,127,49160,6,0,L|490:140,1,75,10|2,0:0|1:0,0:0:0:0:
483,55,49589,2,0,L|390:42,2,75,10|10|10,0:0|0:0|0:0,0:0:0:0:
471,164,50303,6,0,L|459:279,1,100,2|10,1:0|0:0,0:0:0:0:
476,321,50732,1,2,1:0:0:0:
476,321,50875,2,0,L|366:305,1,100,2|10,1:2|0:0,0:0:0:0:
338,346,51303,1,2,1:0:0:0:
338,346,51446,5,10,0:0:0:0:
242,291,51732,2,2,L|250:219,1,50,2|2,1:0|1:0,0:1:0:0:
271,191,52018,2,0,P|251:161|184:149,1,100,10|2,0:0|1:2,0:0:0:0:
149,181,52446,1,2,1:2:0:0:
149,181,52589,6,0,L|39:189,1,100,10|2,0:0|1:0,0:0:0:0:
12,229,53018,1,10,0:0:0:0:
81,320,53303,1,2,1:0:0:0:
81,320,53446,2,2,L|179:303,1,100,2|10,1:0|0:0,0:1:0:0:
227,331,53875,1,10,0:0:0:0:
327,285,54160,2,2,L|333:218,1,50,2|10,1:0|0:0,0:1:0:0:
361,188,54446,2,0,L|350:71,1,100,2|2,1:2|1:2,0:0:0:0:
347,33,54875,5,14,0:0:0:0:
256,192,54946,12,0,59160,0:0:0:0:
