osu file format v14

[General]
AudioFilename: audio.mp3
AudioLeadIn: 0
PreviewTime: 25160
Countdown: 0
SampleSet: Soft
StackLeniency: 0.7
Mode: 0
LetterboxInBreaks: 0
WidescreenStoryboard: 0

[Editor]
Bookmarks: 18,4589,9160,13732,18303,22875,27446,32018,36589,41160,45732,50303,54875,59160
DistanceSpacing: 1.5
BeatDivisor: 4
GridSize: 32
TimelineZoom: 2.899999

[Metadata]
Title:broken legs
TitleUnicode:broken legs
Artist:Kola Kid
ArtistUnicode:Kola Kid
Creator:eiri-
Version:hard
Source:osu!
Tags:Ayyri Featured Artist FA Electronic Instrumental Breakcore CONTRA 88
BeatmapID:2428742
BeatmapSetID:1160961

[Difficulty]
HPDrainRate:4.5
CircleSize:3.5
OverallDifficulty:7
ApproachRate:8
SliderMultiplier:1.2
SliderTickRate:1

[Events]
//Background and Video events
0,0,"broken legs.jpg",0,0
//Break Periods
//Storyboard Layer 0 (Background)
//Storyboard Layer 1 (Fail)
//Storyboard Layer 2 (Pass)
//Storyboard Layer 3 (Foreground)
//Storyboard Layer 4 (Overlay)
//Storyboard Sound Samples

[TimingPoints]
18,285.714285714286,4,2,1,50,1,0
54875,-100,4,2,1,75,0,0
55446,-100,4,2,1,65,0,0
56018,-100,4,2,1,55,0,0
56589,-100,4,2,1,45,0,0
57160,-100,4,2,1,35,0,0
57732,-100,4,2,1,25,0,0
58303,-100,4,2,1,15,0,0
58589,-100,4,2,1,10,0,0
58875,-100,4,2,1,7,0,0
59160,-100,4,2,1,5,0,0

[Colours]
Combo1 : 109,157,245
Combo2 : 247,153,91
Combo3 : 244,219,117
Combo4 : 124,231,133

[HitObjects]
45,349,18,6,0,L|25:249,1,90,2|2,0:0|0:0,0:0:0:0:
37,217,303,1,2,0:0:0:0:
121,247,446,2,0,L|185:235,1,60,2|0,0:0|0:0,0:0:0:0:
255,286,732,2,0,L|319:274,1,60,2|0,0:0|0:0,0:0:0:0:
389,325,1018,2,0,L|453:313,1,60,2|0,0:0|0:0,0:0:0:0:
415,136,1446,2,0,L|422:79,2,30,2|2|2,0:0|0:0|0:0,0:0:0:0:
405,226,1732,2,2,B|391:185|391:185|310:195,1,120,2|0,0:1|0:0,0:1:0:0:
167,298,2303,6,2,L|65:282,1,90,10|2,0:0|1:2,0:1:0:0:
37,303,2589,2,2,L|16:201,1,90,2|0,1:2|0:0,0:1:0:0:
43,178,2875,1,10,0:0:0:0:
132,188,3018,1,10,0:0:0:0:
181,113,3160,2,0,L|172:73,3,30,2|2|2|2,1:2|1:2|1:2|1:2,0:0:0:0:
198,45,3446,6,0,L|277:53,1,60,10|0,0:0|0:0,0:0:0:0:
293,78,3660,2,0,L|372:70,1,60,10|0,0:0|0:0,0:0:0:0:
394,52,3875,1,10,0:0:0:0:
464,107,4018,2,0,L|456:186,1,60,2|0,0:1|0:0,0:0:0:0:
398,234,4303,2,0,L|406:313,1,60,2|2,0:1|0:0,0:0:0:0:
324,332,4589,5,10,0:0:0:0:
324,332,4732,2,0,L|316:253,2,60,10|10|10,0:0|0:0|0:0,0:0:0:0:
242,370,5160,2,0,L|165:359,1,60,10|0,0:0|0:0,0:0:0:0:
118,297,5446,2,0,L|41:286,1,60,10|0,0:0|0:0,0:0:0:0:
11,211,5732,5,10,0:0:0:0:
11,211,5875,1,10,0:0:0:0:
87,161,6018,1,10,0:0:0:0:
87,161,6161,1,10,0:0:0:0:
163,211,6303,1,10,0:0:0:0:
163,211,6446,1,10,0:0:0:0:
239,161,6589,1,10,0:0:0:0:
239,161,6732,1,10,0:0:0:0:
315,211,6875,6,0,L|390:196,2,60,2|2|2,0:0|0:0|1:0,0:0:0:0:
277,294,7303,1,2,0:0:0:0:
277,294,7446,2,0,L|285:371,1,60,2|2,0:0|1:0,0:0:0:0:
372,370,7732,2,0,L|380:293,1,60,2|2,0:0|0:0,0:0:0:0:
422,231,8018,5,10,0:0:0:0:
416,215,8303,1,10,0:0:0:0:
410,199,8589,1,10,0:0:0:0:
410,199,9160,6,2,L|416:153,2,30,2|2|10,1:0|1:2|0:0,0:1:0:0:
360,277,9446,1,10,0:0:0:0:
360,277,9589,2,2,P|319:258|253:253,1,90,2|2,1:0|1:2,0:1:0:0:
235,273,9875,1,2,1:2:0:0:
173,206,10018,1,2,1:2:0:0:
97,254,10160,2,2,L|53:263,3,30,2|0|0|0,1:0|1:0|1:0|1:0,0:1:0:0:
25,242,10446,5,10,0:0:0:0:
86,175,10589,1,2,1:2:0:0:
65,87,10732,2,0,P|109:65|140:64,1,60,2|2,1:0|1:2,0:0:0:0:
204,96,11018,2,0,L|199:148,4,30,10|10|10|10|2,0:0|0:0|0:0|0:0|1:0,0:0:0:0:
290,63,11446,5,10,0:0:0:0:
290,63,11589,1,10,0:0:0:0:
331,142,11732,2,2,L|446:157,1,90,2|0,1:1|0:0,0:1:0:0:
455,182,12018,1,10,0:0:0:0:
420,264,12160,1,10,0:0:0:0:
490,320,12303,5,2,0:1:0:0:
490,320,13732,6,2,L|495:268,2,30,2|2|10,1:0|1:2|0:0,0:1:0:0:
407,357,14018,1,10,0:0:0:0:
338,299,14160,1,2,1:0:0:0:
389,225,14303,2,0,L|384:173,3,30,2|2|2|2,1:2|1:2|1:2|1:2,0:0:0:0:
383,149,14589,2,2,L|456:126,1,60,10|2,0:0|1:0,0:1:0:0:
495,58,14875,5,10,0:0:0:0:
415,15,15018,1,2,1:0:0:0:
333,52,15160,2,2,P|303:33|262:22,1,60,10|2,0:0|1:0,0:1:0:0:
198,65,15446,2,0,L|205:117,3,30,10|10|10|10,0:0|0:0|0:0|0:0,0:0:0:0:
227,132,15732,2,0,L|220:184,3,30,2|2|2|2,1:2|1:2|1:2|1:2,0:0:0:0:
215,206,16018,5,10,0:0:0:0:
245,290,16160,1,2,1:2:0:0:
157,312,16303,1,2,1:0:0:0:
69,334,16446,2,2,L|74:280,3,30,10|8|8|8,0:0|0:0|0:0|0:0,0:1:0:0:
58,260,16732,1,2,1:0:0:0:
121,195,16875,2,2,L|114:118,1,60,2|2,1:0|1:2,0:1:0:0:
112,49,17160,5,10,0:0:0:0:
112,49,17303,1,10,0:0:0:0:
196,81,17446,1,2,1:0:0:0:
280,49,17589,2,2,L|274:5,2,30,2|2|10,1:0|1:2|0:0,0:1:0:0:
359,93,17875,2,0,L|353:137,4,30,2|2|2|2|2,1:2|1:2|1:2|1:2|1:0,0:0:0:0:
443,61,18303,5,14,0:0:0:0:
443,61,19446,6,0,L|452:113,2,30,2|2|2,0:0|0:0|0:0,0:0:0:0:
359,96,19732,2,0,L|281:84,1,60,2|2,1:2|0:0,0:0:0:0:
224,36,20018,2,0,L|221:-5,4,30,2|2|2|2|2,1:2|1:2|1:2|1:2|1:2,0:0:0:0:
151,89,20446,1,2,1:0:0:0:
78,142,20589,6,0,L|16:132,2,60,10|10|10,0:0|0:0|0:0,0:0:0:0:
126,218,21018,2,0,L|120:270,3,30,10|10|10|10,0:0|0:0|0:0|0:0,0:0:0:0:
140,288,21303,1,2,1:0:0:0:
223,249,21446,1,10,0:0:0:0:
223,249,21589,1,10,0:0:0:0:
290,306,21732,6,0,L|296:358,3,30,2|2|2|2,1:2|1:2|1:2|1:2,0:0:0:0:
321,371,22018,1,2,1:0:0:0:
401,331,22160,1,2,1:0:0:0:
401,331,22303,2,0,P|420:294|421:273,1,60,10|10,0:0|0:0,0:0:0:0:
364,205,22589,2,0,P|345:168|344:147,1,60,10|10,0:0|0:0,0:0:0:0:
394,76,22875,5,2,1:2:0:0:
394,76,23018,2,0,L|466:63,2,60,2|2|2,0:0|0:0|0:1,0:0:0:0:
317,39,23446,1,2,0:0:0:0:
317,39,23589,2,0,L|245:26,2,60,2|2|2,1:2|1:2|0:1,0:0:0:0:
311,129,24018,6,0,L|307:174,5,30,2|2|2|2|2|2,1:2|1:2|1:2|1:2|1:2|1:2,0:0:0:0:
321,201,24446,1,10,0:0:0:0:
278,277,24589,2,0,L|206:264,1,60,2|0,1:0|0:0,0:0:0:0:
129,250,24875,1,10,0:0:0:0:
50,293,25018,1,2,1:0:0:0:
20,208,25160,5,14,0:0:0:0:
20,208,27446,6,2,L|32:281,1,60,10|2,0:0|1:0,0:1:0:0:
45,356,27732,2,0,L|118:344,1,60,10|2,0:0|1:2,0:0:0:0:
175,290,28018,1,10,0:0:0:0:
241,349,28160,2,0,L|314:337,1,60,2|2,1:2|1:0,0:0:0:0:
389,355,28446,6,0,L|410:285,1,60,2|2,1:2|1:0,0:0:0:0:
369,214,28732,1,10,0:0:0:0:
416,137,28875,2,2,L|453:131,2,30,2|2|10,1:0|1:2|0:0,0:1:0:0:
339,90,29160,1,2,1:0:0:0:
254,120,29303,2,0,L|217:114,3,30,10|10|10|10,0:0|0:0|0:0|0:0,0:0:0:0:
185,137,29589,1,2,1:0:0:0:
129,72,29732,5,10,0:0:0:0:
129,72,29875,2,0,L|50:88,2,60,10|2|2,0:0|1:0|1:2,0:0:0:0:
200,16,30303,1,10,0:0:0:0:
200,16,30446,1,10,0:0:0:0:
283,49,30589,2,0,L|320:43,3,30,2|2|2|2,1:2|1:2|1:2|1:2,0:0:0:0:
351,67,30875,6,0,L|427:79,1,60,10|2,0:0|0:0,0:0:0:0:
453,62,31089,2,0,L|439:142,1,60,2|0,1:2|0:0,0:0:0:0:
458,163,31303,1,10,0:0:0:0:
504,290,31518,1,10,0:0:0:0:
387,358,31732,2,2,L|295:343,1,90,2|0,1:0|0:0,0:1:0:0:
266,311,32018,6,0,L|260:264,3,30,10|8|8|8,0:0|0:0|0:0|0:0,0:0:0:0:
240,242,32303,2,0,L|246:195,3,30,10|8|8|8,0:0|0:0|0:0|0:0,0:0:0:0:
266,173,32589,2,0,L|260:126,3,30,10|8|8|8,0:0|0:0|0:0|0:0,0:0:0:0:
240,104,32875,2,0,L|246:57,3,30,10|8|8|8,0:0|0:0|0:0|0:0,0:0:0:0:
266,35,33160,5,2,1:2:0:0:
266,35,34303,6,0,L|260:82,3,30,10|8|8|8,0:0|0:0|0:0|0:0,0:0:0:0:
240,104,34589,2,0,L|246:151,3,30,10|8|8|8,0:0|0:0|0:0|0:0,0:0:0:0:
266,173,34875,2,0,L|260:220,3,30,10|8|8|8,0:0|0:0|0:0|0:0,0:0:0:0:
240,242,35160,2,0,L|246:289,3,30,10|8|8|8,0:0|0:0|0:0|0:0,0:0:0:0:
266,311,35446,6,0,L|257:377,1,60,2|10,1:2|0:0,0:0:0:0:
345,345,35732,2,0,L|354:279,1,60,2|2,1:2|1:0,0:0:0:0:
367,199,36018,1,2,0:0:0:0:
367,199,36160,1,2,0:0:0:0:
433,138,36303,1,2,0:0:0:0:
433,138,36445,1,2,0:0:0:0:
377,66,36589,6,0,L|314:77,1,60,2|0,0:0|0:0,0:0:0:0:
235,38,36875,1,0,0:0:0:0:
167,98,37018,1,0,0:0:0:0:
77,89,37160,2,0,L|88:152,1,60,2|0,0:0|0:0,0:0:0:0:
153,209,37446,2,0,L|142:272,1,60,0|0,0:0|0:0,0:0:0:0:
84,337,37732,6,0,L|39:328,2,30,2|0|0,0:0|0:0|0:0,0:0:0:0:
165,376,38018,1,2,0:0:0:0:
240,327,38160,1,0,0:0:0:0:
325,355,38303,2,0,L|341:271,1,60,2|0,0:1|0:0,0:0:0:0:
307,210,38589,2,0,L|291:126,1,60,2|0,0:1|0:0,0:0:0:0:
323,67,38875,5,10,0:0:0:0:
323,67,39018,1,10,0:0:0:0:
237,93,39160,2,2,P|200:86|172:26,1,90,2|0,1:0|0:0,0:1:0:0:
183,0,39446,1,10,0:0:0:0:
95,20,39589,1,10,0:0:0:0:
107,109,39732,2,0,L|97:146,3,30,2|2|2|2,1:2|1:2|1:2|1:2,0:0:0:0:
122,177,40018,6,0,L|131:278,1,90,10|2,0:0|1:0,0:0:0:0:
264,258,40446,2,0,L|255:157,2,90,10|10|10,0:0|0:0|0:0,0:0:0:0:
273,348,41018,1,2,1:2:0:0:
362,339,41160,5,6,1:2:0:0:
256,192,41232,12,2,43446,0:1:0:0:
362,339,44589,6,0,L|366:287,2,30,2|2|2,0:0|0:0|0:0,0:0:0:0:
284,292,44875,2,0,L|288:240,2,30,2|2|2,0:0|0:0|0:0,0:0:0:0:
206,337,45160,2,0,L|134:344,1,60,2|2,0:1|0:1,0:0:0:0:
70,293,45446,1,2,0:1:0:0:
179,142,45732,6,2,L|184:61,2,60,2|10|10,1:0|0:0|0:0,0:1:0:0:
239,208,46160,2,2,L|321:201,1,60,2|10,1:0|0:0,0:1:0:0:
386,172,46446,1,2,1:2:0:0:
386,172,46589,1,2,1:0:0:0:
437,246,46732,2,2,L|434:286,3,30,10|10|10|10,0:0|0:0|0:0|0:0,0:1:0:0:
431,321,47018,6,0,L|349:314,1,60,2|2,1:0|1:0,0:0:0:0:
302,374,47303,1,10,0:0:0:0:
225,337,47446,1,2,1:0:0:0:
225,337,47589,2,2,L|195:339,2,30,10|10|10,0:0|0:0|0:0,0:1:0:0:
294,278,47875,1,2,1:0:0:0:
261,193,48018,5,10,0:0:0:0:
261,193,48160,1,10,0:0:0:0:
330,134,48303,2,0,L|360:136,5,30,2|2|2|2|2|2,1:2|1:2|1:2|1:2|1:2|1:2,0:0:0:0:
400,115,48732,1,10,0:0:0:0:
360,34,48875,2,0,L|293:38,1,60,2|2,1:0|1:0,0:0:0:0:
234,99,49160,6,0,L|140:85,1,90,10|2,0:0|1:0,0:0:0:0:
122,219,49589,2,0,L|216:233,2,90,10|10|10,0:0|0:0|0:0,0:0:0:0:
49,272,50160,1,2,1:2:0:0:
117,338,50303,5,2,1:0:0:0:
117,338,50446,1,2,1:0:0:0:
201,306,50589,2,0,L|214:380,1,60,10|2,0:0|1:0,0:0:0:0:
295,330,50875,2,0,L|285:274,3,30,2|2|2|2,1:2|1:2|1:2|1:2,0:0:0:0:
307,259,51160,2,2,L|294:185,1,60,10|2,0:0|1:0,0:1:0:0:
282,110,51446,5,10,0:0:0:0:
369,133,51589,1,2,1:0:0:0:
396,47,51732,2,0,L|479:33,1,60,2|2,1:0|1:0,0:0:0:0:
490,120,52018,2,0,L|485:173,3,30,10|10|10|10,0:0|0:0|0:0|0:0,0:0:0:0:
460,186,52303,2,0,L|465:239,3,30,2|2|2|2,1:2|1:2|1:2|1:2,0:0:0:0:
487,254,52589,5,10,0:0:0:0:
430,324,52732,2,0,L|347:310,1,60,2|2,1:0|1:0,0:0:0:0:
281,299,53018,2,2,L|285:344,3,30,10|2|2|2,0:0|1:2|1:2|1:2,0:1:0:0:
269,371,53303,1,2,1:0:0:0:
184,340,53446,2,2,L|85:357,1,90,2|0,1:0|0:0,0:1:0:0:
52,339,53732,5,10,0:0:0:0:
86,255,53875,1,10,0:0:0:0:
21,192,54018,2,0,L|25:106,1,60,2|2,1:0|1:0,0:0:0:0:
32,42,54303,2,0,L|79:48,3,30,10|10|2|2,0:0|0:0|1:2|1:2,0:0:0:0:
97,74,54589,2,0,L|144:68,3,30,2|2|2|2,1:2|1:2|1:2|1:2,0:0:0:0:
162,42,54875,5,14,0:0:0:0:
256,192,54946,12,0,59160,0:0:0:0:
