osu file format v14

[General]
AudioFilename: audio.mp3
AudioLeadIn: 0
PreviewTime: 25160
Countdown: 0
SampleSet: Soft
StackLeniency: 0.3
Mode: 0
LetterboxInBreaks: 0
WidescreenStoryboard: 0

[Editor]
Bookmarks: 18,4589,9160,13732,18303,22875,27446,32018,36589,41160,45732,50303,54875,59160
DistanceSpacing: 1.5
BeatDivisor: 4
GridSize: 32
TimelineZoom: 2.899999

[Metadata]
Title:broken legs
TitleUnicode:broken legs
Artist:Kola Kid
ArtistUnicode:Kola Kid
Creator:eiri-
Version:game over
Source:osu!
Tags:Ayyri Featured Artist FA Electronic Instrumental Breakcore CONTRA 88
BeatmapID:2422137
BeatmapSetID:1160961

[Difficulty]
HPDrainRate:5
CircleSize:4
OverallDifficulty:8.5
ApproachRate:9.5
SliderMultiplier:1.6
SliderTickRate:1

[Events]
//Background and Video events
0,0,"broken legs.jpg",0,0
//Break Periods
//Storyboard Layer 0 (Background)
//Storyboard Layer 1 (Fail)
//Storyboard Layer 2 (Pass)
//Storyboard Layer 3 (Foreground)
//Storyboard Layer 4 (Overlay)
//Storyboard Sound Samples

[TimingPoints]
18,285.714285714286,4,2,1,50,1,0
2303,-66.6666666666667,4,2,1,50,0,0
2589,-50,4,2,1,50,0,0
2875,-66.6666666666667,4,2,1,50,0,0
54875,-66.6666666666667,4,2,1,75,0,0
55446,-66.6666666666667,4,2,1,65,0,0
56018,-66.6666666666667,4,2,1,55,0,0
56589,-66.6666666666667,4,2,1,45,0,0
57160,-66.6666666666667,4,2,1,35,0,0
57732,-66.6666666666667,4,2,1,25,0,0
58303,-66.6666666666667,4,2,1,15,0,0
58589,-66.6666666666667,4,2,1,10,0,0
58875,-66.6666666666667,4,2,1,7,0,0
59160,-66.6666666666667,4,2,1,5,0,0

[Colours]
Combo1 : 109,157,245
Combo2 : 247,153,91
Combo3 : 244,219,117
Combo4 : 124,231,133

[HitObjects]
409,341,18,5,2,0:0:0:0:
419,296,89,1,2,0:0:0:0:
430,251,160,1,2,0:0:0:0:
441,207,232,1,2,0:0:0:0:
451,162,303,1,2,0:0:0:0:
460,175,446,5,2,0:0:0:0:
315,221,732,1,2,0:0:0:0:
170,267,1018,1,2,0:0:0:0:
170,267,1446,5,2,0:0:0:0:
189,250,1518,1,2,0:0:0:0:
176,206,1589,1,2,0:0:0:0:
182,347,1732,6,2,L|183:385,6,26.6666666666667,2|0|0|0|0|0|0,0:1|0:0|0:0|0:0|0:0|0:0|0:0,0:1:0:0:
182,347,2303,6,0,L|324:326,1,120.000004577637,10|10,0:0|0:0,0:0:0:0:
471,316,2518,1,2,1:2:0:0:
467,326,2589,6,2,L|211:289,1,240,2|0,1:2|0:0,0:1:0:0:
32,352,2875,1,10,0:0:0:0:
32,352,3018,1,10,0:0:0:0:
32,352,3160,2,0,L|16:277,3,60.0000022888184,2|2|2|2,1:2|1:2|1:2|1:2,0:0:0:0:
53,318,3446,6,0,L|81:185,1,120.000004577637,10|0,0:0|0:0,0:0:0:0:
44,124,3660,2,0,L|16:-9,1,120.000004577637,10|0,0:0|0:0,0:0:0:0:
36,149,3875,2,0,L|60:254,1,60.0000022888184,10|0,0:0|0:0,0:0:0:0:
103,375,4018,6,2,B|202:370|156:297|280:290,1,180.000006866455,2|0,0:1|0:0,0:1:0:0:
409,375,4303,2,2,B|310:370|356:297|232:290,1,180.000006866455,2|0,0:1|0:0,0:1:0:0:
256,272,4589,5,10,0:0:0:0:
256,252,4660,1,8,0:0:0:0:
256,232,4732,1,10,0:0:0:0:
256,212,4803,1,8,0:0:0:0:
256,192,4875,1,10,0:0:0:0:
256,172,4945,1,8,0:0:0:0:
256,152,5017,1,10,0:0:0:0:
256,132,5088,1,8,0:0:0:0:
256,112,5160,6,2,L|246:70,6,30.0000011444092,10|8|8|8|8|8|8,0:0|0:0|0:0|0:0|0:0|0:0|0:0,0:1:0:0:
342,35,5446,2,2,L|332:77,6,30.0000011444092,10|8|8|8|8|8|8,0:0|0:0|0:0|0:0|0:0|0:0|0:0,0:1:0:0:
393,141,5732,5,10,0:0:0:0:
512,109,5875,1,10,0:0:0:0:
417,10,6018,1,10,0:0:0:0:
298,42,6161,1,10,0:0:0:0:
119,141,6303,5,10,0:0:0:0:
0,109,6446,1,10,0:0:0:0:
95,10,6589,1,10,0:0:0:0:
214,42,6732,1,10,0:0:0:0:
256,192,6875,5,2,0:0:0:0:
256,160,7018,1,2,0:0:0:0:
256,288,7160,1,2,1:0:0:0:
256,160,7303,5,2,0:0:0:0:
256,128,7446,1,2,0:0:0:0:
256,320,7589,2,0,L|256:386,1,60.0000022888184,2|2,1:0|0:0,0:0:0:0:
256,128,7732,5,2,0:0:0:0:
256,224,7875,1,2,0:0:0:0:
256,380,8018,5,10,0:0:0:0:
438,336,8303,1,10,0:0:0:0:
64,288,8589,1,10,0:0:0:0:
64,288,9160,6,2,L|57:252,2,30.0000011444092,2|0|0,1:0|1:0|1:0,0:1:0:0:
59,368,9303,1,10,0:0:0:0:
59,368,9446,2,0,L|203:341,1,120.000004577637,10|2,0:0|1:0,0:0:0:0:
361,369,9732,1,10,0:0:0:0:
349,327,9803,1,2,1:2:0:0:
361,285,9875,1,2,1:2:0:0:
349,243,9946,1,10,0:0:0:0:
361,201,10018,1,2,1:2:0:0:
415,69,10160,6,2,L|411:34,6,30.0000011444092,2|0|0|0|0|0|0,1:0|1:0|1:0|1:0|1:0|1:0|1:0,0:1:0:0:
421,119,10446,1,10,0:0:0:0:
192,64,10589,1,2,1:2:0:0:
288,32,10732,1,2,1:0:0:0:
182,225,10875,2,2,L|186:260,2,30.0000011444092,2|0|0,1:2|1:0|1:0,0:1:0:0:
178,195,11018,5,10,0:0:0:0:
126,211,11089,1,10,0:0:0:0:
173,174,11160,5,10,0:0:0:0:
121,190,11231,1,10,0:0:0:0:
141,158,11303,5,2,1:0:0:0:
115,368,11446,6,0,P|97:328|63:286,1,60.0000022888184,10|2,0:0|1:2,0:0:0:0:
237,374,11589,2,0,P|270:345|318:321,1,60.0000022888184,10|2,0:0|1:2,0:0:0:0:
491,350,11732,2,2,B|415:367|415:367|373:239,1,180.000006866455,2|0,1:1|0:0,0:1:0:0:
355,166,12018,2,0,L|348:247,1,60.0000022888184,10|0,0:0|0:0,0:0:0:0:
379,87,12160,2,0,L|386:168,1,60.0000022888184,10|0,0:0|0:0,0:0:0:0:
350,14,12303,5,2,0:1:0:0:
350,14,13732,6,2,L|397:7,2,30.0000011444092,2|0|0,1:0|1:0|1:0,0:1:0:0:
276,69,13875,1,10,0:0:0:0:
276,69,14018,2,0,L|287:199,1,120.000004577637,10|2,0:0|1:0,0:0:0:0:
314,337,14303,1,2,1:2:0:0:
314,337,14375,1,2,1:2:0:0:
314,337,14446,1,2,1:2:0:0:
314,337,14518,1,2,1:2:0:0:
314,337,14589,2,2,L|323:287,2,30.0000011444092,10|8|8,0:0|0:0|0:0,0:1:0:0:
239,378,14732,1,2,1:0:0:0:
429,350,14875,5,10,0:0:0:0:
160,288,15018,1,2,1:0:0:0:
409,240,15160,2,2,L|400:190,2,30.0000011444092,10|0|0,0:0|0:0|0:0,0:1:0:0:
484,281,15303,1,2,1:0:0:0:
508,110,15446,5,10,0:0:0:0:
500,105,15518,1,10,0:0:0:0:
492,100,15589,1,10,0:0:0:0:
484,95,15660,1,10,0:0:0:0:
445,105,15732,5,2,1:2:0:0:
437,100,15804,1,2,1:2:0:0:
396,39,15875,5,2,1:2:0:0:
388,34,15947,1,2,1:2:0:0:
318,64,16018,5,10,0:0:0:0:
360,216,16160,2,0,L|374:146,1,60.0000022888184,2|10,1:2|0:0,0:0:0:0:
403,348,16303,2,2,L|443:333,2,30.0000011444092,2|0|0,1:0|1:0|1:0,0:1:0:0:
282,329,16446,2,2,L|242:314,6,30.0000011444092,10|8|8|8|8|8|8,0:0|0:0|0:0|0:0|0:0|0:0|0:0,0:1:0:0:
298,366,16732,1,2,1:0:0:0:
253,175,16875,2,2,L|227:49,1,120.000004577637,2|2,1:0|1:2,0:1:0:0:
216,82,17089,1,2,1:2:0:0:
216,82,17160,6,0,L|133:67,1,60.0000022888184,10|0,0:0|0:0,0:0:0:0:
5,161,17303,2,0,L|88:146,1,60.0000022888184,10|0,0:0|0:0,0:0:0:0:
5,29,17446,1,2,1:0:0:0:
5,29,17589,2,2,L|2:73,2,30.0000011444092,2|0|0,1:0|1:0|1:0,0:1:0:0:
22,7,17732,1,10,0:0:0:0:
56,271,17875,5,2,1:2:0:0:
69,266,17946,1,2,1:2:0:0:
118,209,18018,5,2,1:2:0:0:
131,214,18089,1,2,1:2:0:0:
180,271,18160,6,2,L|176:314,2,30.0000011444092,2|0|0,1:0|1:0|1:0,0:1:0:0:
209,236,18303,5,14,0:0:0:0:
209,236,19446,6,0,L|285:227,1,60.0000022888184,2|2,0:0|0:0,0:0:0:0:
296,255,19589,2,0,L|372:246,1,60.0000022888184,2|2,0:0|0:0,0:0:0:0:
501,234,19732,2,0,P|484:154|484:106,1,120.000004577637,2|2,1:2|0:0,0:0:0:0:
416,348,20018,1,2,1:2:0:0:
382,313,20089,1,2,1:2:0:0:
356,272,20160,1,2,1:2:0:0:
340,228,20232,1,2,1:2:0:0:
334,180,20303,2,0,L|347:121,1,60.0000022888184,2|0,1:2|0:0,0:0:0:0:
375,13,20446,2,0,L|281:46,1,60.0000022888184,2|0,1:0|0:0,0:0:0:0:
142,90,20589,6,0,L|125:17,1,60.0000022888184,10|0,0:0|1:0,0:0:0:0:
168,184,20732,2,0,L|185:111,1,60.0000022888184,10|0,0:0|1:0,0:0:0:0:
142,278,20875,2,0,L|125:205,1,60.0000022888184,10|0,0:0|1:0,0:0:0:0:
167,376,21018,5,10,0:0:0:0:
193,365,21089,1,10,0:0:0:0:
182,339,21160,1,10,0:0:0:0:
156,350,21232,1,10,0:0:0:0:
174,356,21303,2,0,L|258:338,1,60.0000022888184,2|0,1:0|0:0,0:0:0:0:
396,312,21446,1,10,0:0:0:0:
160,259,21589,1,10,0:0:0:0:
474,220,21732,5,2,1:2:0:0:
479,208,21803,1,2,1:2:0:0:
451,141,21875,5,2,1:2:0:0:
446,129,21946,1,2,1:2:0:0:
474,62,22018,6,2,L|489:26,2,30.0000011444092,2|0|0,1:0|1:0|1:0,0:1:0:0:
393,70,22160,2,2,L|349:52,2,30.0000011444092,10|8|8,0:0|0:0|0:0,0:1:0:0:
446,129,22303,6,0,P|374:116|309:131,1,120.000004577637,10|10,0:0|0:0,0:0:0:0:
112,218,22589,1,10,0:0:0:0:
112,218,22660,1,10,0:0:0:0:
112,218,22732,1,10,0:0:0:0:
112,218,22803,1,10,0:0:0:0:
134,246,22875,6,2,L|130:303,2,30.0000011444092,2|0|0,1:2|1:0|1:0,0:1:0:0:
148,121,23018,1,2,1:2:0:0:
307,144,23160,1,2,1:2:0:0:
281,379,23303,2,2,L|235:337,1,60.0000022888184,2|2,0:1|0:1,0:1:0:0:
134,246,23446,5,2,0:0:0:0:
148,121,23590,1,2,1:2:0:0:
307,144,23732,1,2,1:2:0:0:
281,379,23875,2,2,L|235:337,1,60.0000022888184,2|2,0:1|0:1,0:1:0:0:
134,246,24018,5,2,1:2:0:0:
161,234,24089,1,2,1:2:0:0:
188,246,24160,1,2,1:2:0:0:
215,234,24232,1,2,1:2:0:0:
242,246,24303,1,2,1:2:0:0:
269,234,24375,1,2,1:2:0:0:
296,246,24446,2,0,L|380:237,1,60.0000022888184,10|0,0:0|0:0,0:0:0:0:
490,226,24589,6,2,L|499:183,4,30.0000011444092,2|0|0|0|0,1:0|1:0|1:0|1:0|1:0,0:1:0:0:
471,71,24875,1,10,0:0:0:0:
471,71,24946,1,10,0:0:0:0:
471,71,25018,2,2,L|462:28,2,30.0000011444092,2|0|0,1:0|1:0|1:0,0:1:0:0:
454,119,25160,5,14,0:0:0:0:
454,119,27446,5,10,0:0:0:0:
304,176,27589,2,0,L|223:159,1,60.0000022888184,2|2,1:0|1:2,0:0:0:0:
56,124,27732,2,0,L|184:98,1,120.000004577637,10|2,0:0|1:2,0:0:0:0:
368,35,28018,1,10,0:0:0:0:
373,84,28089,2,0,L|382:184,1,60.0000022888184,2|2,1:0|1:2,0:0:0:0:
400,345,28232,1,10,0:0:0:0:
405,296,28303,2,0,L|500:263,1,60.0000022888184,2|0,1:0|0:0,0:0:0:0:
224,256,28446,1,2,1:2:0:0:
244,363,28589,6,2,L|250:313,2,30.0000011444092,2|0|0,1:0|1:0|1:0,0:1:0:0:
235,376,28732,1,10,0:0:0:0:
53,309,28875,2,2,L|47:259,2,30.0000011444092,2|0|0,1:0|1:0|1:0,0:1:0:0:
62,322,29018,1,10,0:0:0:0:
169,156,29160,2,2,L|175:106,2,30.0000011444092,2|0|0,1:0|1:0|1:0,0:1:0:0:
160,169,29303,5,10,0:0:0:0:
207,162,29374,1,10,0:0:0:0:
254,168,29446,1,10,0:0:0:0:
300,162,29518,1,10,0:0:0:0:
346,168,29589,1,2,1:0:0:0:
270,26,29732,6,0,L|263:85,1,60.0000022888184,10|2,0:0|1:2,0:0:0:0:
404,315,29875,2,0,L|395:235,1,60.0000022888184,10|2,0:0|1:2,0:0:0:0:
387,143,30018,2,2,L|377:198,6,30.0000011444092,2|0|0|0|0|0|0,1:0|1:0|1:0|1:0|1:0|1:0|1:0,0:1:0:0:
382,98,30303,1,10,0:0:0:0:
512,142,30446,1,10,0:0:0:0:
256,224,30589,5,2,1:2:0:0:
245,216,30660,1,2,1:2:0:0:
198,221,30732,5,2,1:2:0:0:
187,213,30803,1,2,1:2:0:0:
140,218,30875,6,0,P|108:147|124:85,1,120.000004577637,10|2,0:0|0:0,0:0:0:0:
143,10,31089,2,2,L|145:53,4,30.0000011444092,2|0|0|0|0,1:0|1:0|1:0|1:0|1:0,0:1:0:0:
156,25,31303,6,0,L|289:8,1,120.000004577637,10|0,0:0|0:0,0:0:0:0:
360,113,31518,2,0,L|227:96,1,120.000004577637,10|0,0:0|0:0,0:0:0:0:
430,41,31732,2,2,L|425:83,6,30.0000011444092,2|0|0|0|0|0|0,1:0|1:0|1:0|1:0|1:0|1:0|1:0,0:1:0:0:
438,5,32018,5,10,0:0:0:0:
443,40,32089,1,8,0:0:0:0:
448,76,32160,1,8,0:0:0:0:
453,111,32232,1,8,0:0:0:0:
458,147,32304,5,10,0:0:0:0:
422,152,32375,1,8,0:0:0:0:
386,157,32446,1,8,0:0:0:0:
351,162,32518,1,8,0:0:0:0:
316,167,32590,5,10,0:0:0:0:
311,131,32661,1,8,0:0:0:0:
306,95,32732,1,8,0:0:0:0:
301,60,32804,1,8,0:0:0:0:
296,25,32875,5,10,0:0:0:0:
332,20,32946,1,8,0:0:0:0:
368,15,33017,1,8,0:0:0:0:
403,10,33089,1,8,0:0:0:0:
439,5,33160,5,2,1:2:0:0:
439,5,34303,5,10,0:0:0:0:
403,10,34375,1,8,0:0:0:0:
368,15,34446,1,8,0:0:0:0:
332,20,34518,1,8,0:0:0:0:
296,25,34589,5,10,0:0:0:0:
301,60,34660,1,8,0:0:0:0:
306,95,34732,1,8,0:0:0:0:
311,131,34803,1,8,0:0:0:0:
316,167,34875,5,10,0:0:0:0:
351,162,34946,1,8,0:0:0:0:
386,157,35018,1,8,0:0:0:0:
422,152,35089,1,8,0:0:0:0:
458,147,35160,5,10,0:0:0:0:
453,111,35232,1,8,0:0:0:0:
448,76,35303,1,8,0:0:0:0:
443,40,35375,1,8,0:0:0:0:
438,5,35446,6,0,L|519:17,3,60.0000022888184,2|10|10|10,1:2|0:0|0:0|0:0,0:0:0:0:
464,34,35732,1,2,1:2:0:0:
286,60,35875,2,2,L|236:69,2,30.0000011444092,2|0|0,1:0|1:0|1:0,0:1:0:0:
326,53,36018,5,2,0:0:0:0:
351,162,36160,1,2,0:0:0:0:
121,206,36303,1,2,0:0:0:0:
96,97,36446,1,2,0:0:0:0:
306,274,36589,6,0,P|243:249|181:249,1,120.000004577637,2|0,0:0|0:0,0:0:0:0:
30,358,36875,1,0,0:0:0:0:
30,358,37018,1,0,0:0:0:0:
63,372,37160,2,0,P|157:349|204:322,1,120.000004577637,2|0,0:0|0:0,0:0:0:0:
250,291,37446,1,0,0:0:0:0:
321,187,37589,1,0,0:0:0:0:
356,16,37732,6,0,L|363:84,2,60.0000022888184,2|0|0,0:0|0:0|0:0,0:0:0:0:
503,146,38018,2,0,L|510:78,2,60.0000022888184,2|0|0,0:0|0:0|0:0,0:0:0:0:
360,275,38303,2,0,P|300:201|237:205,1,120.000004577637,2|0,0:1|0:0,0:0:0:0:
435,336,38589,2,0,P|509:276|505:213,1,120.000004577637,2|0,0:1|0:0,0:0:0:0:
211,265,38875,5,10,0:0:0:0:
421,206,39018,1,10,0:0:0:0:
128,160,39160,2,2,L|130:113,6,30.0000011444092,2|0|0|0|0|0|0,1:0|1:0|1:0|1:0|1:0|1:0|1:0,0:1:0:0:
139,201,39446,1,10,0:0:0:0:
158,14,39589,1,10,0:0:0:0:
294,29,39732,5,2,1:2:0:0:
293,40,39803,1,2,1:2:0:0:
279,75,39875,5,2,1:2:0:0:
280,86,39946,1,2,1:2:0:0:
294,121,40018,6,0,P|369:88|439:84,1,120.000004577637,10|0,0:0|0:0,0:0:0:0:
502,144,40232,2,2,L|461:138,4,30.0000011444092,2|0|0|0|0,1:0|1:0|1:0|1:0|1:0,0:1:0:0:
496,168,40446,6,0,L|512:303,1,120.000004577637,10|0,0:0|0:0,0:0:0:0:
432,364,40660,2,0,L|416:229,1,120.000004577637,10|0,0:0|0:0,0:0:0:0:
322,189,40875,2,0,L|339:323,1,120.000004577637,10|2,0:0|1:2,0:0:0:0:
339,325,41089,1,2,1:2:0:0:
341,343,41160,5,6,1:2:0:0:
256,192,41232,12,2,43446,0:1:0:0:
256,192,44589,5,2,0:0:0:0:
256,192,44660,1,2,0:0:0:0:
256,192,44732,2,0,L|265:119,1,60.0000022888184,2|0,0:0|0:0,0:0:0:0:
359,253,44875,5,2,0:0:0:0:
359,253,44946,1,2,0:0:0:0:
359,253,45018,2,0,L|350:180,1,60.0000022888184,2|0,0:0|0:0,0:0:0:0:
204,332,45160,6,0,L|213:259,1,60.0000022888184,2|0,0:1|0:0,0:0:0:0:
434,366,45303,2,0,L|425:293,1,60.0000022888184,2|0,0:1|0:0,0:0:0:0:
122,377,45446,5,2,0:1:0:0:
122,377,45732,6,2,L|71:369,2,30.0000011444092,2|0|0,1:0|1:0|1:0,0:1:0:0:
204,332,45875,1,10,0:0:0:0:
207,302,45946,1,10,0:0:0:0:
211,272,46017,1,10,0:0:0:0:
214,242,46089,1,10,0:0:0:0:
218,212,46160,6,2,L|269:204,2,30.0000011444092,2|0|0,1:0|1:0|1:0,0:1:0:0:
141,155,46303,2,2,L|90:147,2,30.0000011444092,10|8|8,0:0|0:0|0:0,0:1:0:0:
181,130,46446,1,2,1:2:0:0:
195,99,46517,1,10,0:0:0:0:
178,55,46589,1,2,1:0:0:0:
201,238,46732,2,2,L|208:288,2,30.0000011444092,10|8|8,0:0|0:0|0:0,0:1:0:0:
199,212,46875,6,0,P|267:182|376:176,1,180.000006866455,10|2,0:0|1:2,0:0:0:0:
445,201,47160,1,2,1:0:0:0:
271,133,47303,1,10,0:0:0:0:
491,68,47446,2,2,L|485:20,2,30.0000011444092,2|0|0,1:0|1:0|1:0,0:1:0:0:
456,147,47589,2,2,L|446:196,2,30.0000011444092,10|8|8,0:0|0:0|0:0,0:1:0:0:
458,136,47732,5,10,0:0:0:0:
424,116,47803,1,10,0:0:0:0:
373,135,47875,1,2,1:0:0:0:
416,352,48018,6,0,L|436:249,1,60.0000022888184,10|2,0:0|1:2,0:0:0:0:
458,136,48160,2,0,L|438:239,1,60.0000022888184,10|2,0:0|1:2,0:0:0:0:
411,372,48303,5,2,1:2:0:0:
364,356,48375,1,2,1:2:0:0:
317,372,48446,1,2,1:2:0:0:
270,356,48518,1,2,1:2:0:0:
223,372,48589,1,2,1:2:0:0:
176,356,48661,1,2,1:2:0:0:
129,372,48732,2,0,L|115:277,1,60.0000022888184,10|0,0:0|0:0,0:0:0:0:
96,103,48875,1,2,1:0:0:0:
96,103,49018,2,2,L|99:47,2,30.0000011444092,2|0|0,1:0|1:0|1:0,0:1:0:0:
95,155,49160,6,0,L|222:134,1,120.000004577637,10|0,0:0|0:0,0:0:0:0:
352,118,49375,2,2,L|355:62,4,30.0000011444092,2|0|0|0|0,1:0|1:0|1:0|1:0|1:0,0:1:0:0:
350,173,49589,6,0,P|430:135|427:69,1,120.000004577637,10|0,0:0|0:0,0:0:0:0:
307,258,49803,2,0,P|370:320|431:294,1,120.000004577637,10|0,0:0|0:0,0:0:0:0:
212,246,50018,2,0,P|175:326|219:375,1,120.000004577637,10|2,0:0|1:2,0:0:0:0:
192,358,50232,1,2,1:2:0:0:
205,369,50303,5,2,1:0:0:0:
234,144,50446,1,2,1:0:0:0:
246,272,50589,1,10,0:0:0:0:
42,269,50732,2,2,L|49:317,2,30.0000011444092,2|0|0,1:0|1:0|1:0,0:1:0:0:
22,224,50875,5,2,1:2:0:0:
27,188,50946,1,2,1:2:0:0:
79,133,51017,5,2,1:2:0:0:
73,97,51089,1,2,1:2:0:0:
22,42,51160,6,2,L|15:-6,2,30.0000011444092,10|8|8,0:0|0:0|0:0,0:1:0:0:
16,57,51303,5,2,1:0:0:0:
224,32,51446,1,10,0:0:0:0:
212,238,51589,2,0,L|217:144,1,60.0000022888184,2|10,1:0|0:0,0:0:0:0:
224,32,51732,2,2,L|231:80,2,30.0000011444092,2|0|0,1:0|1:0|1:0,0:1:0:0:
230,17,51875,1,2,1:0:0:0:
324,109,52018,5,10,0:0:0:0:
365,105,52089,1,10,0:0:0:0:
407,101,52160,1,10,0:0:0:0:
449,97,52232,1,10,0:0:0:0:
491,93,52303,5,2,1:2:0:0:
489,107,52375,1,2,1:2:0:0:
461,177,52446,5,2,1:2:0:0:
463,191,52518,1,2,1:2:0:0:
491,261,52589,5,10,0:0:0:0:
307,304,52732,2,0,L|221:290,1,60.0000022888184,2|10,1:0|0:0,0:0:0:0:
105,270,52875,2,2,L|99:226,2,30.0000011444092,2|0|0,1:0|1:0|1:0,0:1:0:0:
122,341,53018,2,0,L|141:204,1,120.000004577637,10|2,0:0|1:2,0:0:0:0:
151,138,53232,1,2,1:2:0:0:
151,138,53303,2,0,L|66:159,1,60.0000022888184,2|0,1:0|0:0,0:0:0:0:
20,125,53446,2,2,L|14:84,6,30.0000011444092,2|0|0|0|0|0|0,1:0|1:0|1:0|1:0|1:0|1:0|1:0,0:1:0:0:
39,227,53732,5,10,0:0:0:0:
65,19,53875,1,10,0:0:0:0:
216,71,54018,2,0,L|301:50,1,60.0000022888184,2|0,1:0|0:0,0:0:0:0:
373,31,54160,2,2,L|376:-4,2,30.0000011444092,2|0|0,1:0|1:0|1:0,0:1:0:0:
352,70,54303,6,0,L|337:0,1,60.0000022888184,10|10,0:0|0:0,0:0:0:0:
480,160,54446,2,0,L|495:90,1,60.0000022888184,2|2,1:2|1:2,0:0:0:0:
288,224,54589,2,0,L|273:154,1,60.0000022888184,2|2,1:2|1:2,0:0:0:0:
480,320,54732,2,0,L|495:250,1,60.0000022888184,2|2,1:2|1:2,0:0:0:0:
223,368,54875,5,14,0:0:0:0:
256,192,54946,12,0,59160,0:0:0:0:
