osu file format v14

[General]
AudioFilename: audio.mp3
AudioLeadIn: 0
PreviewTime: 25160
Countdown: 0
SampleSet: Soft
StackLeniency: 0.7
Mode: 0
LetterboxInBreaks: 0
WidescreenStoryboard: 0

[Editor]
Bookmarks: 18,4589,9160,13732,18303,22875,27446,32018,36589,41160,45732,50303,54875,59160
DistanceSpacing: 1.2
BeatDivisor: 4
GridSize: 32
TimelineZoom: 2.999999

[Metadata]
Title:broken legs
TitleUnicode:broken legs
Artist:Kola Kid
ArtistUnicode:Kola Kid
Creator:eiri-
Version:easy
Source:osu!
Tags:Ayyri Featured Artist FA Electronic Instrumental Breakcore CONTRA 88
BeatmapID:2422136
BeatmapSetID:1160961

[Difficulty]
HPDrainRate:3
CircleSize:2
OverallDifficulty:4
ApproachRate:5
SliderMultiplier:0.8
SliderTickRate:1

[Events]
//Background and Video events
0,0,"broken legs.jpg",0,0
//Break Periods
//Storyboard Layer 0 (Background)
//Storyboard Layer 1 (Fail)
//Storyboard Layer 2 (Pass)
//Storyboard Layer 3 (Foreground)
//Storyboard Layer 4 (Overlay)
//Storyboard Sound Samples

[TimingPoints]
18,285.714285714286,4,2,1,50,1,0
54875,-100,4,2,1,75,0,0
55446,-100,4,2,1,65,0,0
56018,-100,4,2,1,55,0,0
56589,-100,4,2,1,45,0,0
57160,-100,4,2,1,35,0,0
57732,-100,4,2,1,25,0,0
58303,-100,4,2,1,15,0,0
58589,-100,4,2,1,10,0,0
58875,-100,4,2,1,7,0,0
59160,-100,4,2,1,5,0,0

[Colours]
Combo1 : 109,157,245
Combo2 : 247,153,91
Combo3 : 244,219,117
Combo4 : 124,231,133

[HitObjects]
80,303,18,5,2,0:0:0:0:
216,348,446,2,0,L|304:337,2,80,2|2|2,0:0|0:0|0:0,0:0:0:0:
80,303,1446,1,2,0:0:0:0:
121,216,1732,1,2,0:1:0:0:
304,270,2303,5,10,0:0:0:0:
274,178,2589,1,2,1:2:0:0:
334,102,2875,2,0,L|424:117,1,80,10|2,0:0|1:2,0:0:0:0:
454,201,3446,2,0,L|473:324,2,120,10|10|2,0:0|0:0|0:1,0:0:0:0:
412,115,4589,6,0,L|322:130,1,80,10|10,0:0|0:0,0:0:0:0:
248,173,5160,2,0,L|158:158,1,80,10|10,0:0|0:0,0:0:0:0:
125,73,5732,2,0,P|194:34|290:21,1,160,10|10,0:0|0:0,0:0:0:0:
366,40,6589,1,10,0:0:0:0:
437,103,6875,6,0,L|447:229,2,120,2|2|2,0:0|0:0|0:0,0:0:0:0:
429,7,8018,5,10,0:0:0:0:
345,53,8303,1,10,0:0:0:0:
256,16,8589,1,10,0:0:0:0:
223,205,9160,6,2,B|258:237|258:237|341:225,1,120,2|2,1:0|1:0,0:1:0:0:
425,212,9875,1,2,1:2:0:0:
367,135,10160,1,2,1:0:0:0:
461,26,10589,2,0,L|329:15,1,120,2|10,1:2|0:0,0:0:0:0:
252,53,11303,1,2,1:0:0:0:
111,21,11732,1,2,1:1:0:0:
70,208,12303,5,2,0:1:0:0:
70,208,13732,5,2,1:0:0:0:
176,110,14160,1,2,1:0:0:0:
274,216,14589,2,0,L|269:311,2,80,10|10|10,0:0|0:0|0:0,0:0:0:0:
322,133,15446,2,0,L|408:146,1,80,10|2,0:0|1:2,0:0:0:0:
436,55,16018,6,0,L|314:37,2,120,10|10|2,0:0|0:0|1:0,0:0:0:0:
494,130,17160,1,10,0:0:0:0:
390,230,17589,2,0,P|349:226|296:210,1,80,2|2,1:0|1:2,0:0:0:0:
188,141,18303,5,14,0:0:0:0:
188,141,19446,6,0,L|182:233,1,80,2|2,0:0|1:2,0:0:0:0:
178,317,20018,2,0,L|266:304,1,80,2|2,1:2|1:2,0:0:0:0:
316,229,20589,6,0,L|474:252,1,160,10|10,0:0|0:0,0:0:0:0:
507,161,21446,1,10,0:0:0:0:
438,93,21732,2,0,L|342:81,1,80,2|2,1:2|1:0,0:0:0:0:
272,125,22303,1,10,0:0:0:0:
217,45,22589,1,10,0:0:0:0:
131,89,22875,6,0,L|39:103,1,80,2|2,1:2|0:0,0:0:0:0:
13,189,23446,1,2,0:0:0:0:
155,213,23875,2,2,L|321:238,1,160,2|10,0:1|0:0,0:1:0:0:
449,190,24875,1,10,0:0:0:0:
421,98,25160,5,14,0:0:0:0:
421,98,27446,6,2,L|326:114,1,80,10|10,0:0|0:0,0:1:0:0:
257,157,28018,2,0,L|169:141,1,80,10|2,0:0|1:0,0:0:0:0:
87,110,28589,2,0,L|72:18,2,80,2|2|2,1:0|1:0|1:0,0:0:0:0:
74,253,29589,1,2,1:0:0:0:
151,309,29875,6,2,P|207:293|240:244,1,120,10|10,0:0|0:0,0:1:0:0:
242,99,30732,1,2,1:2:0:0:
318,40,31018,1,2,0:0:0:0:
392,99,31303,2,0,L|388:175,2,60,10|10|2,0:0|0:0|1:0,0:0:0:0:
481,63,32018,6,0,B|490:304|490:304|399:277,1,320,10|2,0:0|1:2,0:0:0:0:
97,281,34303,2,0,B|22:304|22:304|31:63,1,320,10|2,0:0|1:2,0:0:0:0:
108,4,35732,1,2,1:2:0:0:
175,72,36018,2,0,L|172:168,1,80,2|2,0:0|0:0,0:0:0:0:
229,229,36589,6,0,B|307:212|307:212|291:93,1,200,2|0,0:0|0:0,0:0:0:0:
409,11,37732,2,0,L|505:23,1,80,2|2,0:0|0:0,0:0:0:0:
478,116,38303,2,0,L|382:104,1,80,2|2,0:1|0:1,0:0:0:0:
313,151,38875,5,10,0:0:0:0:
349,239,39160,1,2,1:0:0:0:
266,288,39446,2,0,L|170:300,1,80,10|2,0:0|1:2,0:0:0:0:
98,258,40018,1,10,0:0:0:0:
175,137,40446,2,0,L|166:65,2,60,10|10|10,0:0|0:0|0:0,0:0:0:0:
256,192,41160,5,6,1:2:0:0:
256,192,41232,12,2,43446,0:1:0:0:
140,296,45732,6,2,P|104:271|101:197,2,120,2|2|2,1:0|1:0|1:0,0:1:0:0:
227,334,46875,2,0,L|359:314,1,120,10|10,0:0|0:0,0:0:0:0:
440,303,47589,1,10,0:0:0:0:
440,158,48018,6,0,P|425:130|265:124,1,200,10|10,0:0|0:0,0:0:0:0:
196,167,49018,1,2,1:0:0:0:
370,245,49589,2,0,L|444:252,2,60,10|10|10,0:0|0:0|0:0,0:0:0:0:
302,312,50303,6,0,L|211:320,1,80,2|10,1:0|0:0,0:0:0:0:
136,275,50875,2,0,L|152:187,1,80,2|10,1:2|0:0,0:0:0:0:
129,102,51446,2,0,P|169:70|284:56,1,160,10|10,0:0|0:0,0:0:0:0:
367,74,52303,1,2,1:2:0:0:
329,162,52589,6,0,L|339:252,1,80,10|2,0:0|1:0,0:0:0:0:
251,284,53160,2,0,L|241:194,1,80,2|2,1:2|1:0,0:0:0:0:
232,108,53732,2,0,P|181:50|92:62,1,160,10|10,0:0|0:0,0:0:0:0:
25,110,54589,1,2,1:2:0:0:
76,191,54875,5,14,0:0:0:0:
256,192,54946,12,0,59160,0:0:0:0:
