osu file format v14

[General]
AudioFilename: audio.mp3
AudioLeadIn: 0
PreviewTime: 25138
Countdown: 0
SampleSet: Soft
StackLeniency: 0.7
Mode: 3
LetterboxInBreaks: 0
SpecialStyle: 0
WidescreenStoryboard: 0

[Editor]
DistanceSpacing: 1.5
BeatDivisor: 4
GridSize: 4
TimelineZoom: 3.199999

[Metadata]
Title:broken legs
TitleUnicode:broken legs
Artist:Kola Kid
ArtistUnicode:Kola Kid
Creator:Unpredictable
Version:insane
Source:osu!
Tags:hydria famoss contra 88 8-bit 8bit chiptune breakcore featured artist fa electronic instrumental experimental mappers' guild mg
BeatmapID:2333288
BeatmapSetID:1116952

[Difficulty]
HPDrainRate:8.3
CircleSize:4
OverallDifficulty:8.3
ApproachRate:5
SliderMultiplier:1.4
SliderTickRate:1

[Events]
//Background and Video events
0,0,"coin-4180241_1920.jpg",0,0
//Break Periods
//Storyboard Layer 0 (Background)
//Storyboard Layer 1 (Fail)
//Storyboard Layer 2 (Pass)
//Storyboard Layer 3 (Foreground)
//Storyboard Layer 4 (Overlay)
//Storyboard Sound Samples
Sample,46370,0,"vexst__snare010-trnce-138-x-sc5G#.wav",100

[TimingPoints]
13,285.714285714286,4,2,1,70,1,0

[HitObjects]
192,192,13,5,0,0:0:0:0:
64,192,84,1,0,0:0:0:0:
192,192,155,1,0,0:0:0:0:
320,192,227,1,0,0:0:0:0:
448,192,298,1,0,0:0:0:0:
320,192,441,128,0,584:0:0:0:0:
192,192,727,128,0,870:0:0:0:0:
64,192,1013,128,0,1155:0:0:0:0:
448,192,1227,128,0,1370:0:0:0:0:
448,192,1441,1,0,0:0:0:0:
64,192,1513,1,0,0:0:0:0:
320,192,1584,1,0,0:0:0:0:
448,192,1727,1,0,0:0:0:0:
320,192,1774,1,0,0:0:0:0:
192,192,1822,1,0,0:0:0:0:
64,192,1870,1,0,0:0:0:0:
448,192,1917,1,0,0:0:0:0:
320,192,1965,1,0,0:0:0:0:
192,192,2013,1,0,0:0:0:0:
64,192,2060,1,0,0:0:0:0:
320,192,2298,1,8,0:0:0:93:
64,192,2370,1,8,0:0:0:93:
320,192,2441,1,2,0:0:0:93:
64,192,2513,1,2,0:0:0:93:
192,192,2513,1,0,0:0:0:0:
448,192,2584,128,0,2655:0:0:0:100:vexst__snare010-trnce-138-x-sc5.wav
192,192,2655,128,0,2727:0:0:0:100:vexst__snare010-trnce-138-x-sc5.wav
320,192,2727,128,0,2798:0:0:0:100:vexst__snare010-trnce-138-x-sc5.wav
448,192,2798,128,0,2870:0:0:0:100:vexst__snare010-trnce-138-x-sc5.wav
64,192,2870,1,6,0:0:0:93:
64,192,3013,1,6,0:0:0:93:
448,192,3155,1,0,0:0:0:100:vexst__snare010-trnce-138-x-sc5G#.wav
64,192,3227,1,0,0:0:0:100:vexst__snare010-trnce-138-x-sc5G#.wav
448,192,3298,1,0,0:0:0:100:vexst__snare010-trnce-138-x-sc5G#.wav
64,192,3370,1,0,0:0:0:100:vexst__snare010-trnce-138-x-sc5G#.wav
192,192,3441,128,6,3513:0:0:0:93:
320,192,3513,128,0,3584:0:0:0:0:
448,192,3584,128,2,3655:0:0:0:93:
64,192,3655,128,6,3727:0:0:0:93:
192,192,3727,128,0,3798:0:0:0:0:
320,192,3798,128,0,3870:0:0:0:0:
448,192,3870,128,6,3941:0:0:0:93:
64,192,3941,128,0,4013:0:0:0:0:
192,192,4013,1,0,0:0:0:0:
320,192,4084,1,2,0:0:0:93:
448,192,4084,1,4,0:0:0:0:
64,192,4155,128,0,4298:0:0:0:0:
320,192,4298,1,2,0:0:0:93:
448,192,4298,1,4,0:0:0:0:
64,192,4441,128,0,4584:0:0:0:0:
192,192,4584,1,0,0:0:0:30:LS-HKI Digital Kick 01 F#.wav
448,192,4655,1,0,0:0:0:0:
64,192,4727,1,0,0:0:0:30:LS-HKI Digital Kick 01 F#.wav
320,192,4798,1,0,0:0:0:0:
192,192,4870,1,0,0:0:0:30:LS-HKI Digital Kick 01 F#.wav
448,192,4941,1,0,0:0:0:0:
64,192,5013,1,0,0:0:0:30:LS-HKI Digital Kick 01 F#.wav
320,192,5084,1,0,0:0:0:0:
192,192,5155,128,0,5227:0:0:0:30:LS-HKI Digital Kick 01 F#.wav
320,192,5227,128,0,5298:0:0:0:30:LS-HKI Digital Kick 01 F#.wav
448,192,5298,128,0,5370:0:0:0:30:LS-HKI Digital Kick 01 F#.wav
192,192,5370,128,0,5441:0:0:0:30:LS-HKI Digital Kick 01 F#.wav
64,192,5441,128,0,5513:0:0:0:30:LS-HKI Digital Kick 01 F#.wav
320,192,5513,128,0,5584:0:0:0:30:LS-HKI Digital Kick 01 F#.wav
192,192,5584,128,0,5655:0:0:0:30:LS-HKI Digital Kick 01 F#.wav
64,192,5655,128,0,5727:0:0:0:30:LS-HKI Digital Kick 01 F#.wav
448,192,5727,1,0,0:0:0:30:LS-HKI Digital Kick 01 F#.wav
448,192,5870,1,0,0:0:0:30:LS-HKI Digital Kick 01 F#.wav
320,192,6013,1,0,0:0:0:30:LS-HKI Digital Kick 01 F#.wav
320,192,6155,1,0,0:0:0:30:LS-HKI Digital Kick 01 F#.wav
192,192,6298,1,0,0:0:0:30:LS-HKI Digital Kick 01 F#.wav
192,192,6441,1,0,0:0:0:30:LS-HKI Digital Kick 01 F#.wav
64,192,6584,1,0,0:0:0:30:LS-HKI Digital Kick 01 F#.wav
64,192,6727,1,0,0:0:0:30:LS-HKI Digital Kick 01 F#.wav
448,192,6870,1,0,0:0:0:0:
448,192,7013,1,0,0:0:0:0:
320,192,7155,1,0,0:0:0:0:
448,192,7298,1,0,0:0:0:0:
448,192,7441,1,0,0:0:0:0:
192,192,7584,1,0,0:0:0:0:
64,192,7655,1,0,0:0:0:0:
448,192,7727,1,0,0:0:0:0:
64,192,7870,1,0,0:0:0:0:
192,192,7941,1,0,0:0:0:0:
320,192,8013,1,0,0:0:0:30:LS-HKI Digital Kick 01 F#.wav
448,192,8013,128,0,8108:0:0:0:0:
64,192,8108,128,0,8203:0:0:0:0:
192,192,8203,128,0,8298:0:0:0:0:
320,192,8298,128,0,8393:0:0:0:30:LS-HKI Digital Kick 01 F#.wav
448,192,8298,1,0,0:0:0:0:
64,192,8393,128,0,8489:0:0:0:0:
192,192,8489,128,0,8584:0:0:0:0:
320,192,8584,1,0,0:0:0:30:LS-HKI Digital Kick 01 F#.wav
448,192,8584,128,0,8679:0:0:0:0:
64,192,8679,128,0,8774:0:0:0:0:
192,192,8774,128,0,8870:0:0:0:0:
320,192,8870,128,0,9013:0:0:0:0:
448,192,8870,128,0,9013:0:0:0:0:
192,192,9155,1,8,0:0:0:93:
448,192,9227,1,8,0:0:0:93:
64,192,9298,1,2,0:0:0:93:
192,192,9298,1,4,0:0:0:0:
320,192,9441,1,2,0:0:0:93:
64,192,9513,1,2,0:0:0:93:
320,192,9584,1,2,0:0:0:93:
448,192,9584,1,4,0:0:0:0:
192,192,9727,1,2,0:0:0:93:
448,192,9798,1,8,0:0:0:93:
192,192,9870,1,8,0:0:0:93:
64,192,9941,1,2,0:0:0:93:
320,192,10013,1,8,0:0:0:93:
448,192,10013,1,4,0:0:0:0:
320,192,10155,128,0,10227:0:0:0:100:vexst__snare010-trnce-138-x-sc5.wav
64,192,10227,128,0,10298:0:0:0:100:vexst__snare010-trnce-138-x-sc5.wav
192,192,10298,128,0,10370:0:0:0:100:vexst__snare010-trnce-138-x-sc5.wav
320,192,10370,128,0,10441:0:0:0:100:vexst__snare010-trnce-138-x-sc5.wav
448,192,10441,1,6,0:0:0:93:
64,192,10584,1,8,0:0:0:93:
320,192,10584,1,4,0:0:0:0:
192,192,10727,1,0,0:0:0:100:vexst__snare010-trnce-138-x-sc5G#.wav
448,192,10727,1,0,0:0:0:0:
320,192,10870,1,0,0:0:0:100:vexst__snare010-trnce-138-x-sc5.wav
64,192,10941,1,0,0:0:0:100:vexst__snare010-trnce-138-x-sc5.wav
320,192,11013,1,0,0:0:0:100:vexst__snare010-trnce-138-x-sc5G#.wav
192,192,11084,1,0,0:0:0:100:vexst__snare010-trnce-138-x-sc5G#.wav
320,192,11155,1,0,0:0:0:100:vexst__snare010-trnce-138-x-sc5G#.wav
192,192,11227,1,0,0:0:0:100:vexst__snare010-trnce-138-x-sc5G#.wav
64,192,11298,1,8,0:0:0:93:
448,192,11298,1,0,0:0:0:0:
448,192,11441,1,6,0:0:0:93:
64,192,11513,1,0,0:0:0:100:vexst__snare010-trnce-138-x-sc5.wav
192,192,11513,1,0,0:0:0:0:
448,192,11584,1,6,0:0:0:93:
64,192,11655,1,2,0:0:0:93:
192,192,11655,1,0,0:0:0:0:
320,192,11727,128,0,11798:0:0:0:100:vexst__snare010-trnce-138-x-sc5.wav
448,192,11798,128,0,11870:0:0:0:100:vexst__snare010-trnce-138-x-sc5.wav
192,192,11870,128,0,11941:0:0:0:100:vexst__snare010-trnce-138-x-sc5.wav
64,192,11941,128,0,12013:0:0:0:100:vexst__snare010-trnce-138-x-sc5.wav
448,192,12013,1,6,0:0:0:93:
448,192,12155,1,6,0:0:0:93:
64,192,12298,128,0,12584:0:0:0:0:
320,192,12298,128,0,12441:0:0:0:0:
320,192,13727,1,8,0:0:0:93:
192,192,13798,1,8,0:0:0:93:
320,192,13870,1,2,0:0:0:93:
448,192,13870,1,4,0:0:0:0:
64,192,14013,1,6,0:0:0:93:
320,192,14155,1,0,0:0:0:100:vexst__snare010-trnce-138-x-sc5.wav
192,192,14227,1,0,0:0:0:100:vexst__snare010-trnce-138-x-sc5.wav
448,192,14298,1,0,0:0:0:100:vexst__snare010-trnce-138-x-sc5G#.wav
64,192,14370,1,0,0:0:0:100:vexst__snare010-trnce-138-x-sc5G#.wav
448,192,14441,1,0,0:0:0:100:vexst__snare010-trnce-138-x-sc5G#.wav
64,192,14513,1,0,0:0:0:100:vexst__snare010-trnce-138-x-sc5G#.wav
192,192,14584,1,6,0:0:0:0:
320,192,14655,1,2,0:0:0:0:
64,192,14727,1,8,0:0:0:93:
192,192,14727,1,0,0:0:0:0:
320,192,14798,1,0,0:0:0:0:
64,192,14870,1,6,0:0:0:93:
192,192,14941,1,0,0:0:0:0:
320,192,15013,1,0,0:0:0:100:vexst__snare010-trnce-138-x-sc5G#.wav
448,192,15013,1,0,0:0:0:0:
192,192,15155,1,0,0:0:0:100:vexst__snare010-trnce-138-x-sc5.wav
320,192,15227,1,0,0:0:0:100:vexst__snare010-trnce-138-x-sc5.wav
64,192,15298,1,8,0:0:0:93:
192,192,15298,1,0,0:0:0:0:
320,192,15441,1,6,0:0:0:93:
64,192,15513,1,6,0:0:0:93:
320,192,15584,1,6,0:0:0:93:
64,192,15655,1,6,0:0:0:93:
192,192,15727,1,0,0:0:0:100:vexst__snare010-trnce-138-x-sc5G#.wav
448,192,15798,1,0,0:0:0:100:vexst__snare010-trnce-138-x-sc5G#.wav
192,192,15870,1,0,0:0:0:100:vexst__snare010-trnce-138-x-sc5G#.wav
448,192,15941,1,0,0:0:0:100:vexst__snare010-trnce-138-x-sc5G#.wav
64,192,16013,1,6,0:0:0:93:
320,192,16155,1,8,0:0:0:93:
448,192,16155,1,0,0:0:0:0:
64,192,16227,1,6,0:0:0:93:
320,192,16298,1,0,0:0:0:100:vexst__snare010-trnce-138-x-sc5.wav
192,192,16370,1,0,0:0:0:100:vexst__snare010-trnce-138-x-sc5.wav
448,192,16441,128,6,16513:0:0:0:93:
320,192,16513,128,2,16584:0:0:0:93:
192,192,16584,128,2,16655:0:0:0:93:
64,192,16655,128,2,16727:0:0:0:93:
320,192,16727,1,8,0:0:0:93:
448,192,16727,1,0,0:0:0:0:
192,192,16870,1,0,0:0:0:100:vexst__snare010-trnce-138-x-sc5.wav
320,192,16941,1,0,0:0:0:100:vexst__snare010-trnce-138-x-sc5.wav
192,192,17013,1,0,0:0:0:0:
448,192,17084,1,0,0:0:0:0:
64,192,17155,1,6,0:0:0:93:
64,192,17298,1,6,0:0:0:93:
320,192,17441,1,0,0:0:0:100:vexst__snare010-trnce-138-x-sc5.wav
448,192,17441,1,0,0:0:0:0:
192,192,17584,1,8,0:0:0:93:
320,192,17655,1,8,0:0:0:93:
64,192,17727,1,6,0:0:0:93:
448,192,17870,1,0,0:0:0:100:vexst__snare010-trnce-138-x-sc5G#.wav
64,192,17941,1,0,0:0:0:100:vexst__snare010-trnce-138-x-sc5G#.wav
448,192,18013,1,0,0:0:0:100:vexst__snare010-trnce-138-x-sc5G#.wav
64,192,18084,1,0,0:0:0:100:vexst__snare010-trnce-138-x-sc5G#.wav
320,192,18155,1,0,0:0:0:100:vexst__snare010-trnce-138-x-sc5.wav
192,192,18227,1,0,0:0:0:100:vexst__snare010-trnce-138-x-sc5.wav
320,192,18298,1,2,0:0:0:93:
448,192,18298,1,4,0:0:0:0:
64,192,18370,1,0,0:0:0:0:
192,192,18441,1,2,0:0:0:93:
448,192,18513,1,2,0:0:0:93:
320,192,18584,1,0,0:0:0:0:
192,192,18655,1,0,0:0:0:0:
448,192,18727,1,2,0:0:0:93:
64,192,18798,1,0,0:0:0:0:
192,192,18870,1,2,0:0:0:93:
320,192,18941,1,0,0:0:0:0:
64,192,19013,1,2,0:0:0:93:
192,192,19084,1,0,0:0:0:0:
448,192,19155,1,2,0:0:0:93:
320,192,19227,1,0,0:0:0:0:
192,192,19298,1,0,0:0:0:0:
320,192,19441,1,0,0:0:0:20:LS-HKI Destroyed Kick 24 E.wav
64,192,19513,1,0,0:0:0:20:LS-HKI Destroyed Kick 24 E.wav
320,192,19584,1,0,0:0:0:20:LS-HKI Destroyed Kick 24 E.wav
64,192,19655,1,0,0:0:0:20:LS-HKI Destroyed Kick 24 E.wav
448,192,19727,128,0,19870:0:0:0:30:LS-HKI Digital Kick 01 F#.wav
192,192,19870,1,0,0:0:0:20:LS-HKI Destroyed Kick 24 E.wav
320,192,20013,1,0,0:0:0:30:LS-HKI Digital Kick 01 F#.wav
192,192,20084,1,0,0:0:0:0:
448,192,20155,1,0,0:0:0:20:LS-HKI Destroyed Kick 24 E.wav
192,192,20227,1,0,0:0:0:0:
64,192,20298,1,0,0:0:0:30:LS-HKI Digital Kick 01 F#.wav
448,192,20298,1,0,0:0:0:0:
192,192,20441,128,0,20584:0:0:0:20:LS-HKI Destroyed Kick 24 E.wav
320,192,20584,1,6,0:0:0:93:
192,192,20655,1,0,0:0:0:0:
64,192,20727,1,6,0:0:0:93:
320,192,20798,1,0,0:0:0:0:
448,192,20870,1,6,0:0:0:93:
192,192,20941,1,0,0:0:0:0:
64,192,21013,1,2,0:0:0:93:
320,192,21084,1,0,0:0:0:100:vexst__snare010-trnce-138-x-sc5.wav
448,192,21155,1,2,0:0:0:93:
192,192,21227,1,0,0:0:0:100:vexst__snare010-trnce-138-x-sc5.wav
320,192,21298,1,8,0:0:0:93:
448,192,21298,1,0,0:0:0:0:
64,192,21441,1,6,0:0:0:93:
64,192,21584,1,6,0:0:0:46:
448,192,21727,1,0,0:0:0:100:vexst__snare010-trnce-138-x-sc5G#.wav
64,192,21798,1,0,0:0:0:100:vexst__snare010-trnce-138-x-sc5G#.wav
448,192,21870,1,0,0:0:0:100:vexst__snare010-trnce-138-x-sc5G#.wav
64,192,21941,1,0,0:0:0:100:vexst__snare010-trnce-138-x-sc5G#.wav
320,192,22013,128,0,22084:0:0:0:100:vexst__snare010-trnce-138-x-sc5.wav
192,192,22084,128,0,22155:0:0:0:100:vexst__snare010-trnce-138-x-sc5.wav
448,192,22155,128,2,22227:0:0:0:0:
320,192,22227,128,2,22298:0:0:0:0:
64,192,22298,1,6,0:0:0:0:
64,192,22441,1,6,0:0:0:0:
320,192,22584,1,0,0:0:0:100:vexst__snare010-trnce-138-x-sc5.wav
192,192,22655,1,0,0:0:0:100:vexst__snare010-trnce-138-x-sc5G#.wav
320,192,22727,1,0,0:0:0:100:vexst__snare010-trnce-138-x-sc5.wav
192,192,22798,1,0,0:0:0:100:vexst__snare010-trnce-138-x-sc5G#.wav
448,192,22870,1,0,0:0:0:0:
320,192,22941,1,0,0:0:0:0:
64,192,23013,1,0,0:0:0:0:
192,192,23155,1,0,0:0:0:0:
64,192,23298,1,0,0:0:0:0:
448,192,23370,1,0,0:0:0:0:
192,192,23441,1,0,0:0:0:0:
320,192,23584,1,0,0:0:0:0:
448,192,23727,1,0,0:0:0:0:
64,192,23870,1,0,0:0:0:0:
448,192,23941,1,0,0:0:0:0:
320,192,24013,1,0,0:0:0:100:vexst__snare010-trnce-138-x-sc5.wav
192,192,24084,1,0,0:0:0:100:vexst__snare010-trnce-138-x-sc5G#.wav
448,192,24155,1,0,0:0:0:100:vexst__snare010-trnce-138-x-sc5.wav
320,192,24227,1,0,0:0:0:100:vexst__snare010-trnce-138-x-sc5G#.wav
64,192,24298,1,0,0:0:0:100:vexst__snare010-trnce-138-x-sc5.wav
192,192,24370,1,0,0:0:0:100:vexst__snare010-trnce-138-x-sc5G#.wav
320,192,24441,1,2,0:0:0:0:
448,192,24441,1,4,0:0:0:0:
192,192,24584,1,0,0:0:0:100:vexst__snare010-trnce-138-x-sc5G#.wav
320,192,24655,1,0,0:0:0:100:vexst__snare010-trnce-138-x-sc5G#.wav
192,192,24727,1,0,0:0:0:100:vexst__snare010-trnce-138-x-sc5G#.wav
320,192,24870,128,6,24941:0:0:0:0:
192,192,24941,128,0,25013:0:0:0:100:vexst__snare010-trnce-138-x-sc5.wav
448,192,25013,128,0,25084:0:0:0:100:vexst__snare010-trnce-138-x-sc5G#.wav
320,192,25084,128,0,25155:0:0:0:100:vexst__snare010-trnce-138-x-sc5G#.wav
64,192,25155,128,2,26298:0:0:0:0:
192,192,25155,1,0,0:0:0:0:
64,192,26584,1,0,0:0:0:0:
448,192,26679,1,0,0:0:0:0:
320,192,27060,128,0,27441:0:0:0:0:
448,192,27298,128,0,27441:0:0:0:0:
64,192,27441,1,2,0:0:0:0:
192,192,27441,1,4,0:0:0:0:
320,192,27584,1,0,0:0:0:100:vexst__snare010-trnce-138-x-sc5.wav
192,192,27655,1,0,0:0:0:100:vexst__snare010-trnce-138-x-sc5.wav
448,192,27727,1,8,0:0:0:0:
320,192,27798,1,0,0:0:0:0:
192,192,27870,128,6,28013:0:0:0:0:
64,192,28013,1,8,0:0:0:0:
320,192,28084,1,0,0:0:0:100:vexst__snare010-trnce-138-x-sc5G#.wav
192,192,28155,1,0,0:0:0:100:vexst__snare010-trnce-138-x-sc5G#.wav
64,192,28227,1,6,0:0:0:0:
320,192,28298,1,8,0:0:0:0:
448,192,28298,1,0,0:0:0:0:
64,192,28441,1,2,0:0:0:0:
192,192,28441,1,0,0:0:0:0:
320,192,28584,1,0,0:0:0:100:vexst__snare010-trnce-138-x-sc5.wav
192,192,28655,1,0,0:0:0:100:vexst__snare010-trnce-138-x-sc5.wav
64,192,28727,1,6,0:0:0:0:
192,192,28870,1,0,0:0:0:100:vexst__snare010-trnce-138-x-sc5G#.wav
320,192,28941,1,0,0:0:0:100:vexst__snare010-trnce-138-x-sc5G#.wav
448,192,29013,128,2,29155:0:0:0:0:
192,192,29155,1,0,0:0:0:100:vexst__snare010-trnce-138-x-sc5.wav
320,192,29227,1,0,0:0:0:100:vexst__snare010-trnce-138-x-sc5.wav
64,192,29298,1,0,0:0:0:100:vexst__snare010-trnce-138-x-sc5G#.wav
320,192,29370,1,0,0:0:0:100:vexst__snare010-trnce-138-x-sc5G#.wav
192,192,29441,1,0,0:0:0:100:vexst__snare010-trnce-138-x-sc5G#.wav
320,192,29513,1,0,0:0:0:100:vexst__snare010-trnce-138-x-sc5G#.wav
64,192,29584,1,8,0:0:0:0:
448,192,29584,1,0,0:0:0:0:
64,192,29727,1,6,0:0:0:0:
320,192,29798,1,0,0:0:0:100:vexst__snare010-trnce-138-x-sc5G#.wav
64,192,29870,1,6,0:0:0:0:
320,192,29941,1,0,0:0:0:100:vexst__snare010-trnce-138-x-sc5G#.wav
448,192,30013,128,0,30084:0:0:0:100:vexst__snare010-trnce-138-x-sc5.wav
64,192,30084,128,0,30155:0:0:0:100:vexst__snare010-trnce-138-x-sc5.wav
192,192,30155,128,0,30227:0:0:0:100:vexst__snare010-trnce-138-x-sc5G#.wav
320,192,30227,128,0,30298:0:0:0:100:vexst__snare010-trnce-138-x-sc5G#.wav
64,192,30298,1,6,0:0:0:0:
64,192,30441,1,6,0:0:0:0:
320,192,30584,1,0,0:0:0:100:vexst__snare010-trnce-138-x-sc5G#.wav
192,192,30655,1,0,0:0:0:100:vexst__snare010-trnce-138-x-sc5G#.wav
320,192,30727,1,0,0:0:0:100:vexst__snare010-trnce-138-x-sc5G#.wav
192,192,30798,1,0,0:0:0:100:vexst__snare010-trnce-138-x-sc5G#.wav
64,192,30870,1,6,0:0:0:0:
448,192,31013,1,0,0:0:0:100:vexst__snare010-trnce-138-x-sc5G#.wav
192,192,31084,128,0,31155:0:0:0:100:vexst__snare010-trnce-138-x-sc5.wav
320,192,31155,128,0,31227:0:0:0:100:vexst__snare010-trnce-138-x-sc5.wav
448,192,31227,128,0,31298:0:0:0:100:vexst__snare010-trnce-138-x-sc5.wav
64,192,31298,1,6,0:0:0:0:
320,192,31441,1,0,0:0:0:100:vexst__snare010-trnce-138-x-sc5G#.wav
64,192,31513,1,6,0:0:0:0:
192,192,31584,1,0,0:0:0:0:
448,192,31727,128,0,31798:0:0:0:100:vexst__snare010-trnce-138-x-sc5.wav
320,192,31798,128,0,31870:0:0:0:100:vexst__snare010-trnce-138-x-sc5.wav
64,192,31870,128,0,31941:0:0:0:100:vexst__snare010-trnce-138-x-sc5.wav
192,192,31941,128,0,32013:0:0:0:100:vexst__snare010-trnce-138-x-sc5.wav
448,192,32013,1,0,0:0:0:30:LS-HKI Digital Kick 01 F#.wav
320,192,32084,1,0,0:0:0:0:
64,192,32155,1,0,0:0:0:30:LS-HKI Digital Kick 01 F#.wav
192,192,32227,1,0,0:0:0:0:
320,192,32298,1,0,0:0:0:30:LS-HKI Digital Kick 01 F#.wav
448,192,32370,1,0,0:0:0:0:
192,192,32441,1,0,0:0:0:30:LS-HKI Digital Kick 01 F#.wav
64,192,32513,1,0,0:0:0:0:
320,192,32584,1,0,0:0:0:30:LS-HKI Digital Kick 01 F#.wav
448,192,32655,1,0,0:0:0:0:
64,192,32727,1,0,0:0:0:30:LS-HKI Digital Kick 01 F#.wav
192,192,32798,1,0,0:0:0:0:
320,192,32870,1,0,0:0:0:30:LS-HKI Digital Kick 01 F#.wav
64,192,32941,1,0,0:0:0:0:
192,192,33013,1,0,0:0:0:30:LS-HKI Digital Kick 01 F#.wav
448,192,33084,1,0,0:0:0:0:
192,192,33155,1,6,0:0:0:0:
320,192,33227,1,0,0:0:0:100:vexst__snare010-trnce-138-x-sc5.wav
448,192,33227,1,0,0:0:0:0:
64,192,33298,1,0,0:0:0:100:vexst__snare010-trnce-138-x-sc5G#.wav
192,192,33298,1,0,0:0:0:0:
320,192,33441,1,0,0:0:0:100:vexst__snare010-trnce-138-x-sc5.wav
192,192,33513,1,0,0:0:0:100:vexst__snare010-trnce-138-x-sc5.wav
320,192,33584,1,8,0:0:0:0:
448,192,33584,1,0,0:0:0:0:
192,192,33727,1,6,0:0:0:0:
320,192,33798,1,6,0:0:0:0:
192,192,33870,1,6,0:0:0:0:
320,192,33941,1,6,0:0:0:0:
64,192,34013,128,0,34084:0:0:0:100:vexst__snare010-trnce-138-x-sc5.wav
192,192,34084,128,0,34155:0:0:0:100:vexst__snare010-trnce-138-x-sc5.wav
320,192,34155,128,0,34227:0:0:0:100:vexst__snare010-trnce-138-x-sc5.wav
448,192,34227,128,0,34298:0:0:0:100:vexst__snare010-trnce-138-x-sc5.wav
192,192,34298,1,0,0:0:0:30:LS-HKI Digital Kick 01 F#.wav
320,192,34370,1,0,0:0:0:0:
64,192,34441,1,0,0:0:0:30:LS-HKI Digital Kick 01 F#.wav
192,192,34513,1,0,0:0:0:0:
320,192,34584,1,0,0:0:0:30:LS-HKI Digital Kick 01 F#.wav
448,192,34655,1,0,0:0:0:0:
192,192,34727,1,0,0:0:0:30:LS-HKI Digital Kick 01 F#.wav
64,192,34798,1,0,0:0:0:0:
320,192,34870,1,0,0:0:0:30:LS-HKI Digital Kick 01 F#.wav
448,192,34941,1,0,0:0:0:0:
64,192,35013,1,0,0:0:0:30:LS-HKI Digital Kick 01 F#.wav
192,192,35084,1,0,0:0:0:0:
320,192,35155,1,0,0:0:0:30:LS-HKI Digital Kick 01 F#.wav
64,192,35227,1,0,0:0:0:0:
320,192,35298,1,0,0:0:0:30:LS-HKI Digital Kick 01 F#.wav
448,192,35370,1,0,0:0:0:0:
192,192,35441,1,6,0:0:0:0:
320,192,35513,1,6,0:0:0:0:
192,192,35584,1,6,0:0:0:0:
320,192,35655,1,6,0:0:0:0:
64,192,35727,1,0,0:0:0:100:vexst__snare010-trnce-138-x-sc5G#.wav
448,192,35727,1,0,0:0:0:0:
192,192,35870,1,0,0:0:0:100:vexst__snare010-trnce-138-x-sc5.wav
320,192,35941,1,0,0:0:0:100:vexst__snare010-trnce-138-x-sc5.wav
64,192,36013,1,6,0:0:0:0:
64,192,36155,1,0,0:0:0:0:
64,192,36298,1,0,0:0:0:0:
64,192,36441,1,0,0:0:0:0:
448,192,36584,1,0,0:0:0:0:
320,192,36727,1,0,0:0:0:0:
192,192,36870,1,0,0:0:0:0:
64,192,37013,1,0,0:0:0:0:
320,192,37155,1,0,0:0:0:0:
448,192,37298,1,0,0:0:0:0:
320,192,37441,1,0,0:0:0:0:
64,192,37584,1,0,0:0:0:0:
192,192,37727,1,0,0:0:0:0:
320,192,37798,1,0,0:0:0:0:
192,192,37870,1,0,0:0:0:0:
448,192,38013,1,0,0:0:0:0:
192,192,38084,1,0,0:0:0:0:
448,192,38155,1,0,0:0:0:0:
64,192,38298,1,0,0:0:0:0:
448,192,38370,1,0,0:0:0:0:
64,192,38441,1,0,0:0:0:0:
320,192,38584,1,0,0:0:0:0:
64,192,38655,1,0,0:0:0:0:
320,192,38727,1,0,0:0:0:0:
192,192,38870,1,6,0:0:0:0:
448,192,38941,1,0,0:0:0:100:vexst__snare010-trnce-138-x-sc5.wav
192,192,39013,1,6,0:0:0:0:
448,192,39084,1,0,0:0:0:100:vexst__snare010-trnce-138-x-sc5.wav
64,192,39155,128,0,39227:0:0:0:100:vexst__snare010-trnce-138-x-sc5.wav
320,192,39227,128,0,39298:0:0:0:100:vexst__snare010-trnce-138-x-sc5.wav
192,192,39298,128,0,39370:0:0:0:100:vexst__snare010-trnce-138-x-sc5.wav
448,192,39370,128,0,39441:0:0:0:100:vexst__snare010-trnce-138-x-sc5.wav
64,192,39441,1,6,0:0:0:0:
64,192,39584,1,6,0:0:0:0:
320,192,39727,1,0,0:0:0:100:vexst__snare010-trnce-138-x-sc5.wav
192,192,39798,1,0,0:0:0:100:vexst__snare010-trnce-138-x-sc5G#.wav
320,192,39870,1,0,0:0:0:100:vexst__snare010-trnce-138-x-sc5.wav
192,192,39941,1,0,0:0:0:100:vexst__snare010-trnce-138-x-sc5G#.wav
64,192,40013,1,6,0:0:0:0:
448,192,40155,1,0,0:0:0:0:
192,192,40227,128,0,40298:0:0:0:100:vexst__snare010-trnce-138-x-sc5G#.wav
320,192,40298,128,0,40370:0:0:0:100:vexst__snare010-trnce-138-x-sc5G#.wav
448,192,40370,128,0,40441:0:0:0:100:vexst__snare010-trnce-138-x-sc5G#.wav
64,192,40441,1,6,0:0:0:0:
320,192,40584,1,0,0:0:0:0:
64,192,40655,1,6,0:0:0:0:
448,192,40727,1,0,0:0:0:0:
64,192,40870,1,6,0:0:0:0:
320,192,40941,128,0,41013:0:0:0:100:vexst__snare010-trnce-138-x-sc5.wav
192,192,41013,128,0,41084:0:0:0:100:vexst__snare010-trnce-138-x-sc5.wav
64,192,41084,128,0,41155:0:0:0:100:vexst__snare010-trnce-138-x-sc5.wav
320,192,41155,1,2,0:0:0:0:
448,192,41155,1,4,0:0:0:0:
320,192,41441,1,0,0:0:0:0:
192,192,41727,1,0,0:0:0:0:
64,192,42013,1,0,0:0:0:0:
448,192,42298,1,0,0:0:0:0:
320,192,42441,1,0,0:0:0:0:
192,192,42584,1,0,0:0:0:0:
64,192,42727,1,0,0:0:0:0:
448,192,42870,1,0,0:0:0:0:
320,192,42941,1,0,0:0:0:0:
192,192,43013,1,0,0:0:0:0:
64,192,43084,1,0,0:0:0:0:
448,192,43155,1,0,0:0:0:0:
320,192,43227,1,0,0:0:0:0:
192,192,43298,1,0,0:0:0:0:
64,192,43370,1,0,0:0:0:0:
448,192,43441,1,0,0:0:0:100:vexst__snare010-trnce-138-x-sc5.wav
192,192,43513,1,0,0:0:0:100:vexst__snare010-trnce-138-x-sc5G#.wav
448,192,43584,1,0,0:0:0:100:vexst__snare010-trnce-138-x-sc5.wav
192,192,43655,1,0,0:0:0:100:vexst__snare010-trnce-138-x-sc5G#.wav
320,192,43727,128,0,43870:0:0:0:70:vexst__night-break-snare.wav
448,192,43870,1,0,0:0:0:0:
64,192,44013,128,0,44155:0:0:0:70:vexst__night-break-snare.wav
320,192,44155,1,0,0:0:0:70:vexst__night-break-snare.wav
448,192,44298,128,0,44441:0:0:0:100:vexst__snare010-trnce-138-x-sc5.wav
192,192,44441,1,2,0:0:0:0:
320,192,44513,1,0,0:0:0:0:
64,192,44584,1,0,0:0:0:100:vexst__snare010-trnce-138-x-sc5G#.wav
320,192,44655,1,0,0:0:0:100:vexst__snare010-trnce-138-x-sc5G#.wav
192,192,44727,1,0,0:0:0:70:vexst__night-break-snare.wav
448,192,44798,1,0,0:0:0:0:
64,192,44870,1,2,0:0:0:0:
320,192,44941,1,0,0:0:0:70:vexst__night-break-snare.wav
192,192,45013,1,0,0:0:0:100:vexst__snare010-trnce-138-x-sc5G#.wav
448,192,45084,1,0,0:0:0:70:vexst__night-break-snare.wav
64,192,45155,1,2,0:0:0:0:
192,192,45227,1,0,0:0:0:70:vexst__night-break-snare.wav
448,192,45298,1,0,0:0:0:100:vexst__snare010-trnce-138-x-sc5G#.wav
320,192,45370,1,0,0:0:0:0:
64,192,45441,1,2,0:0:0:0:
192,192,45513,1,0,0:0:0:0:
448,192,45584,1,0,0:0:0:0:
320,192,45655,1,0,0:0:0:0:
192,192,45727,1,0,0:0:0:100:vexst__snare010-trnce-138-x-sc5.wav
320,192,45798,1,0,0:0:0:100:vexst__snare010-trnce-138-x-sc5.wav
64,192,45870,1,0,0:0:0:100:vexst__snare010-trnce-138-x-sc5G#.wav
448,192,45941,1,0,0:0:0:100:vexst__snare010-trnce-138-x-sc5G#.wav
64,192,46013,1,0,0:0:0:100:vexst__snare010-trnce-138-x-sc5G#.wav
448,192,46084,1,0,0:0:0:100:vexst__snare010-trnce-138-x-sc5G#.wav
192,192,46155,128,0,46227:0:0:0:100:vexst__snare010-trnce-138-x-sc5.wav
448,192,46227,128,0,46298:0:0:0:100:vexst__snare010-trnce-138-x-sc5.wav
320,192,46298,128,6,46370:0:0:0:0:
192,192,46370,128,2,46441:0:0:0:0:
64,192,46441,1,8,0:0:0:0:
448,192,46513,1,6,0:0:0:0:
64,192,46584,1,8,0:0:0:0:
192,192,46584,1,0,0:0:0:0:
448,192,46727,128,6,46798:0:0:0:0:
320,192,46798,128,6,46870:0:0:0:0:
192,192,46870,128,6,46941:0:0:0:0:
64,192,46941,128,6,47013:0:0:0:0:
448,192,47013,1,0,0:0:0:0:
320,192,47084,1,0,0:0:0:100:vexst__snare010-trnce-138-x-sc5.wav
64,192,47155,1,8,0:0:0:0:
192,192,47155,1,0,0:0:0:0:
320,192,47298,1,8,0:0:0:0:
448,192,47298,1,0,0:0:0:0:
64,192,47441,128,0,47513:0:0:0:100:vexst__snare010-trnce-138-x-sc5.wav
192,192,47513,128,0,47584:0:0:0:100:vexst__snare010-trnce-138-x-sc5.wav
448,192,47584,128,0,47655:0:0:0:100:vexst__snare010-trnce-138-x-sc5G#.wav
320,192,47655,128,0,47727:0:0:0:100:vexst__snare010-trnce-138-x-sc5G#.wav
64,192,47727,1,0,0:0:0:100:vexst__snare010-trnce-138-x-sc5.wav
448,192,47798,1,0,0:0:0:100:vexst__snare010-trnce-138-x-sc5G#.wav
64,192,47870,1,8,0:0:0:0:
192,192,47870,1,0,0:0:0:0:
448,192,48013,1,2,0:0:0:0:
320,192,48084,1,0,0:0:0:100:vexst__snare010-trnce-138-x-sc5.wav
192,192,48155,1,2,0:0:0:0:
448,192,48227,1,0,0:0:0:100:vexst__snare010-trnce-138-x-sc5.wav
64,192,48298,1,0,0:0:0:100:vexst__snare010-trnce-138-x-sc5G#.wav
192,192,48370,1,0,0:0:0:100:vexst__snare010-trnce-138-x-sc5G#.wav
320,192,48441,1,0,0:0:0:100:vexst__snare010-trnce-138-x-sc5G#.wav
448,192,48513,1,0,0:0:0:100:vexst__snare010-trnce-138-x-sc5G#.wav
64,192,48584,1,0,0:0:0:100:vexst__snare010-trnce-138-x-sc5G#.wav
192,192,48655,1,0,0:0:0:100:vexst__snare010-trnce-138-x-sc5G#.wav
320,192,48727,1,6,0:0:0:0:
448,192,48798,1,0,0:0:0:0:
64,192,48870,1,0,0:0:0:100:vexst__snare010-trnce-138-x-sc5G#.wav
192,192,48870,1,0,0:0:0:0:
320,192,49013,1,0,0:0:0:100:vexst__snare010-trnce-138-x-sc5G#.wav
192,192,49084,1,0,0:0:0:100:vexst__snare010-trnce-138-x-sc5G#.wav
64,192,49155,1,6,0:0:0:0:
448,192,49370,128,0,49441:0:0:0:100:vexst__snare010-trnce-138-x-sc5.wav
320,192,49441,128,0,49513:0:0:0:100:vexst__snare010-trnce-138-x-sc5.wav
192,192,49513,128,0,49584:0:0:0:100:vexst__snare010-trnce-138-x-sc5.wav
64,192,49584,1,6,0:0:0:0:
64,192,49798,1,6,0:0:0:0:
64,192,50013,128,6,50084:0:0:0:0:
192,192,50084,128,0,50155:0:0:0:100:vexst__snare010-trnce-138-x-sc5.wav
320,192,50155,128,0,50227:0:0:0:100:vexst__snare010-trnce-138-x-sc5.wav
448,192,50227,128,0,50298:0:0:0:100:vexst__snare010-trnce-138-x-sc5.wav
64,192,50298,1,8,0:0:0:0:
192,192,50298,1,0,0:0:0:0:
320,192,50441,1,8,0:0:0:0:
448,192,50441,1,0,0:0:0:0:
64,192,50584,1,6,0:0:0:0:
320,192,50727,1,0,0:0:0:100:vexst__snare010-trnce-138-x-sc5.wav
192,192,50798,1,0,0:0:0:100:vexst__snare010-trnce-138-x-sc5.wav
448,192,50870,1,0,0:0:0:100:vexst__snare010-trnce-138-x-sc5G#.wav
64,192,50941,1,0,0:0:0:100:vexst__snare010-trnce-138-x-sc5G#.wav
448,192,51013,1,0,0:0:0:100:vexst__snare010-trnce-138-x-sc5G#.wav
64,192,51084,1,0,0:0:0:100:vexst__snare010-trnce-138-x-sc5G#.wav
192,192,51155,1,0,0:0:0:100:vexst__snare010-trnce-138-x-sc5.wav
320,192,51227,1,0,0:0:0:100:vexst__snare010-trnce-138-x-sc5.wav
64,192,51298,1,8,0:0:0:0:
192,192,51298,1,0,0:0:0:0:
448,192,51370,1,0,0:0:0:0:
192,192,51441,1,6,0:0:0:0:
320,192,51513,1,0,0:0:0:100:vexst__snare010-trnce-138-x-sc5.wav
64,192,51584,1,0,0:0:0:100:vexst__snare010-trnce-138-x-sc5G#.wav
448,192,51584,1,0,0:0:0:0:
320,192,51727,1,0,0:0:0:100:vexst__snare010-trnce-138-x-sc5.wav
192,192,51798,1,0,0:0:0:100:vexst__snare010-trnce-138-x-sc5.wav
320,192,51870,1,0,0:0:0:100:vexst__snare010-trnce-138-x-sc5G#.wav
448,192,51870,1,0,0:0:0:0:
192,192,52013,1,6,0:0:0:0:
320,192,52084,1,6,0:0:0:0:
192,192,52155,1,6,0:0:0:0:
320,192,52227,1,6,0:0:0:0:
64,192,52298,1,0,0:0:0:100:vexst__snare010-trnce-138-x-sc5G#.wav
448,192,52370,1,0,0:0:0:100:vexst__snare010-trnce-138-x-sc5G#.wav
64,192,52441,1,0,0:0:0:100:vexst__snare010-trnce-138-x-sc5G#.wav
448,192,52513,1,0,0:0:0:100:vexst__snare010-trnce-138-x-sc5G#.wav
64,192,52584,1,2,0:0:0:0:
192,192,52584,1,4,0:0:0:0:
320,192,52727,1,8,0:0:0:0:
448,192,52727,1,0,0:0:0:0:
64,192,52798,1,2,0:0:0:0:
192,192,52870,1,0,0:0:0:100:vexst__snare010-trnce-138-x-sc5.wav
320,192,52941,1,0,0:0:0:100:vexst__snare010-trnce-138-x-sc5.wav
64,192,53013,1,2,0:0:0:0:
448,192,53084,1,2,0:0:0:0:
192,192,53155,1,2,0:0:0:0:
320,192,53227,1,2,0:0:0:0:
64,192,53298,1,8,0:0:0:0:
192,192,53298,1,0,0:0:0:0:
448,192,53441,128,0,53513:0:0:0:100:vexst__snare010-trnce-138-x-sc5.wav
64,192,53513,128,0,53584:0:0:0:100:vexst__snare010-trnce-138-x-sc5.wav
192,192,53584,128,0,53655:0:0:0:100:vexst__snare010-trnce-138-x-sc5.wav
320,192,53655,128,0,53727:0:0:0:100:vexst__snare010-trnce-138-x-sc5.wav
64,192,53727,1,6,0:0:0:0:
64,192,53870,1,6,0:0:0:0:
320,192,54013,1,8,0:0:0:0:
448,192,54013,1,0,0:0:0:0:
192,192,54155,1,0,0:0:0:100:vexst__snare010-trnce-138-x-sc5.wav
320,192,54227,1,0,0:0:0:100:vexst__snare010-trnce-138-x-sc5.wav
64,192,54298,1,6,0:0:0:0:
448,192,54441,1,0,0:0:0:100:vexst__snare010-trnce-138-x-sc5.wav
64,192,54513,1,0,0:0:0:100:vexst__snare010-trnce-138-x-sc5G#.wav
448,192,54584,1,0,0:0:0:100:vexst__snare010-trnce-138-x-sc5.wav
64,192,54655,1,0,0:0:0:100:vexst__snare010-trnce-138-x-sc5G#.wav
320,192,54727,1,0,0:0:0:100:vexst__snare010-trnce-138-x-sc5.wav
192,192,54798,1,0,0:0:0:100:vexst__snare010-trnce-138-x-sc5.wav
448,192,54870,128,6,56441:0:0:0:0:
