osu file format v14

[General]
AudioFilename: audio.mp3
AudioLeadIn: 0
PreviewTime: 36548
Countdown: 0
SampleSet: Soft
StackLeniency: 0.7
Mode: 2
LetterboxInBreaks: 0
WidescreenStoryboard: 1

[Editor]
DistanceSpacing: 1
BeatDivisor: 8
GridSize: 32
TimelineZoom: 5.099998

[Metadata]
Title:broken legs
TitleUnicode:broken legs
Artist:Kola Kid
ArtistUnicode:Kola Kid
Creator:Nelly
Version:Overdose
Source:osu!
Tags:larakagi fa featured artist mappers guild fruit factory electronic instrumental chiptune 8-bit 8bit retro contra 88 russian -joni- jbhyperion jemzuu ajamez
BeatmapID:2315728
BeatmapSetID:1108015

[Difficulty]
HPDrainRate:7
CircleSize:3.8
OverallDifficulty:9.6
ApproachRate:9.6
SliderMultiplier:1.55
SliderTickRate:2

[Events]
//Background and Video events
0,0,"bg.png",0,0
//Break Periods
//Storyboard Layer 0 (Background)
//Storyboard Layer 1 (Fail)
//Storyboard Layer 2 (Pass)
//Storyboard Layer 3 (Foreground)
//Storyboard Layer 4 (Overlay)
//Storyboard Sound Samples

[TimingPoints]
13,285.714285714286,4,2,0,100,1,0
2298,-74.0740740740741,4,2,0,100,0,0
8013,-100,4,2,0,100,0,0
9155,-74.0740740740741,4,2,0,100,0,0
18298,-100,4,2,0,100,0,0
20584,-74.0740740740741,4,2,0,100,0,0
27441,-74.0740740740741,4,2,0,100,0,1
32013,-74.0740740740741,4,2,0,100,0,0
36584,-100,4,2,0,100,0,1
38870,-74.0740740740741,4,2,0,100,0,1
41155,-100,4,2,0,100,0,0
43441,-74.0740740740741,4,2,0,100,0,0

[Colours]
Combo1 : 80,226,175
Combo2 : 211,1,80
Combo3 : 26,96,210

[HitObjects]
139,269,13,5,2,0:0:0:0:
139,230,84,1,2,0:0:0:0:
155,195,155,1,2,0:0:0:0:
182,167,227,1,2,0:0:0:0:
217,152,298,1,2,0:0:0:0:
366,247,441,2,0,L|211:244,2,155,2|2|2,0:0|0:0|0:0,0:0:0:0:
161,128,1441,6,0,L|145:91,2,38.75,2|0|0,0:0|0:0|0:0,0:0:0:0:
418,314,1727,5,0,0:0:0:0:
451,302,1774,1,0,0:0:0:0:
476,274,1822,1,0,0:0:0:0:
486,238,1869,1,0,0:0:0:0:
478,202,1917,1,0,0:0:0:0:
451,174,1965,1,0,0:0:0:0:
418,164,2012,1,0,0:0:0:0:
47,163,2298,5,0,3:0:0:0:
308,116,2441,2,0,L|253:113,1,52.3125001995564,0|0,3:0|3:0,3:0:0:0:
47,286,2584,2,0,L|18:284,6,26.1562500997782,2|0|0|0|0|0|0,3:0|3:0|3:0|3:0|3:0|3:0|3:0,3:0:0:0:
268,265,2870,1,2,3:0:0:0:
163,259,3013,1,2,3:0:0:0:
366,162,3155,2,0,L|421:159,1,52.3125001995564,2|2,3:0|3:0,3:0:0:0:
252,60,3298,2,0,L|307:57,1,52.3125001995564,2|2,3:0|3:0,3:0:0:0:
491,279,3441,6,0,L|331:267,1,156.937500598669,10|8,3:0|3:0,3:0:0:0:
178,146,3870,2,0,L|338:134,1,156.937500598669,8|8,3:0|3:0,3:0:0:0:
146,134,4298,2,0,P|120:148|144:250,1,156.937500598669,8|0,3:0|3:0,3:0:0:0:
336,251,4584,6,0,L|388:249,1,52.3125001995564,10|0,3:0|3:0,3:0:0:0:
209,180,4727,2,0,L|205:124,1,52.3125001995564,2|0,3:0|3:0,3:0:0:0:
268,81,4870,2,0,L|321:77,1,52.3125001995564,2|0,3:0|3:0,3:0:0:0:
236,270,5013,2,0,L|183:266,1,52.3125001995564,2|0,3:0|3:0,3:0:0:0:
466,354,5155,5,2,3:0:0:0:
467,328,5190,1,0,3:0:0:0:
459,303,5226,1,0,3:0:0:0:
444,281,5262,1,0,3:0:0:0:
424,265,5297,1,0,3:0:0:0:
400,255,5333,1,0,3:0:0:0:
374,254,5369,1,0,3:0:0:0:
220,241,5441,5,2,3:0:0:0:
219,215,5476,1,0,3:0:0:0:
227,190,5512,1,0,3:0:0:0:
242,168,5548,1,0,3:0:0:0:
262,152,5583,1,0,3:0:0:0:
286,142,5619,1,0,3:0:0:0:
312,141,5655,1,0,3:0:0:0:
145,106,5727,6,0,L|40:100,1,104.625000399113,10|8,3:0|3:0,3:0:0:0:
299,254,6013,2,0,L|305:149,1,104.625000399113,10|2,3:0|3:0,3:0:0:0:
179,154,6298,1,10,3:0:0:0:
304,142,6441,1,8,3:0:0:0:
45,319,6584,2,0,L|150:313,1,104.625000399113,10|2,3:0|3:0,3:0:0:0:
451,294,6870,6,0,L|454:189,1,104.625000399113,2|0,0:0|0:0,0:0:0:0:
349,179,7155,1,0,0:0:0:0:
202,168,7298,2,0,L|199:63,1,104.625000399113,2|0,0:0|0:0,0:0:0:0:
345,44,7584,2,0,L|399:48,2,52.3125001995564,2|2|2,0:0|0:0|0:0,0:0:0:0:
197,36,7870,1,0,0:0:0:0:
482,166,8013,6,0,L|327:170,2,155,8|8|8,3:0|3:0|3:0,3:0:0:0:
219,248,9156,5,2,3:0:0:0:
186,235,9191,1,0,3:0:0:0:
171,201,9227,1,0,3:0:0:0:
186,169,9263,1,0,3:0:0:0:
219,157,9298,1,0,3:0:0:0:
348,157,9441,2,0,L|374:157,4,26.1562500997782,2|0|0|0|0,3:0|3:0|3:0|3:0|3:0,3:0:0:0:
63,229,9727,1,8,3:0:0:0:
52,178,9798,1,8,3:0:0:0:
76,133,9869,1,8,3:0:0:0:
123,114,9941,1,8,3:0:0:0:
316,112,10013,6,0,L|423:116,1,104.625000399113,8|2,3:0|3:0,3:0:0:0:
446,117,10191,1,2,3:0:0:0:
472,119,10227,1,2,3:0:0:0:
399,212,10298,1,2,3:0:0:0:
372,213,10334,1,2,3:0:0:0:
345,214,10370,1,2,3:0:0:0:
43,256,10441,6,0,L|38:148,1,104.625000399113,2|0,3:0|3:0,3:0:0:0:
292,56,10727,2,0,L|399:52,1,104.625000399113,8|2,3:0|3:0,3:0:0:0:
422,51,10905,1,2,3:0:0:0:
448,49,10941,1,2,3:0:0:0:
255,241,11013,2,0,L|204:235,1,52.3125001995564,2|0,3:0|3:0,3:0:0:0:
265,155,11155,2,0,L|316:149,1,52.3125001995564,2|0,3:0|3:0,3:0:0:0:
255,241,11298,1,10,3:0:0:0:
19,127,11441,6,0,L|75:124,1,52.3125001995564,2|0,3:0|3:0,3:0:0:0:
252,337,11584,2,0,L|196:334,1,52.3125001995564,2|2,3:0|3:0,3:0:0:0:
20,323,11727,1,2,3:0:0:0:
19,297,11762,1,0,3:0:0:0:
27,272,11798,1,0,3:0:0:0:
42,250,11834,1,0,3:0:0:0:
62,234,11869,1,0,3:0:0:0:
86,224,11905,1,0,3:0:0:0:
112,223,11941,1,0,3:0:0:0:
313,229,12013,6,0,L|417:237,1,104.625000399113,2|0,3:0|3:0,3:0:0:0:
112,336,12298,2,0,P|85:320|91:184,1,183.093750698447,4|0,3:0|3:0,3:0:0:0:
345,95,13727,6,0,L|372:95,4,26.1562500997782,2|0|0|0|0,3:0|3:0|3:0|3:0|3:0,3:0:0:0:
78,93,14013,2,0,L|76:201,1,104.625000399113,0|2,3:0|3:0,3:0:0:0:
102,201,14191,1,2,3:0:0:0:
128,204,14227,1,2,3:0:0:0:
320,216,14298,2,0,L|326:269,1,52.3125001995564,0|0,3:0|3:0,3:0:0:0:
252,267,14441,2,0,L|258:320,1,52.3125001995564,0|0,3:0|3:0,3:0:0:0:
448,346,14584,5,2,3:0:0:0:
481,333,14619,1,0,3:0:0:0:
496,299,14655,1,0,3:0:0:0:
481,267,14691,1,0,3:0:0:0:
448,255,14726,1,0,3:0:0:0:
196,144,14870,1,10,3:0:0:0:
321,140,15013,1,0,3:0:0:0:
85,172,15155,5,2,3:0:0:0:
59,170,15190,1,0,3:0:0:0:
36,158,15226,1,0,3:0:0:0:
21,137,15262,1,0,3:0:0:0:
16,111,15297,1,0,3:0:0:0:
363,316,15441,1,8,3:0:0:0:
374,265,15512,1,8,3:0:0:0:
350,220,15583,1,8,3:0:0:0:
303,201,15655,1,8,3:0:0:0:
123,195,15727,2,0,L|66:198,1,52.3125001995564,8|8,3:0|3:0,3:0:0:0:
253,76,15870,2,0,L|310:79,1,52.3125001995564,8|8,3:0|3:0,3:0:0:0:
55,342,16013,6,0,L|48:238,1,104.625000399113,8|0,3:0|3:0,3:0:0:0:
289,88,16298,1,2,3:0:0:0:
314,93,16333,1,2,3:0:0:0:
332,112,16369,1,2,3:0:0:0:
332,161,16440,1,8,3:0:0:0:
288,184,16512,1,8,3:0:0:0:
99,191,16584,1,8,3:0:0:0:
72,190,16619,1,0,3:0:0:0:
46,189,16655,1,8,3:0:0:0:
286,317,16727,2,0,L|391:312,2,104.625000399113,8|2|0,3:0|3:0|3:0,3:0:0:0:
58,59,17155,6,0,L|163:64,2,104.625000399113,0|0|0,3:0|3:0|3:0,3:0:0:0:
293,261,17584,2,0,L|310:238,2,26.1562500997782,2|2|2,3:0|3:0|3:0,3:0:0:0:
58,214,17727,2,0,L|164:209,1,104.625000399113,0|0,3:0|3:0,3:0:0:0:
235,201,17941,2,0,L|244:149,1,52.3125001995564,8|8,3:0|3:0,3:0:0:0:
168,139,18084,2,0,L|177:87,1,52.3125001995564,8|10,3:0|3:0,3:0:0:0:
213,84,18191,1,2,3:0:0:0:
249,81,18227,1,2,3:0:0:0:
445,75,18298,6,0,B|289:81|289:81|445:92|445:92|288:100,1,465,4|0,0:0|0:0,0:0:0:0:
163,236,19441,2,0,L|146:271,3,38.75,2|2|2|2,0:0|0:0|0:0|0:0,0:0:0:0:
210,343,19727,6,0,L|290:347,1,77.5,2|0,0:0|0:0,0:0:0:0:
50,263,20013,1,2,0:0:0:0:
39,226,20084,1,2,0:0:0:0:
46,188,20155,1,2,0:0:0:0:
71,158,20227,1,2,0:0:0:0:
123,145,20298,1,2,0:0:0:0:
390,148,20441,2,0,L|397:126,1,19.375,2|0,0:0|0:0,0:0:0:0:
135,50,20584,6,0,L|240:44,1,104.625000399113,6|0,3:0|3:0,3:0:0:0:
26,227,20870,2,8,L|78:224,1,52.3125001995564,8|8,3:0|3:0,3:0:0:0:
293,206,21013,1,8,3:0:0:0:
340,187,21085,1,8,3:0:0:0:
364,142,21156,1,8,3:0:0:0:
353,91,21227,1,8,3:0:0:0:
191,53,21298,1,12,3:0:0:0:
445,312,21441,2,0,L|449:205,1,104.625000399113,10|0,3:0|3:0,3:0:0:0:
198,174,21727,6,0,L|204:117,1,52.3125001995564,8|8,3:0|3:0,3:0:0:0:
280,287,21870,2,0,L|286:230,1,52.3125001995564,8|8,3:0|3:0,3:0:0:0:
103,152,22013,5,2,3:0:0:0:
70,139,22048,1,0,3:0:0:0:
55,105,22084,1,0,3:0:0:0:
70,73,22120,1,0,3:0:0:0:
103,61,22155,1,0,3:0:0:0:
340,63,22298,2,0,L|343:167,1,104.625000399113,2|0,3:2|3:0,3:0:0:0:
195,176,22584,2,0,L|192:280,1,104.625000399113,2|0,3:2|3:0,3:0:0:0:
445,327,22870,6,0,L|476:324,4,26.1562500997782,2|0|0|0|0,3:0|0:0|0:0|0:0|0:0,0:0:0:0:
319,332,23155,1,2,0:0:0:0:
444,326,23298,1,2,0:0:0:0:
214,256,23441,2,0,L|209:204,1,52.3125001995564,2|2,0:0|0:0,0:0:0:0:
276,175,23584,1,2,0:0:0:0:
422,84,23727,2,0,L|315:79,1,104.625000399113,2|2,0:0|0:0,0:0:0:0:
33,290,24013,5,0,3:0:0:0:
32,237,24084,1,0,3:0:0:0:
46,187,24155,1,0,3:0:0:0:
74,143,24227,1,0,3:0:0:0:
113,108,24298,1,0,3:0:0:0:
160,86,24370,1,0,3:0:0:0:
352,78,24441,6,0,L|458:83,1,104.625000399113,0|2,3:0|3:0,3:0:0:0:
429,167,24620,1,2,3:0:0:0:
403,172,24655,1,2,3:0:0:0:
236,194,24727,2,0,L|130:199,1,104.625000399113,0|2,3:0|3:0,3:0:0:0:
159,283,24906,1,2,3:0:0:0:
185,288,24941,1,2,3:0:0:0:
210,294,24977,1,2,3:0:0:0:
235,300,25013,1,2,3:0:0:0:
14,120,25155,5,12,3:0:0:0:
256,192,25227,12,0,26298,0:0:0:0:
127,158,27441,6,0,L|125:130,1,26.1562500997782,4|0,3:0|3:0,3:0:0:0:
237,82,27584,2,0,L|254:59,2,26.1562500997782,2|2|2,3:0|3:0|3:0,3:0:0:0:
30,300,27727,2,0,L|136:292,1,104.625000399113,2|0,3:0|3:0,3:0:0:0:
379,275,28013,2,0,L|385:224,1,52.3125001995564,10|8,3:0|3:0,3:0:0:0:
246,158,28227,2,0,L|240:107,1,52.3125001995564,10|8,3:0|3:0,3:0:0:0:
389,47,28441,1,2,3:0:0:0:
146,299,28584,5,2,3:0:0:0:
120,297,28619,1,0,3:0:0:0:
97,285,28655,1,0,3:0:0:0:
82,264,28691,1,0,3:0:0:0:
77,238,28726,1,0,3:0:0:0:
322,156,28870,5,2,3:0:0:0:
347,154,28905,1,0,3:0:0:0:
370,142,28941,1,0,3:0:0:0:
385,121,28977,1,0,3:0:0:0:
390,95,29012,1,0,3:0:0:0:
82,218,29155,5,8,3:0:0:0:
71,167,29226,1,8,3:0:0:0:
95,122,29297,1,8,3:0:0:0:
142,103,29369,1,8,3:0:0:0:
312,97,29441,2,0,L|370:101,1,52.3125001995564,8|8,3:0|3:0,3:0:0:0:
168,203,29584,1,8,3:0:0:0:
460,322,29727,6,0,L|463:264,1,52.3125001995564,8|0,3:0|3:0,3:0:0:0:
266,210,29870,2,0,L|372:204,1,104.625000399113,8|2,3:0|3:0,3:0:0:0:
396,109,30048,2,0,L|370:107,5,26.1562500997782,0|0|0|0|0|0,3:0|3:0|3:0|3:0|3:0|3:0,3:0:0:0:
166,100,30298,2,0,L|61:105,1,104.625000399113,2|0,3:0|3:0,3:0:0:0:
283,305,30584,2,0,L|289:253,1,52.3125001995564,8|8,3:0|3:0,3:0:0:0:
212,242,30727,2,0,L|218:190,1,52.3125001995564,8|8,3:0|3:0,3:0:0:0:
475,90,30870,6,0,L|354:193,2,156.937500598669,8|10|8,3:0|3:0|3:0,3:0:0:0:
161,37,31513,2,0,L|133:36,1,26.1562500997782,10|0,3:0|3:0,3:0:0:0:
381,252,31727,2,0,L|407:254,6,26.1562500997782,2|0|0|0|0|0|0,3:0|3:0|3:0|3:0|3:0|3:0|3:0,3:0:0:0:
137,232,32013,5,2,0:0:0:0:
74,228,32084,2,0,L|59:174,2,52.3125001995564
242,232,32298,1,2,0:0:0:0:
305,228,32370,2,0,L|320:174,2,52.3125001995564
59,177,32584,6,0,L|44:227,2,52.3125001995564,2|0|0,0:0|0:0|0:0,0:0:0:0:
121,177,32797,1,0,0:0:0:0:
319,177,32870,2,0,L|334:227,2,52.3125001995564,2|0|0,0:0|0:0|0:0,0:0:0:0:
257,177,33083,1,0,0:0:0:0:
54,77,33155,6,0,L|158:72,1,104.625000399113,2|0,3:0|3:0,3:0:0:0:
397,67,33441,2,0,L|426:68,4,26.1562500997782,2|0|0|0|0,3:0|3:0|3:0|3:0|3:0,3:0:0:0:
160,284,33727,2,0,L|212:281,1,52.3125001995564,8|8,3:0|3:0,3:0:0:0:
285,275,33870,2,0,L|337:272,1,52.3125001995564,8|8,3:0|3:0,3:0:0:0:
109,205,34013,5,10,3:0:0:0:
79,195,34048,1,0,3:0:0:0:
57,173,34084,1,0,3:0:0:0:
50,143,34120,1,0,3:0:0:0:
57,113,34155,1,0,3:0:0:0:
79,91,34191,1,0,3:0:0:0:
109,82,34227,1,0,3:0:0:0:
313,195,34298,5,2,0:0:0:0:
376,191,34370,2,0,L|391:137,2,52.3125001995564
208,195,34584,1,2,0:0:0:0:
145,191,34655,2,0,L|130:137,2,52.3125001995564
391,140,34870,6,0,L|406:190,2,52.3125001995564,2|0|0,0:0|0:0|0:0,0:0:0:0:
329,140,35084,1,0,0:0:0:0:
131,140,35155,2,0,L|116:190,2,52.3125001995564,2|0|0,0:0|0:0|0:0,0:0:0:0:
193,140,35370,1,0,0:0:0:0:
374,279,35441,6,0,L|322:276,1,52.3125001995564,8|8,3:0|3:0,3:0:0:0:
249,270,35584,2,0,L|197:267,1,52.3125001995564,8|8,3:0|3:0,3:0:0:0:
431,184,35727,2,0,L|436:79,1,104.625000399113,8|2,3:0|3:0,3:0:0:0:
399,76,35905,1,2,3:0:0:0:
362,73,35941,1,2,3:0:0:0:
125,71,36013,6,0,L|107:97,1,26.1562500997782,2|0,3:2|3:0,3:0:0:0:
209,169,36155,2,0,L|200:199,1,26.1562500997782,2|0,3:2|3:0,3:0:0:0:
303,246,36298,2,0,L|311:276,1,26.1562500997782,2|0,3:2|3:0,3:0:0:0:
410,305,36441,2,0,L|432:327,1,26.1562500997782,2|0,3:2|3:0,3:0:0:0:
134,344,36584,6,0,L|129:264,1,77.5,6|0,0:0|0:0,0:0:0:0:
236,245,36870,1,0,0:0:0:0:
342,224,37013,1,2,0:0:0:0:
194,151,37155,2,0,L|189:71,1,77.5,2|0,0:0|0:0,0:0:0:0:
307,59,37441,1,0,0:0:0:0:
188,50,37584,1,2,0:0:0:0:
345,148,37727,6,0,L|365:107,2,38.75,0|0|2,0:0|0:0|0:0,0:0:0:0:
235,262,38013,1,0,0:0:0:0:
197,261,38084,1,0,0:0:0:0:
158,259,38155,1,2,0:0:0:0:
266,151,38298,1,0,0:0:0:0:
304,150,38369,1,0,0:0:0:0:
343,148,38440,1,2,0:0:0:0:
233,51,38584,2,0,L|183:48,2,38.75,0|0|2,0:0|0:0|0:0,0:0:0:0:
496,316,38870,6,0,L|391:310,1,104.625000399113,8|8,3:0|3:0,3:0:0:0:
141,283,39155,1,2,3:0:0:0:
111,273,39190,1,0,3:0:0:0:
89,251,39226,1,0,3:0:0:0:
82,221,39262,1,0,3:0:0:0:
89,191,39297,1,0,3:0:0:0:
111,169,39333,1,0,3:0:0:0:
141,160,39369,1,0,3:0:0:0:
337,148,39441,6,0,L|442:142,1,104.625000399113,8|0,3:0|3:0,3:0:0:0:
207,330,39727,2,0,L|201:277,1,52.3125001995564,8|8,3:0|3:0,3:0:0:0:
278,268,39870,2,0,L|272:215,1,52.3125001995564,8|8,3:0|3:0,3:0:0:0:
37,90,40013,6,0,L|158:193,2,156.937500598669,8|2|0,3:0|3:0|3:0,3:0:0:0:
351,37,40656,2,0,L|379:36,1,26.1562500997782,10|0,3:0|3:0,3:0:0:0:
53,303,40870,1,2,3:0:0:0:
50,271,40905,1,0,3:0:0:0:
57,241,40941,1,0,3:0:0:0:
73,214,40977,1,0,3:0:0:0:
96,193,41012,1,0,3:0:0:0:
124,180,41048,1,0,3:0:0:0:
155,175,41084,1,0,3:0:0:0:
335,177,41155,6,0,L|490:180,3,155,2|2|2|2,0:0|0:0|0:0|0:0,0:0:0:0:
348,325,42298,2,0,L|270:330,3,77.5,2|2|2|2,0:0|0:0|0:0|0:0,0:0:0:0:
400,341,42870,5,2,0:0:0:0:
436,328,42941,1,2,0:0:0:0:
464,302,43012,1,2,0:0:0:0:
480,267,43084,1,2,0:0:0:0:
481,229,43155,1,2,0:0:0:0:
465,193,43227,1,2,0:0:0:0:
436,166,43298,1,2,0:0:0:0:
400,153,43370,1,2,0:0:0:0:
176,138,43441,6,0,L|235:134,1,52.3125001995564,8|8,3:0|3:0,3:0:0:0:
290,235,43584,2,0,L|231:231,1,52.3125001995564,8|8,3:0|3:0,3:0:0:0:
51,211,43727,2,0,L|46:107,1,104.625000399113,8|0,3:0|3:0,3:0:0:0:
263,58,44013,2,0,L|157:52,1,104.625000399113,8|8,3:0|3:0,3:0:0:0:
367,209,44298,2,0,L|393:209,4,26.1562500997782,2|0|0|0|0,3:0|3:0|3:0|3:0|3:0,3:0:0:0:
95,183,44584,6,0,L|201:180,2,104.625000399113,6|0|0,3:0|3:0|3:0,3:0:0:0:
242,322,45013,2,0,L|247:270,1,52.3125001995564,8|0,3:0|3:0,3:0:0:0:
48,233,45155,2,0,L|43:181,1,52.3125001995564,8|0,3:0|3:0,3:0:0:0:
101,165,45298,1,8,3:0:0:0:
332,154,45441,2,0,L|384:159,2,52.3125001995564,8|0|8,3:0|3:0|3:0,3:0:0:0:
74,61,45727,6,0,L|48:61,4,26.1562500997782,10|0|0|0|0,3:0|3:0|3:0|3:0|3:0,3:0:0:0:
137,61,45941,1,0,3:0:0:0:
385,264,46013,2,0,L|332:262,1,52.3125001995564,0|0,3:0|3:0,3:0:0:0:
122,242,46155,1,10,3:0:0:0:
96,240,46190,1,0,3:0:0:0:
73,228,46226,1,0,3:0:0:0:
58,207,46262,1,0,3:0:0:0:
53,181,46297,1,8,3:0:0:0:
310,103,46370,2,0,L|416:98,1,104.625000399113,0|0,3:0|3:0,3:0:0:0:
362,92,46584,1,10,3:0:0:0:
122,242,46727,5,2,3:0:0:0:
92,232,46762,1,0,3:0:0:0:
70,210,46798,1,0,3:0:0:0:
63,180,46834,1,0,3:0:0:0:
70,150,46869,1,0,3:0:0:0:
92,128,46905,1,0,3:0:0:0:
122,119,46941,1,0,3:0:0:0:
350,123,47084,1,0,3:0:0:0:
403,41,47155,2,0,L|297:35,1,104.625000399113,2|2,3:0|3:0,3:0:0:0:
52,29,47441,6,0,L|26:29,4,26.1562500997782,2|0|0|0|0,3:0|3:0|3:0|3:0|3:0,3:0:0:0:
308,212,47727,1,2,3:0:0:0:
255,213,47798,1,2,3:0:0:0:
203,215,47869,1,2,3:0:0:0:
457,308,48013,5,8,3:0:0:0:
196,137,48155,2,0,L|191:83,1,52.3125001995564,0|0,3:0|3:0,3:0:0:0:
368,32,48298,1,0,3:0:0:0:
416,48,48369,1,0,3:0:0:0:
448,92,48440,1,0,3:0:0:0:
448,143,48512,1,0,3:0:0:0:
416,184,48583,1,0,3:0:0:0:
368,204,48655,1,0,3:0:0:0:
182,208,48727,6,0,L|78:204,1,104.625000399113,8|8,3:0|3:0,3:0:0:0:
315,94,49013,2,0,L|341:94,4,26.1562500997782,2|0|0|0|0,3:0|3:0|3:0|3:0|3:0,3:0:0:0:
25,292,49370,6,0,L|181:284,2,156.937500598669,8|10|8,3:0|3:0|3:0,3:0:0:0:
447,95,50013,1,2,3:0:0:0:
449,121,50048,1,0,3:0:0:0:
444,145,50084,1,0,3:0:0:0:
431,166,50120,1,0,3:0:0:0:
413,183,50155,1,0,3:0:0:0:
390,194,50191,1,0,3:0:0:0:
365,198,50227,1,0,3:0:0:0:
197,194,50298,6,0,L|88:192,1,104.625000399113,8|8,3:0|3:0,3:0:0:0:
385,170,50584,2,0,L|390:66,1,104.625000399113,8|2,3:0|3:0,3:0:0:0:
357,63,50763,1,2,3:0:0:0:
326,60,50798,1,2,3:0:0:0:
161,55,50870,2,0,L|156:109,1,52.3125001995564,8|8,3:0|3:0,3:0:0:0:
234,31,51013,2,0,L|229:85,1,52.3125001995564,8|8,3:0|3:0,3:0:0:0:
53,199,51155,6,0,L|23:199,4,26.1562500997782,2|0|0|0|0,3:0|3:0|3:0|3:0|3:0,3:0:0:0:
258,313,51441,1,2,3:0:0:0:
132,304,51584,1,2,3:0:0:0:
342,228,51727,5,8,3:0:0:0:
368,226,51762,1,0,3:0:0:0:
391,214,51798,1,0,3:0:0:0:
406,193,51834,1,0,3:0:0:0:
411,167,51869,1,0,3:0:0:0:
178,105,52013,2,0,L|233:103,1,52.3125001995564,8|8,3:0|3:0,3:0:0:0:
302,99,52155,2,0,L|357:97,1,52.3125001995564,8|8,3:0|3:0,3:0:0:0:
103,307,52298,1,8,3:0:0:0:
92,256,52369,1,8,3:0:0:0:
116,211,52440,1,8,3:0:0:0:
163,192,52512,1,8,3:0:0:0:
338,188,52584,6,0,L|444:192,1,104.625000399113,8|0,3:0|3:0,3:0:0:0:
238,320,52870,1,2,3:0:0:0:
207,318,52905,1,2,3:0:0:0:
175,317,52941,2,0,P|161:286|177:218,1,104.625000399113,2|0,3:0|3:0,3:0:0:0:
344,170,53155,2,0,L|452:167,1,104.625000399113,2|0,3:0|3:0,3:0:0:0:
193,41,53441,5,2,3:0:0:0:
167,43,53476,1,0,3:0:0:0:
144,55,53512,1,0,3:0:0:0:
129,76,53548,1,0,3:0:0:0:
124,102,53583,1,0,3:0:0:0:
388,277,53727,2,0,L|279:279,2,104.625000399113,8|8|10,3:0|3:0|3:0,3:0:0:0:
177,215,54155,2,0,L|158:194,2,26.1562500997782,2|2|2,3:0|3:0|3:0,3:0:0:0:
360,226,54298,6,0,L|413:225,1,52.3125001995564,0|0,3:0|3:0,3:0:0:0:
233,58,54441,2,0,L|180:57,1,52.3125001995564,0|0,3:0|3:0,3:0:0:0:
398,301,54584,2,0,L|451:297,1,52.3125001995564,0|0,3:0|3:0,3:0:0:0:
206,145,54727,2,0,L|151:141,1,52.3125001995564,0|0,3:0|3:0,3:0:0:0:
470,363,54870,5,14,3:0:0:0:
256,192,54941,12,0,59155,0:0:0:0:
