osu file format v14

[General]
AudioFilename: audio.mp3
AudioLeadIn: 0
PreviewTime: 25155
Countdown: 0
SampleSet: Normal
StackLeniency: 1
Mode: 1
LetterboxInBreaks: 0
WidescreenStoryboard: 1

[Editor]
DistanceSpacing: 1.5
BeatDivisor: 2
GridSize: 32
TimelineZoom: 2.3

[Metadata]
Title:broken legs
TitleUnicode:broken legs
Artist:Kola Kid
ArtistUnicode:Kola Kid
Creator:Axer
Version:muzukashii
Source:osu!
Tags:contra 88 8-bit 8bit chiptune breakcore featured artist fa electronic instrumental experimental mappers' guild mg xtrem3x
BeatmapID:2352971
BeatmapSetID:1125972

[Difficulty]
HPDrainRate:6
CircleSize:2
OverallDifficulty:4
ApproachRate:10
SliderMultiplier:1.4
SliderTickRate:1

[Events]
//Background and Video events
0,0,"blue_city.png",0,0
//Break Periods
//Storyboard Layer 0 (Background)
//Storyboard Layer 1 (Fail)
//Storyboard Layer 2 (Pass)
//Storyboard Layer 3 (Foreground)
//Storyboard Layer 4 (Overlay)
//Storyboard Sound Samples

[TimingPoints]
19,285.714285714286,4,1,0,70,1,0
19,-133.333333333333,4,1,0,70,0,0
85,-131.958849952231,4,1,0,70,0,0
156,-130.612244897959,4,1,0,70,0,0
228,-129.292845709676,4,1,0,70,0,0
299,-128,4,1,0,70,0,0
442,-125.490196078431,4,1,0,70,0,0
728,-120.754716981132,4,1,0,70,0,0
1014,-116.363636363636,4,1,0,70,0,0
1442,-110.344827586207,4,1,0,70,0,0
1514,-109.401769245412,4,1,0,70,0,0
1585,-108.474576271186,4,1,0,70,0,0
1728,-106.666666666667,4,1,0,70,0,0
1775,-106.077385574324,4,1,0,70,0,0
1823,-105.49446839755,4,1,0,70,0,0
1871,-104.918032786885,4,1,0,70,0,0
1918,-104.347862381865,4,1,0,70,0,0
1966,-103.783747880217,4,1,0,70,0,0
2014,-103.225806451613,4,1,0,70,0,0
2061,-102.673831931151,4,1,0,70,0,0
2156,-100,4,1,3,70,0,0
6799,-100,4,1,0,70,0,0
9156,-100,4,1,3,70,0,0
12228,-100,4,1,0,50,0,0
13656,-100,4,1,3,70,0,0
18442,-125,4,1,0,50,0,0
20514,-100.401606425703,4,1,3,70,0,0
25228,-100,4,1,0,25,0,0
26299,-133.333333333333,4,1,0,25,0,0
27299,-100,4,1,3,70,0,0
32019,-100,4,1,3,70,0,1
33161,-100,4,1,3,70,0,0
34304,-100,4,1,3,70,0,1
35447,-100,4,1,3,70,0,0
36567,-100,4,1,0,70,0,0
38871,-100,4,1,3,70,0,0
41228,-100,4,1,0,50,0,0
43442,-100,4,1,3,70,0,0
52585,-100,4,1,3,70,0,0
52871,-98.6878463943409,4,1,3,70,0,0
53014,-98.0445023996392,4,1,3,70,0,0
53085,-97.7260133943274,4,1,3,70,0,0
53156,-97.4095868567193,4,1,3,70,0,0
53299,-96.7828415635849,4,1,3,70,0,0
53442,-96.16410982326,4,1,3,70,0,0
53585,-95.5532389203631,4,1,3,70,0,0
53728,-94.9499898403511,4,1,3,70,0,0
53871,-94.354398896431,4,1,3,70,0,0
54014,-93.7662332791365,4,1,3,70,0,0
54156,-93.1853549896098,4,1,3,70,0,0
54228,-92.8976064002735,4,1,3,70,0,0
54299,-92.6116294275305,4,1,3,70,0,0
54442,-92.0448405645294,4,1,3,70,0,0
54585,-91.4850307618416,4,1,3,70,0,0
54728,-90.9319892372898,4,1,3,70,0,0
54835,-80,4,1,0,100,0,0

[HitObjects]
256,192,19,5,0,0:0:0:0:
256,192,161,1,0,0:0:0:0:
256,192,233,1,0,0:0:0:0:
256,192,304,1,0,0:0:0:0:
256,192,447,1,0,0:0:0:0:
256,192,733,1,0,0:0:0:0:
256,192,1019,1,0,0:0:0:0:
256,192,1447,1,8,0:0:0:0:
256,192,1519,1,8,0:0:0:0:
256,192,1590,1,8,0:0:0:0:
256,192,2304,1,0,0:0:0:0:
256,192,2447,1,8,0:0:0:0:
256,192,2519,1,8,0:0:0:0:
256,192,2590,1,8,0:0:0:0:
256,192,2876,1,0,0:0:0:0:
256,192,3019,1,0,0:0:0:0:
256,192,3161,1,8,0:0:0:0:
256,192,3304,1,8,0:0:0:0:
256,192,3376,1,8,0:0:0:0:
256,192,3447,1,8,0:0:0:0:
256,192,3661,1,0,0:0:0:0:
256,192,3876,1,0,0:0:0:0:
256,192,4090,1,0,0:0:0:0:
256,192,4304,1,8,0:0:0:0:
256,192,4590,1,0,0:0:0:0:
256,192,4876,1,8,0:0:0:0:
256,192,5161,1,0,0:0:0:0:
256,192,5233,1,0,0:0:0:0:
256,192,5304,1,0,0:0:0:0:
256,192,5447,1,8,0:0:0:0:
256,192,5519,1,8,0:0:0:0:
256,192,5590,1,8,0:0:0:0:
256,192,5733,1,0,0:0:0:0:
256,192,6019,1,0,0:0:0:0:
256,192,6161,1,0,0:0:0:0:
256,192,6304,1,0,0:0:0:0:
256,192,6447,1,0,0:0:0:0:
256,192,6590,1,0,0:0:0:0:
256,192,6733,1,0,0:0:0:0:
256,192,6876,1,0,0:0:0:0:
256,192,7161,1,8,0:0:0:0:
256,192,7304,1,0,0:0:0:0:
256,192,7590,1,8,0:0:0:0:
256,192,7733,1,0,0:0:0:0:
256,192,7876,1,8,0:0:0:0:
256,192,8019,1,0,0:0:0:0:
256,192,8304,1,0,0:0:0:0:
256,192,8590,1,0,0:0:0:0:
256,192,9161,1,8,0:0:0:0:
256,192,9447,1,0,0:0:0:0:
256,192,9590,1,8,0:0:0:0:
256,192,9733,1,0,0:0:0:0:
256,192,9804,1,8,0:0:0:0:
256,192,9947,1,0,0:0:0:0:
256,192,10019,1,8,0:0:0:0:
256,192,10447,1,0,0:0:0:0:
256,192,10590,1,8,0:0:0:0:
256,192,10733,1,0,0:0:0:0:
256,192,10876,1,0,0:0:0:0:
256,192,11019,1,8,0:0:0:0:
256,192,11161,1,8,0:0:0:0:
256,192,11233,1,8,0:0:0:0:
256,192,11304,1,8,0:0:0:0:
256,192,11447,1,0,0:0:0:0:
256,192,11590,1,0,0:0:0:0:
256,192,11733,1,8,0:0:0:0:
256,192,11876,1,8,0:0:0:0:
256,192,12019,1,0,0:0:0:0:
256,192,12161,1,0,0:0:0:0:
256,192,12304,12,0,13590,0:0:0:0:
256,192,13733,5,8,0:0:0:0:
256,192,14019,1,0,0:0:0:0:
256,192,14161,1,0,0:0:0:0:
256,192,14304,1,8,0:0:0:0:
256,192,14447,1,8,0:0:0:0:
256,192,14590,1,8,0:0:0:0:
256,192,14661,1,8,0:0:0:0:
256,192,14733,1,8,0:0:0:0:
256,192,14876,1,0,0:0:0:0:
256,192,15019,1,8,0:0:0:0:
256,192,15447,1,0,0:0:0:0:
256,192,15519,1,0,0:0:0:0:
256,192,15590,1,0,0:0:0:0:
256,192,15733,1,8,0:0:0:0:
256,192,15804,1,8,0:0:0:0:
256,192,15876,1,8,0:0:0:0:
256,192,16019,1,0,0:0:0:0:
256,192,16161,1,8,0:0:0:0:
256,192,16304,1,8,0:0:0:0:
256,192,16447,1,0,0:0:0:0:
256,192,16590,1,0,0:0:0:0:
256,192,16733,1,8,0:0:0:0:
256,192,17161,1,0,0:0:0:0:
256,192,17304,1,0,0:0:0:0:
256,192,17447,1,8,0:0:0:0:
256,192,17590,1,8,0:0:0:0:
256,192,17661,1,8,0:0:0:0:
256,192,17876,1,0,0:0:0:0:
256,192,18019,1,0,0:0:0:0:
256,192,18161,1,8,0:0:0:0:
256,192,18304,1,0,0:0:0:0:
256,192,18590,1,0,0:0:0:0:
256,192,18876,1,8,0:0:0:0:
256,192,19161,1,8,0:0:0:0:
256,192,19447,1,0,0:0:0:0:
256,192,19590,1,0,0:0:0:0:
256,192,19733,1,8,0:0:0:0:
256,192,20019,1,0,0:0:0:0:
256,192,20304,1,8,0:0:0:0:
256,192,20447,1,8,0:0:0:0:
256,192,20590,1,0,0:0:0:0:
256,192,20876,1,8,0:0:0:0:
256,192,21019,1,0,0:0:0:0:
256,192,21161,1,0,0:0:0:0:
256,192,21304,1,8,0:0:0:0:
256,192,21447,1,0,0:0:0:0:
256,192,21590,1,0,0:0:0:0:
256,192,21733,1,8,0:0:0:0:
256,192,21804,1,8,0:0:0:0:
256,192,21876,1,8,0:0:0:0:
256,192,22019,1,8,0:0:0:0:
256,192,22304,1,0,0:0:0:0:
256,192,22447,1,0,0:0:0:0:
256,192,22590,1,8,0:0:0:0:
256,192,22733,1,8,0:0:0:0:
256,192,22804,1,8,0:0:0:0:
256,192,22876,1,8,0:0:0:0:
256,192,23447,1,8,0:0:0:0:
256,192,24019,1,0,0:0:0:0:
256,192,24161,1,0,0:0:0:0:
256,192,24233,1,0,0:0:0:0:
256,192,24304,1,0,0:0:0:0:
256,192,24447,1,0,0:0:0:0:
256,192,24590,1,8,0:0:0:0:
256,192,24876,1,8,0:0:0:0:
256,192,25019,1,8,0:0:0:0:
256,192,25090,1,8,0:0:0:0:
256,192,25161,1,8,0:0:0:0:
256,192,25304,12,0,26304,0:0:0:0:
256,192,26590,5,0,0:0:0:0:
256,192,26697,1,8,0:0:0:0:
256,192,27447,5,0,0:0:0:0:
256,192,27590,1,8,0:0:0:0:
256,192,27733,1,8,0:0:0:0:
256,192,27876,1,0,0:0:0:0:
256,192,28019,1,0,0:0:0:0:
256,192,28090,1,8,0:0:0:0:
256,192,28233,1,0,0:0:0:0:
256,192,28304,1,8,0:0:0:0:
256,192,28447,1,0,0:0:0:0:
256,192,28590,1,8,0:0:0:0:
256,192,28876,1,8,0:0:0:0:
256,192,29161,1,8,0:0:0:0:
256,192,29233,1,0,0:0:0:0:
256,192,29376,1,8,0:0:0:0:
256,192,29447,1,0,0:0:0:0:
256,192,29590,1,8,0:0:0:0:
256,192,29733,1,0,0:0:0:0:
256,192,30019,1,8,0:0:0:0:
256,192,30304,1,0,0:0:0:0:
256,192,30376,1,0,0:0:0:0:
256,192,30519,1,0,0:0:0:0:
256,192,30590,1,8,0:0:0:0:
256,192,30733,1,8,0:0:0:0:
256,192,30876,1,0,0:0:0:0:
256,192,31090,1,8,0:0:0:0:
256,192,31161,1,8,0:0:0:0:
256,192,31304,1,0,0:0:0:0:
256,192,31519,1,0,0:0:0:0:
256,192,31733,1,8,0:0:0:0:
256,192,32019,1,0,0:0:0:0:
256,192,32090,1,0,0:0:0:0:
256,192,32161,1,0,0:0:0:0:
256,192,32304,1,8,0:0:0:0:
256,192,32447,1,8,0:0:0:0:
256,192,32590,1,0,0:0:0:0:
256,192,32661,1,0,0:0:0:0:
256,192,32733,1,0,0:0:0:0:
256,192,32876,1,8,0:0:0:0:
256,192,33019,1,8,0:0:0:0:
256,192,33161,1,0,0:0:0:0:
256,192,33447,1,8,0:0:0:0:
256,192,33876,1,8,0:0:0:0:
256,192,33947,1,8,0:0:0:0:
256,192,34019,1,8,0:0:0:0:
256,192,34304,1,0,0:0:0:0:
256,192,34376,1,0,0:0:0:0:
256,192,34447,1,0,0:0:0:0:
256,192,34590,1,8,0:0:0:0:
256,192,34733,1,8,0:0:0:0:
256,192,34876,1,0,0:0:0:0:
256,192,34947,1,0,0:0:0:0:
256,192,35019,1,0,0:0:0:0:
256,192,35161,1,8,0:0:0:0:
256,192,35304,1,8,0:0:0:0:
256,192,35447,1,0,0:0:0:0:
256,192,35733,1,8,0:0:0:0:
256,192,35876,1,8,0:0:0:0:
256,192,36019,1,0,0:0:0:0:
256,192,36304,1,8,0:0:0:0:
256,192,36447,1,8,0:0:0:0:
256,192,36519,1,8,0:0:0:0:
256,192,36590,1,8,0:0:0:0:
256,192,37733,1,0,0:0:0:0:
256,192,37876,1,8,0:0:0:0:
256,192,38161,1,8,0:0:0:0:
256,192,38304,1,0,0:0:0:0:
256,192,38447,1,8,0:0:0:0:
256,192,38733,1,8,0:0:0:0:
256,192,38876,1,0,0:0:0:0:
256,192,39019,1,8,0:0:0:0:
256,192,39090,1,8,0:0:0:0:
256,192,39161,1,8,0:0:0:0:
256,192,39447,1,0,0:0:0:0:
256,192,39590,1,0,0:0:0:0:
256,192,39733,1,8,0:0:0:0:
256,192,39876,1,8,0:0:0:0:
256,192,39947,1,8,0:0:0:0:
256,192,40019,1,8,0:0:0:0:
256,192,40233,1,8,0:0:0:0:
256,192,40304,1,8,0:0:0:0:
256,192,40447,1,0,0:0:0:0:
256,192,40661,1,0,0:0:0:0:
256,192,40876,1,0,0:0:0:0:
256,192,41019,1,8,0:0:0:0:
256,192,41161,1,0,0:0:0:0:
256,192,41304,12,0,43304,0:0:0:0:
256,192,43447,5,8,0:0:0:0:
256,192,43590,1,0,0:0:0:0:
256,192,43733,1,8,0:0:0:0:
256,192,43876,1,0,0:0:0:0:
256,192,44019,1,8,0:0:0:0:
256,192,44304,1,8,0:0:0:0:
256,192,44590,1,0,0:0:0:0:
256,192,44733,1,8,0:0:0:0:
256,192,44876,1,0,0:0:0:0:
256,192,44947,1,0,0:0:0:0:
256,192,45090,1,0,0:0:0:0:
256,192,45161,1,0,0:0:0:0:
256,192,45304,1,0,0:0:0:0:
256,192,45447,1,8,0:0:0:0:
256,192,45733,1,8,0:0:0:0:
256,192,46019,1,0,0:0:0:0:
256,192,46161,1,8,0:0:0:0:
256,192,46304,1,0,0:0:0:0:
256,192,46376,1,0,0:0:0:0:
256,192,46447,1,0,0:0:0:0:
256,192,46590,1,8,0:0:0:0:
256,192,46733,1,0,0:0:0:0:
256,192,46804,1,0,0:0:0:0:
256,192,46876,1,0,0:0:0:0:
256,192,47161,1,8,0:0:0:0:
256,192,47304,1,8,0:0:0:0:
256,192,47447,1,0,0:0:0:0:
256,192,47590,1,8,0:0:0:0:
256,192,47733,1,0,0:0:0:0:
256,192,47804,1,0,0:0:0:0:
256,192,47876,1,0,0:0:0:0:
256,192,48019,1,0,0:0:0:0:
256,192,48304,1,8,0:0:0:0:
256,192,48447,1,8,0:0:0:0:
256,192,48590,1,8,0:0:0:0:
256,192,48733,1,0,0:0:0:0:
256,192,48876,1,8,0:0:0:0:
256,192,49019,1,8,0:0:0:0:
256,192,49090,1,8,0:0:0:0:
256,192,49161,1,8,0:0:0:0:
256,192,49590,1,0,0:0:0:0:
256,192,49804,1,0,0:0:0:0:
256,192,50019,1,0,0:0:0:0:
256,192,50304,1,8,0:0:0:0:
256,192,50590,1,0,0:0:0:0:
256,192,50733,1,8,0:0:0:0:
256,192,50804,1,8,0:0:0:0:
256,192,50947,1,8,0:0:0:0:
256,192,51019,1,8,0:0:0:0:
256,192,51161,1,0,0:0:0:0:
256,192,51304,1,8,0:0:0:0:
256,192,51447,1,0,0:0:0:0:
256,192,51733,1,8,0:0:0:0:
256,192,51876,1,8,0:0:0:0:
256,192,52019,1,0,0:0:0:0:
256,192,52090,1,0,0:0:0:0:
256,192,52161,1,0,0:0:0:0:
256,192,52304,1,8,0:0:0:0:
256,192,52376,1,8,0:0:0:0:
256,192,52447,1,8,0:0:0:0:
256,192,52590,1,0,0:0:0:0:
256,192,52876,1,8,0:0:0:0:
256,192,53019,1,0,0:0:0:0:
256,192,53090,1,0,0:0:0:0:
256,192,53161,1,0,0:0:0:0:
256,192,53304,1,8,0:0:0:0:
256,192,53447,1,8,0:0:0:0:
256,192,53590,1,8,0:0:0:0:
256,192,53733,1,0,0:0:0:0:
256,192,53876,1,0,0:0:0:0:
256,192,54019,1,8,0:0:0:0:
256,192,54161,1,8,0:0:0:0:
256,192,54233,1,8,0:0:0:0:
256,192,54304,1,8,0:0:0:0:
256,192,54447,1,8,0:0:0:0:
256,192,54590,1,8,0:0:0:0:
256,192,54733,1,8,0:0:0:0:
256,192,54876,1,4,0:0:0:0:
