osu file format v14

[General]
AudioFilename: Kola Kid - Spaceman (Best 8 bit song EVER!!!).mp3
AudioLeadIn: 0
PreviewTime: 94573
Countdown: 0
SampleSet: None
StackLeniency: 0.7
Mode: 1
LetterboxInBreaks: 1
WidescreenStoryboard: 1

[Editor]
Bookmarks: 952,2061,25558,53485,200196
DistanceSpacing: 2
BeatDivisor: 4
GridSize: 32
TimelineZoom: 3.099999

[Metadata]
Title:Spaceman
TitleUnicode:Spaceman
Artist:Kola Kid
ArtistUnicode:Kola Kid
Creator:DarkStoorM
Version:ENDLESS
Source:
Tags:8bit space Kola Kid tune calm
BeatmapID:1960023
BeatmapSetID:938316

[Difficulty]
HPDrainRate:0
CircleSize:4
OverallDifficulty:8
ApproachRate:9
SliderMultiplier:1.9
SliderTickRate:2

[Events]
//Background and Video events
0,0,"5-Centimeters-Per-Second-wallpaper-HD.jpg",0,0
//Break Periods
//Storyboard Layer 0 (Background)
//Storyboard Layer 1 (Fail)
//Storyboard Layer 2 (Pass)
//Storyboard Layer 3 (Foreground)
//Storyboard Sound Samples

[TimingPoints]
136,295.566502463054,4,1,0,100,1,0
37672,-100,4,1,0,100,0,0
56884,-100,4,1,0,100,0,0
56958,-100,4,1,0,100,0,0
75801,-100,4,1,0,100,0,0
94421,-100,4,1,0,100,0,0
160924,-100,4,1,0,100,0,0

[Colours]
Combo1 : 247,219,111
Combo2 : 216,216,216
Combo3 : 202,251,255
Combo4 : 201,255,193
Combo5 : 255,255,255
Combo6 : 26,215,255

[HitObjects]
256,192,136,5,0,0:0:0:0:
256,192,209,1,2,0:0:0:0:
256,192,283,1,2,0:0:0:0:
256,192,357,1,2,0:0:0:0:
256,192,431,1,0,0:0:0:0:
256,192,505,1,0,0:0:0:0:
256,192,579,1,2,0:0:0:0:
256,192,653,1,0,0:0:0:0:
256,192,727,1,0,0:0:0:0:
256,192,801,1,0,0:0:0:0:
256,192,874,1,0,0:0:0:0:
256,192,948,1,2,0:0:0:0:
256,192,1022,1,2,0:0:0:0:
256,192,1096,1,0,0:0:0:0:
256,192,1170,1,2,0:0:0:0:
256,192,1244,1,2,0:0:0:0:
256,192,1318,1,0,0:0:0:0:
256,192,1392,1,0,0:0:0:0:
256,192,1466,1,2,0:0:0:0:
256,192,1539,1,0,0:0:0:0:
256,192,1613,1,0,0:0:0:0:
256,192,1687,1,2,0:0:0:0:
256,192,1761,1,0,0:0:0:0:
256,192,1835,1,0,0:0:0:0:
256,192,1909,1,2,0:0:0:0:
256,192,1983,1,2,0:0:0:0:
256,192,2057,1,2,0:0:0:0:
256,192,2131,1,0,0:0:0:0:
256,192,2204,1,0,0:0:0:0:
256,192,2278,1,0,0:0:0:0:
256,192,2352,1,2,0:0:0:0:
256,192,2426,1,0,0:0:0:0:
256,192,2500,1,0,0:0:0:0:
256,192,2574,1,2,0:0:0:0:
256,192,2648,1,0,0:0:0:0:
256,192,2722,1,0,0:0:0:0:
256,192,2796,1,0,0:0:0:0:
256,192,2869,1,2,0:0:0:0:
256,192,2943,1,0,0:0:0:0:
256,192,3017,1,0,0:0:0:0:
256,192,3091,1,2,0:0:0:0:
256,192,3165,1,2,0:0:0:0:
256,192,3239,1,0,0:0:0:0:
256,192,3313,1,0,0:0:0:0:
256,192,3387,1,0,0:0:0:0:
256,192,3461,1,0,0:0:0:0:
256,192,3535,1,2,0:0:0:0:
256,192,3608,1,2,0:0:0:0:
256,192,3682,1,2,0:0:0:0:
256,192,3756,1,2,0:0:0:0:
256,192,3830,1,0,0:0:0:0:
256,192,3904,1,0,0:0:0:0:
256,192,3978,1,2,0:0:0:0:
256,192,4052,1,0,0:0:0:0:
256,192,4126,1,2,0:0:0:0:
256,192,4200,1,2,0:0:0:0:
256,192,4273,1,2,0:0:0:0:
256,192,4347,1,0,0:0:0:0:
256,192,4421,1,0,0:0:0:0:
256,192,4495,1,2,0:0:0:0:
256,192,4569,1,2,0:0:0:0:
256,192,4643,1,2,0:0:0:0:
256,192,4717,1,0,0:0:0:0:
256,192,4791,1,0,0:0:0:0:
256,192,4865,1,2,0:0:0:0:
256,192,4938,1,0,0:0:0:0:
256,192,5012,1,2,0:0:0:0:
256,192,5086,1,0,0:0:0:0:
256,192,5160,1,2,0:0:0:0:
256,192,5234,1,2,0:0:0:0:
256,192,5308,1,2,0:0:0:0:
256,192,5382,1,0,0:0:0:0:
256,192,5456,1,0,0:0:0:0:
256,192,5530,1,0,0:0:0:0:
256,192,5603,1,0,0:0:0:0:
256,192,5677,1,2,0:0:0:0:
256,192,5751,1,2,0:0:0:0:
256,192,5825,1,2,0:0:0:0:
256,192,5899,1,0,0:0:0:0:
256,192,5973,1,0,0:0:0:0:
256,192,6047,1,0,0:0:0:0:
256,192,6121,1,0,0:0:0:0:
256,192,6195,1,0,0:0:0:0:
256,192,6269,1,0,0:0:0:0:
256,192,6342,1,0,0:0:0:0:
256,192,6416,1,2,0:0:0:0:
256,192,6490,1,2,0:0:0:0:
256,192,6564,1,2,0:0:0:0:
256,192,6638,1,0,0:0:0:0:
256,192,6712,1,0,0:0:0:0:
256,192,6786,1,0,0:0:0:0:
256,192,6860,1,0,0:0:0:0:
256,192,6934,1,0,0:0:0:0:
256,192,7007,1,0,0:0:0:0:
256,192,7081,1,0,0:0:0:0:
256,192,7155,1,2,0:0:0:0:
256,192,7229,1,2,0:0:0:0:
256,192,7303,1,0,0:0:0:0:
256,192,7377,1,2,0:0:0:0:
256,192,7451,1,2,0:0:0:0:
256,192,7525,1,2,0:0:0:0:
256,192,7599,1,2,0:0:0:0:
256,192,7672,1,0,0:0:0:0:
256,192,7746,1,2,0:0:0:0:
256,192,7820,1,2,0:0:0:0:
256,192,7894,1,0,0:0:0:0:
256,192,7968,1,2,0:0:0:0:
256,192,8042,1,2,0:0:0:0:
256,192,8116,1,2,0:0:0:0:
256,192,8190,1,2,0:0:0:0:
256,192,8264,1,2,0:0:0:0:
256,192,8337,1,0,0:0:0:0:
256,192,8411,1,2,0:0:0:0:
256,192,8485,1,2,0:0:0:0:
256,192,8559,1,0,0:0:0:0:
256,192,8633,1,0,0:0:0:0:
256,192,8707,1,0,0:0:0:0:
256,192,8781,1,2,0:0:0:0:
256,192,8855,1,0,0:0:0:0:
256,192,8929,1,0,0:0:0:0:
256,192,9002,1,2,0:0:0:0:
256,192,9076,1,0,0:0:0:0:
256,192,9150,1,2,0:0:0:0:
256,192,9224,1,0,0:0:0:0:
256,192,9298,1,2,0:0:0:0:
256,192,9372,1,2,0:0:0:0:
256,192,9446,1,0,0:0:0:0:
256,192,9520,1,0,0:0:0:0:
256,192,9594,1,0,0:0:0:0:
256,192,9668,1,0,0:0:0:0:
256,192,9741,1,0,0:0:0:0:
256,192,9815,1,0,0:0:0:0:
256,192,9889,1,2,0:0:0:0:
256,192,9963,1,2,0:0:0:0:
256,192,10037,1,2,0:0:0:0:
256,192,10111,1,0,0:0:0:0:
256,192,10185,1,0,0:0:0:0:
256,192,10259,1,2,0:0:0:0:
256,192,10333,1,0,0:0:0:0:
256,192,10406,1,0,0:0:0:0:
256,192,10480,1,2,0:0:0:0:
256,192,10554,1,0,0:0:0:0:
256,192,10628,1,2,0:0:0:0:
256,192,10702,1,2,0:0:0:0:
256,192,10776,1,0,0:0:0:0:
256,192,10850,1,0,0:0:0:0:
256,192,10924,1,0,0:0:0:0:
256,192,10998,1,2,0:0:0:0:
256,192,11071,1,0,0:0:0:0:
256,192,11145,1,0,0:0:0:0:
256,192,11219,1,0,0:0:0:0:
256,192,11293,1,2,0:0:0:0:
256,192,11367,1,0,0:0:0:0:
256,192,11441,1,2,0:0:0:0:
256,192,11515,1,2,0:0:0:0:
256,192,11589,1,0,0:0:0:0:
256,192,11663,1,2,0:0:0:0:
256,192,11736,1,2,0:0:0:0:
256,192,11810,1,2,0:0:0:0:
256,192,11884,1,0,0:0:0:0:
256,192,11958,1,0,0:0:0:0:
256,192,12032,1,2,0:0:0:0:
256,192,12106,1,2,0:0:0:0:
256,192,12180,1,2,0:0:0:0:
256,192,12254,1,0,0:0:0:0:
256,192,12328,1,2,0:0:0:0:
256,192,12402,1,0,0:0:0:0:
256,192,12475,1,0,0:0:0:0:
256,192,12549,1,0,0:0:0:0:
256,192,12623,1,2,0:0:0:0:
256,192,12697,1,0,0:0:0:0:
256,192,12771,1,0,0:0:0:0:
256,192,12845,1,0,0:0:0:0:
256,192,12919,1,2,0:0:0:0:
256,192,12993,1,0,0:0:0:0:
256,192,13067,1,0,0:0:0:0:
256,192,13140,1,0,0:0:0:0:
256,192,13214,1,2,0:0:0:0:
256,192,13288,1,0,0:0:0:0:
256,192,13362,1,0,0:0:0:0:
256,192,13436,1,0,0:0:0:0:
256,192,13510,1,2,0:0:0:0:
256,192,13584,1,2,0:0:0:0:
256,192,13658,1,2,0:0:0:0:
256,192,13732,1,0,0:0:0:0:
256,192,13805,1,2,0:0:0:0:
256,192,13879,1,0,0:0:0:0:
256,192,13953,1,0,0:0:0:0:
256,192,14027,1,0,0:0:0:0:
256,192,14101,1,0,0:0:0:0:
256,192,14175,1,2,0:0:0:0:
256,192,14249,1,0,0:0:0:0:
256,192,14323,1,2,0:0:0:0:
256,192,14397,1,0,0:0:0:0:
256,192,14470,1,2,0:0:0:0:
256,192,14544,1,2,0:0:0:0:
256,192,14618,1,2,0:0:0:0:
256,192,14692,1,0,0:0:0:0:
256,192,14766,1,2,0:0:0:0:
256,192,14840,1,2,0:0:0:0:
256,192,14914,1,0,0:0:0:0:
256,192,14988,1,2,0:0:0:0:
256,192,15062,1,2,0:0:0:0:
256,192,15135,1,2,0:0:0:0:
256,192,15209,1,2,0:0:0:0:
256,192,15283,1,0,0:0:0:0:
256,192,15357,1,0,0:0:0:0:
256,192,15431,1,2,0:0:0:0:
256,192,15505,1,0,0:0:0:0:
256,192,15579,1,0,0:0:0:0:
256,192,15653,1,0,0:0:0:0:
256,192,15727,1,0,0:0:0:0:
256,192,15801,1,0,0:0:0:0:
256,192,15874,1,2,0:0:0:0:
256,192,15948,1,2,0:0:0:0:
256,192,16022,1,0,0:0:0:0:
256,192,16096,1,0,0:0:0:0:
256,192,16170,1,0,0:0:0:0:
256,192,16244,1,2,0:0:0:0:
256,192,16318,1,0,0:0:0:0:
256,192,16392,1,2,0:0:0:0:
256,192,16466,1,0,0:0:0:0:
256,192,16539,1,0,0:0:0:0:
256,192,16613,1,0,0:0:0:0:
256,192,16687,1,0,0:0:0:0:
256,192,16761,1,0,0:0:0:0:
256,192,16835,1,0,0:0:0:0:
256,192,16909,1,2,0:0:0:0:
256,192,16983,1,0,0:0:0:0:
256,192,17057,1,2,0:0:0:0:
256,192,17131,1,0,0:0:0:0:
256,192,17204,1,0,0:0:0:0:
256,192,17278,1,2,0:0:0:0:
256,192,17352,1,2,0:0:0:0:
256,192,17426,1,0,0:0:0:0:
256,192,17500,1,2,0:0:0:0:
256,192,17574,1,2,0:0:0:0:
256,192,17648,1,2,0:0:0:0:
256,192,17722,1,2,0:0:0:0:
256,192,17796,1,0,0:0:0:0:
256,192,17869,1,0,0:0:0:0:
256,192,17943,1,0,0:0:0:0:
256,192,18017,1,0,0:0:0:0:
256,192,18091,1,0,0:0:0:0:
256,192,18165,1,2,0:0:0:0:
256,192,18239,1,0,0:0:0:0:
256,192,18313,1,2,0:0:0:0:
256,192,18387,1,0,0:0:0:0:
256,192,18461,1,2,0:0:0:0:
256,192,18535,1,0,0:0:0:0:
256,192,18608,1,2,0:0:0:0:
256,192,18682,1,0,0:0:0:0:
256,192,18756,1,0,0:0:0:0:
256,192,18830,1,2,0:0:0:0:
256,192,18904,1,2,0:0:0:0:
256,192,18978,1,2,0:0:0:0:
256,192,19052,1,0,0:0:0:0:
256,192,19126,1,0,0:0:0:0:
256,192,19200,1,0,0:0:0:0:
256,192,19273,1,2,0:0:0:0:
256,192,19347,1,2,0:0:0:0:
256,192,19421,1,2,0:0:0:0:
256,192,19495,1,2,0:0:0:0:
256,192,19569,1,0,0:0:0:0:
256,192,19643,1,0,0:0:0:0:
256,192,19717,1,0,0:0:0:0:
256,192,19791,1,0,0:0:0:0:
256,192,19865,1,0,0:0:0:0:
256,192,19938,1,0,0:0:0:0:
256,192,20012,1,0,0:0:0:0:
256,192,20086,1,0,0:0:0:0:
256,192,20160,1,0,0:0:0:0:
256,192,20234,1,2,0:0:0:0:
256,192,20308,1,2,0:0:0:0:
256,192,20382,1,0,0:0:0:0:
256,192,20456,1,0,0:0:0:0:
256,192,20530,1,2,0:0:0:0:
256,192,20603,1,0,0:0:0:0:
256,192,20677,1,2,0:0:0:0:
256,192,20751,1,2,0:0:0:0:
256,192,20825,1,0,0:0:0:0:
256,192,20899,1,2,0:0:0:0:
256,192,20973,1,2,0:0:0:0:
256,192,21047,1,0,0:0:0:0:
256,192,21121,1,2,0:0:0:0:
256,192,21195,1,0,0:0:0:0:
256,192,21269,1,0,0:0:0:0:
256,192,21342,1,2,0:0:0:0:
256,192,21416,1,0,0:0:0:0:
256,192,21490,1,2,0:0:0:0:
256,192,21564,1,0,0:0:0:0:
256,192,21638,1,2,0:0:0:0:
256,192,21712,1,0,0:0:0:0:
256,192,21786,1,2,0:0:0:0:
256,192,21860,1,2,0:0:0:0:
256,192,21934,1,2,0:0:0:0:
256,192,22007,1,0,0:0:0:0:
256,192,22081,1,0,0:0:0:0:
256,192,22155,1,2,0:0:0:0:
256,192,22229,1,0,0:0:0:0:
256,192,22303,1,0,0:0:0:0:
256,192,22377,1,2,0:0:0:0:
256,192,22451,1,0,0:0:0:0:
256,192,22525,1,2,0:0:0:0:
256,192,22599,1,0,0:0:0:0:
256,192,22672,1,2,0:0:0:0:
256,192,22746,1,0,0:0:0:0:
256,192,22820,1,2,0:0:0:0:
256,192,22894,1,0,0:0:0:0:
256,192,22968,1,2,0:0:0:0:
256,192,23042,1,2,0:0:0:0:
256,192,23116,1,0,0:0:0:0:
256,192,23190,1,0,0:0:0:0:
256,192,23264,1,2,0:0:0:0:
256,192,23337,1,2,0:0:0:0:
256,192,23411,1,2,0:0:0:0:
256,192,23485,1,2,0:0:0:0:
256,192,23559,1,2,0:0:0:0:
256,192,23633,1,0,0:0:0:0:
256,192,23707,1,2,0:0:0:0:
256,192,23781,1,0,0:0:0:0:
256,192,23855,1,0,0:0:0:0:
256,192,23929,1,0,0:0:0:0:
256,192,24002,1,0,0:0:0:0:
256,192,24076,1,2,0:0:0:0:
256,192,24150,1,2,0:0:0:0:
256,192,24224,1,0,0:0:0:0:
256,192,24298,1,0,0:0:0:0:
256,192,24372,1,0,0:0:0:0:
256,192,24446,1,2,0:0:0:0:
256,192,24520,1,2,0:0:0:0:
256,192,24594,1,0,0:0:0:0:
256,192,24668,1,0,0:0:0:0:
256,192,24741,1,2,0:0:0:0:
256,192,24815,1,0,0:0:0:0:
256,192,24889,1,2,0:0:0:0:
256,192,24963,1,0,0:0:0:0:
256,192,25037,1,2,0:0:0:0:
256,192,25111,1,0,0:0:0:0:
256,192,25185,1,2,0:0:0:0:
256,192,25259,1,2,0:0:0:0:
256,192,25333,1,0,0:0:0:0:
256,192,25406,1,2,0:0:0:0:
256,192,25480,1,0,0:0:0:0:
256,192,25554,1,0,0:0:0:0:
256,192,25628,1,2,0:0:0:0:
256,192,25702,1,0,0:0:0:0:
256,192,25776,1,0,0:0:0:0:
256,192,25850,1,0,0:0:0:0:
256,192,25924,1,0,0:0:0:0:
256,192,25998,1,2,0:0:0:0:
256,192,26071,1,0,0:0:0:0:
256,192,26145,1,0,0:0:0:0:
256,192,26219,1,2,0:0:0:0:
256,192,26293,1,0,0:0:0:0:
256,192,26367,1,0,0:0:0:0:
256,192,26441,1,2,0:0:0:0:
256,192,26515,1,2,0:0:0:0:
256,192,26589,1,2,0:0:0:0:
256,192,26663,1,0,0:0:0:0:
256,192,26736,1,0,0:0:0:0:
256,192,26810,1,0,0:0:0:0:
256,192,26884,1,2,0:0:0:0:
256,192,26958,1,2,0:0:0:0:
256,192,27032,1,0,0:0:0:0:
256,192,27106,1,0,0:0:0:0:
256,192,27180,1,2,0:0:0:0:
256,192,27254,1,2,0:0:0:0:
256,192,27328,1,2,0:0:0:0:
256,192,27402,1,2,0:0:0:0:
256,192,27475,1,2,0:0:0:0:
256,192,27549,1,2,0:0:0:0:
256,192,27623,1,2,0:0:0:0:
256,192,27697,1,0,0:0:0:0:
256,192,27771,1,0,0:0:0:0:
256,192,27845,1,0,0:0:0:0:
256,192,27919,1,2,0:0:0:0:
256,192,27993,1,0,0:0:0:0:
256,192,28067,1,2,0:0:0:0:
256,192,28140,1,2,0:0:0:0:
256,192,28214,1,2,0:0:0:0:
256,192,28288,1,0,0:0:0:0:
256,192,28362,1,2,0:0:0:0:
256,192,28436,1,0,0:0:0:0:
256,192,28510,1,0,0:0:0:0:
256,192,28584,1,2,0:0:0:0:
256,192,28658,1,0,0:0:0:0:
256,192,28732,1,2,0:0:0:0:
256,192,28805,1,0,0:0:0:0:
256,192,28879,1,0,0:0:0:0:
256,192,28953,1,2,0:0:0:0:
256,192,29027,1,2,0:0:0:0:
256,192,29101,1,0,0:0:0:0:
256,192,29175,1,0,0:0:0:0:
256,192,29249,1,0,0:0:0:0:
256,192,29323,1,0,0:0:0:0:
256,192,29397,1,0,0:0:0:0:
256,192,29470,1,2,0:0:0:0:
256,192,29544,1,0,0:0:0:0:
256,192,29618,1,2,0:0:0:0:
256,192,29692,1,2,0:0:0:0:
256,192,29766,1,2,0:0:0:0:
256,192,29840,1,0,0:0:0:0:
256,192,29914,1,0,0:0:0:0:
256,192,29988,1,0,0:0:0:0:
256,192,30062,1,0,0:0:0:0:
256,192,30136,1,0,0:0:0:0:
256,192,30209,1,0,0:0:0:0:
256,192,30283,1,0,0:0:0:0:
256,192,30357,1,2,0:0:0:0:
256,192,30431,1,0,0:0:0:0:
256,192,30505,1,2,0:0:0:0:
256,192,30579,1,0,0:0:0:0:
256,192,30653,1,0,0:0:0:0:
256,192,30727,1,2,0:0:0:0:
256,192,30801,1,2,0:0:0:0:
256,192,30874,1,0,0:0:0:0:
256,192,30948,1,2,0:0:0:0:
256,192,31022,1,2,0:0:0:0:
256,192,31096,1,2,0:0:0:0:
256,192,31170,1,0,0:0:0:0:
256,192,31244,1,0,0:0:0:0:
256,192,31318,1,0,0:0:0:0:
256,192,31392,1,0,0:0:0:0:
256,192,31466,1,2,0:0:0:0:
256,192,31539,1,0,0:0:0:0:
256,192,31613,1,0,0:0:0:0:
256,192,31687,1,0,0:0:0:0:
256,192,31761,1,2,0:0:0:0:
256,192,31835,1,2,0:0:0:0:
256,192,31909,1,2,0:0:0:0:
256,192,31983,1,2,0:0:0:0:
256,192,32057,1,2,0:0:0:0:
256,192,32131,1,2,0:0:0:0:
256,192,32204,1,2,0:0:0:0:
256,192,32278,1,0,0:0:0:0:
256,192,32352,1,2,0:0:0:0:
256,192,32426,1,2,0:0:0:0:
256,192,32500,1,2,0:0:0:0:
256,192,32574,1,2,0:0:0:0:
256,192,32648,1,2,0:0:0:0:
256,192,32722,1,2,0:0:0:0:
256,192,32796,1,0,0:0:0:0:
256,192,32869,1,2,0:0:0:0:
256,192,32943,1,2,0:0:0:0:
256,192,33017,1,2,0:0:0:0:
256,192,33091,1,2,0:0:0:0:
256,192,33165,1,0,0:0:0:0:
256,192,33239,1,2,0:0:0:0:
256,192,33313,1,0,0:0:0:0:
256,192,33387,1,2,0:0:0:0:
256,192,33461,1,0,0:0:0:0:
256,192,33535,1,0,0:0:0:0:
256,192,33608,1,0,0:0:0:0:
256,192,33682,1,2,0:0:0:0:
256,192,33756,1,0,0:0:0:0:
256,192,33830,1,2,0:0:0:0:
256,192,33904,1,2,0:0:0:0:
256,192,33978,1,0,0:0:0:0:
256,192,34052,1,0,0:0:0:0:
256,192,34126,1,0,0:0:0:0:
256,192,34200,1,2,0:0:0:0:
256,192,34273,1,2,0:0:0:0:
256,192,34347,1,2,0:0:0:0:
256,192,34421,1,2,0:0:0:0:
256,192,34495,1,2,0:0:0:0:
256,192,34569,1,0,0:0:0:0:
256,192,34643,1,2,0:0:0:0:
256,192,34717,1,0,0:0:0:0:
256,192,34791,1,0,0:0:0:0:
256,192,34865,1,0,0:0:0:0:
256,192,34938,1,0,0:0:0:0:
256,192,35012,1,0,0:0:0:0:
256,192,35086,1,2,0:0:0:0:
256,192,35160,1,2,0:0:0:0:
256,192,35234,1,0,0:0:0:0:
256,192,35308,1,2,0:0:0:0:
256,192,35382,1,0,0:0:0:0:
256,192,35456,1,0,0:0:0:0:
256,192,35530,1,0,0:0:0:0:
256,192,35603,1,2,0:0:0:0:
256,192,35677,1,0,0:0:0:0:
256,192,35751,1,0,0:0:0:0:
256,192,35825,1,0,0:0:0:0:
256,192,35899,1,0,0:0:0:0:
256,192,35973,1,0,0:0:0:0:
256,192,36047,1,0,0:0:0:0:
256,192,36121,1,0,0:0:0:0:
256,192,36195,1,0,0:0:0:0:
256,192,36269,1,2,0:0:0:0:
256,192,36342,1,2,0:0:0:0:
256,192,36416,1,0,0:0:0:0:
256,192,36490,1,0,0:0:0:0:
256,192,36564,1,2,0:0:0:0:
256,192,36638,1,0,0:0:0:0:
256,192,36712,1,2,0:0:0:0:
256,192,36786,1,0,0:0:0:0:
256,192,36860,1,2,0:0:0:0:
256,192,36934,1,2,0:0:0:0:
256,192,37007,1,0,0:0:0:0:
256,192,37081,1,0,0:0:0:0:
256,192,37155,1,0,0:0:0:0:
256,192,37229,1,0,0:0:0:0:
256,192,37303,1,2,0:0:0:0:
256,192,37377,1,2,0:0:0:0:
256,192,37451,1,2,0:0:0:0:
256,192,37525,1,2,0:0:0:0:
256,192,37599,1,0,0:0:0:0:
256,192,37672,1,2,0:0:0:0:
256,192,37746,1,0,0:0:0:0:
256,192,37820,1,2,0:0:0:0:
256,192,37894,1,2,0:0:0:0:
256,192,37968,1,2,0:0:0:0:
256,192,38042,1,0,0:0:0:0:
256,192,38116,1,0,0:0:0:0:
256,192,38190,1,0,0:0:0:0:
256,192,38264,1,2,0:0:0:0:
256,192,38337,1,0,0:0:0:0:
256,192,38411,1,0,0:0:0:0:
256,192,38485,1,2,0:0:0:0:
256,192,38559,1,2,0:0:0:0:
256,192,38633,1,2,0:0:0:0:
256,192,38707,1,2,0:0:0:0:
256,192,38781,1,0,0:0:0:0:
256,192,38855,1,0,0:0:0:0:
256,192,38929,1,2,0:0:0:0:
256,192,39002,1,0,0:0:0:0:
256,192,39076,1,2,0:0:0:0:
256,192,39150,1,0,0:0:0:0:
256,192,39224,1,2,0:0:0:0:
256,192,39298,1,2,0:0:0:0:
256,192,39372,1,0,0:0:0:0:
256,192,39446,1,2,0:0:0:0:
256,192,39520,1,0,0:0:0:0:
256,192,39594,1,2,0:0:0:0:
256,192,39668,1,2,0:0:0:0:
256,192,39741,1,0,0:0:0:0:
256,192,39815,1,2,0:0:0:0:
256,192,39889,1,2,0:0:0:0:
256,192,39963,1,0,0:0:0:0:
256,192,40037,1,2,0:0:0:0:
256,192,40111,1,0,0:0:0:0:
256,192,40185,1,0,0:0:0:0:
256,192,40259,1,2,0:0:0:0:
256,192,40333,1,2,0:0:0:0:
256,192,40406,1,0,0:0:0:0:
256,192,40480,1,2,0:0:0:0:
256,192,40554,1,0,0:0:0:0:
256,192,40628,1,2,0:0:0:0:
256,192,40702,1,2,0:0:0:0:
256,192,40776,1,2,0:0:0:0:
256,192,40850,1,0,0:0:0:0:
256,192,40924,1,2,0:0:0:0:
256,192,40998,1,2,0:0:0:0:
256,192,41071,1,2,0:0:0:0:
256,192,41145,1,2,0:0:0:0:
256,192,41219,1,0,0:0:0:0:
256,192,41293,1,0,0:0:0:0:
256,192,41367,1,0,0:0:0:0:
256,192,41441,1,2,0:0:0:0:
256,192,41515,1,2,0:0:0:0:
256,192,41589,1,0,0:0:0:0:
256,192,41663,1,2,0:0:0:0:
256,192,41736,1,0,0:0:0:0:
256,192,41810,1,2,0:0:0:0:
256,192,41884,1,2,0:0:0:0:
256,192,41958,1,2,0:0:0:0:
256,192,42032,1,0,0:0:0:0:
256,192,42106,1,2,0:0:0:0:
256,192,42180,1,0,0:0:0:0:
256,192,42254,1,2,0:0:0:0:
256,192,42328,1,0,0:0:0:0:
256,192,42402,1,0,0:0:0:0:
256,192,42475,1,2,0:0:0:0:
256,192,42549,1,2,0:0:0:0:
256,192,42623,1,0,0:0:0:0:
256,192,42697,1,2,0:0:0:0:
256,192,42771,1,0,0:0:0:0:
256,192,42845,1,0,0:0:0:0:
256,192,42919,1,2,0:0:0:0:
256,192,42993,1,2,0:0:0:0:
256,192,43067,1,0,0:0:0:0:
256,192,43140,1,0,0:0:0:0:
256,192,43214,1,2,0:0:0:0:
256,192,43288,1,0,0:0:0:0:
256,192,43362,1,0,0:0:0:0:
256,192,43436,1,2,0:0:0:0:
256,192,43510,1,0,0:0:0:0:
256,192,43584,1,0,0:0:0:0:
256,192,43658,1,0,0:0:0:0:
256,192,43732,1,2,0:0:0:0:
256,192,43805,1,0,0:0:0:0:
256,192,43879,1,2,0:0:0:0:
256,192,43953,1,0,0:0:0:0:
256,192,44027,1,0,0:0:0:0:
256,192,44101,1,0,0:0:0:0:
256,192,44175,1,0,0:0:0:0:
256,192,44249,1,0,0:0:0:0:
256,192,44323,1,0,0:0:0:0:
256,192,44397,1,2,0:0:0:0:
256,192,44470,1,2,0:0:0:0:
256,192,44544,1,0,0:0:0:0:
256,192,44618,1,2,0:0:0:0:
256,192,44692,1,2,0:0:0:0:
256,192,44766,1,2,0:0:0:0:
256,192,44840,1,2,0:0:0:0:
256,192,44914,1,0,0:0:0:0:
256,192,44988,1,0,0:0:0:0:
256,192,45062,1,0,0:0:0:0:
256,192,45135,1,2,0:0:0:0:
256,192,45209,1,2,0:0:0:0:
256,192,45283,1,0,0:0:0:0:
256,192,45357,1,0,0:0:0:0:
256,192,45431,1,0,0:0:0:0:
256,192,45505,1,2,0:0:0:0:
256,192,45579,1,0,0:0:0:0:
256,192,45653,1,2,0:0:0:0:
256,192,45727,1,2,0:0:0:0:
256,192,45801,1,2,0:0:0:0:
256,192,45874,1,2,0:0:0:0:
256,192,45948,1,2,0:0:0:0:
256,192,46022,1,2,0:0:0:0:
256,192,46096,1,2,0:0:0:0:
256,192,46170,1,2,0:0:0:0:
256,192,46244,1,2,0:0:0:0:
256,192,46318,1,0,0:0:0:0:
256,192,46392,1,2,0:0:0:0:
256,192,46466,1,2,0:0:0:0:
256,192,46539,1,0,0:0:0:0:
256,192,46613,1,2,0:0:0:0:
256,192,46687,1,0,0:0:0:0:
256,192,46761,1,0,0:0:0:0:
256,192,46835,1,2,0:0:0:0:
256,192,46909,1,0,0:0:0:0:
256,192,46983,1,2,0:0:0:0:
256,192,47057,1,2,0:0:0:0:
256,192,47131,1,2,0:0:0:0:
256,192,47204,1,0,0:0:0:0:
256,192,47278,1,0,0:0:0:0:
256,192,47352,1,2,0:0:0:0:
256,192,47426,1,2,0:0:0:0:
256,192,47500,1,2,0:0:0:0:
256,192,47574,1,0,0:0:0:0:
256,192,47648,1,2,0:0:0:0:
256,192,47722,1,0,0:0:0:0:
256,192,47796,1,0,0:0:0:0:
256,192,47869,1,2,0:0:0:0:
256,192,47943,1,2,0:0:0:0:
256,192,48017,1,2,0:0:0:0:
256,192,48091,1,0,0:0:0:0:
256,192,48165,1,2,0:0:0:0:
256,192,48239,1,0,0:0:0:0:
256,192,48313,1,2,0:0:0:0:
256,192,48387,1,2,0:0:0:0:
256,192,48461,1,0,0:0:0:0:
256,192,48535,1,2,0:0:0:0:
256,192,48608,1,0,0:0:0:0:
256,192,48682,1,0,0:0:0:0:
256,192,48756,1,2,0:0:0:0:
256,192,48830,1,0,0:0:0:0:
256,192,48904,1,2,0:0:0:0:
256,192,48978,1,2,0:0:0:0:
256,192,49052,1,2,0:0:0:0:
256,192,49126,1,2,0:0:0:0:
256,192,49200,1,0,0:0:0:0:
256,192,49273,1,2,0:0:0:0:
256,192,49347,1,2,0:0:0:0:
256,192,49421,1,2,0:0:0:0:
256,192,49495,1,0,0:0:0:0:
256,192,49569,1,2,0:0:0:0:
256,192,49643,1,2,0:0:0:0:
256,192,49717,1,2,0:0:0:0:
256,192,49791,1,0,0:0:0:0:
256,192,49865,1,0,0:0:0:0:
256,192,49938,1,2,0:0:0:0:
256,192,50012,1,2,0:0:0:0:
256,192,50086,1,0,0:0:0:0:
256,192,50160,1,0,0:0:0:0:
256,192,50234,1,2,0:0:0:0:
256,192,50308,1,0,0:0:0:0:
256,192,50382,1,2,0:0:0:0:
256,192,50456,1,0,0:0:0:0:
256,192,50530,1,0,0:0:0:0:
256,192,50603,1,2,0:0:0:0:
256,192,50677,1,2,0:0:0:0:
256,192,50751,1,2,0:0:0:0:
256,192,50825,1,0,0:0:0:0:
256,192,50899,1,2,0:0:0:0:
256,192,50973,1,0,0:0:0:0:
256,192,51047,1,2,0:0:0:0:
256,192,51121,1,2,0:0:0:0:
256,192,51195,1,0,0:0:0:0:
256,192,51269,1,0,0:0:0:0:
256,192,51342,1,2,0:0:0:0:
256,192,51416,1,2,0:0:0:0:
256,192,51490,1,0,0:0:0:0:
256,192,51564,1,2,0:0:0:0:
256,192,51638,1,2,0:0:0:0:
256,192,51712,1,2,0:0:0:0:
256,192,51786,1,0,0:0:0:0:
256,192,51860,1,2,0:0:0:0:
256,192,51934,1,0,0:0:0:0:
256,192,52007,1,2,0:0:0:0:
256,192,52081,1,0,0:0:0:0:
256,192,52155,1,0,0:0:0:0:
256,192,52229,1,2,0:0:0:0:
256,192,52303,1,2,0:0:0:0:
256,192,52377,1,0,0:0:0:0:
256,192,52451,1,2,0:0:0:0:
256,192,52525,1,2,0:0:0:0:
256,192,52599,1,2,0:0:0:0:
256,192,52672,1,0,0:0:0:0:
256,192,52746,1,2,0:0:0:0:
256,192,52820,1,0,0:0:0:0:
256,192,52894,1,2,0:0:0:0:
256,192,52968,1,0,0:0:0:0:
256,192,53042,1,0,0:0:0:0:
256,192,53116,1,2,0:0:0:0:
256,192,53190,1,0,0:0:0:0:
256,192,53264,1,0,0:0:0:0:
256,192,53337,1,0,0:0:0:0:
256,192,53411,1,2,0:0:0:0:
256,192,53485,1,2,0:0:0:0:
256,192,53559,1,0,0:0:0:0:
256,192,53633,1,2,0:0:0:0:
256,192,53707,1,0,0:0:0:0:
256,192,53781,1,0,0:0:0:0:
256,192,53855,1,2,0:0:0:0:
256,192,53929,1,0,0:0:0:0:
256,192,54002,1,2,0:0:0:0:
256,192,54076,1,0,0:0:0:0:
256,192,54150,1,0,0:0:0:0:
256,192,54224,1,2,0:0:0:0:
256,192,54298,1,2,0:0:0:0:
256,192,54372,1,0,0:0:0:0:
256,192,54446,1,2,0:0:0:0:
256,192,54520,1,0,0:0:0:0:
256,192,54594,1,2,0:0:0:0:
256,192,54668,1,2,0:0:0:0:
256,192,54741,1,0,0:0:0:0:
256,192,54815,1,2,0:0:0:0:
256,192,54889,1,2,0:0:0:0:
256,192,54963,1,0,0:0:0:0:
256,192,55037,1,0,0:0:0:0:
256,192,55111,1,2,0:0:0:0:
256,192,55185,1,2,0:0:0:0:
256,192,55259,1,0,0:0:0:0:
256,192,55333,1,2,0:0:0:0:
256,192,55406,1,0,0:0:0:0:
256,192,55480,1,0,0:0:0:0:
256,192,55554,1,2,0:0:0:0:
256,192,55628,1,0,0:0:0:0:
256,192,55702,1,2,0:0:0:0:
256,192,55776,1,0,0:0:0:0:
256,192,55850,1,0,0:0:0:0:
256,192,55924,1,2,0:0:0:0:
256,192,55998,1,0,0:0:0:0:
256,192,56071,1,0,0:0:0:0:
256,192,56145,1,0,0:0:0:0:
256,192,56219,1,2,0:0:0:0:
256,192,56293,1,2,0:0:0:0:
256,192,56367,1,0,0:0:0:0:
256,192,56441,1,2,0:0:0:0:
256,192,56515,1,0,0:0:0:0:
256,192,56589,1,2,0:0:0:0:
256,192,56663,1,2,0:0:0:0:
256,192,56736,1,2,0:0:0:0:
256,192,56810,1,0,0:0:0:0:
256,192,56884,1,0,0:0:0:0:
256,192,56958,1,0,0:0:0:0:
256,192,57032,1,2,0:0:0:0:
256,192,57106,1,2,0:0:0:0:
256,192,57180,1,2,0:0:0:0:
256,192,57254,1,0,0:0:0:0:
256,192,57328,1,2,0:0:0:0:
256,192,57402,1,2,0:0:0:0:
256,192,57475,1,0,0:0:0:0:
256,192,57549,1,2,0:0:0:0:
256,192,57623,1,0,0:0:0:0:
256,192,57697,1,0,0:0:0:0:
256,192,57771,1,0,0:0:0:0:
256,192,57845,1,2,0:0:0:0:
256,192,57919,1,2,0:0:0:0:
256,192,57993,1,0,0:0:0:0:
256,192,58067,1,2,0:0:0:0:
256,192,58140,1,2,0:0:0:0:
256,192,58214,1,2,0:0:0:0:
256,192,58288,1,2,0:0:0:0:
256,192,58362,1,2,0:0:0:0:
256,192,58436,1,0,0:0:0:0:
256,192,58510,1,0,0:0:0:0:
256,192,58584,1,0,0:0:0:0:
256,192,58658,1,0,0:0:0:0:
256,192,58732,1,0,0:0:0:0:
256,192,58805,1,0,0:0:0:0:
256,192,58879,1,2,0:0:0:0:
256,192,58953,1,2,0:0:0:0:
256,192,59027,1,0,0:0:0:0:
256,192,59101,1,2,0:0:0:0:
256,192,59175,1,2,0:0:0:0:
256,192,59249,1,2,0:0:0:0:
256,192,59323,1,0,0:0:0:0:
256,192,59397,1,0,0:0:0:0:
256,192,59470,1,2,0:0:0:0:
256,192,59544,1,0,0:0:0:0:
256,192,59618,1,0,0:0:0:0:
256,192,59692,1,2,0:0:0:0:
256,192,59766,1,0,0:0:0:0:
256,192,59840,1,0,0:0:0:0:
256,192,59914,1,0,0:0:0:0:
256,192,59988,1,0,0:0:0:0:
256,192,60062,1,2,0:0:0:0:
256,192,60135,1,2,0:0:0:0:
256,192,60209,1,0,0:0:0:0:
256,192,60283,1,0,0:0:0:0:
256,192,60357,1,2,0:0:0:0:
256,192,60431,1,0,0:0:0:0:
256,192,60505,1,0,0:0:0:0:
256,192,60579,1,0,0:0:0:0:
256,192,60653,1,2,0:0:0:0:
256,192,60727,1,0,0:0:0:0:
256,192,60801,1,0,0:0:0:0:
256,192,60874,1,2,0:0:0:0:
256,192,60948,1,0,0:0:0:0:
256,192,61022,1,0,0:0:0:0:
256,192,61096,1,0,0:0:0:0:
256,192,61170,1,2,0:0:0:0:
256,192,61244,1,0,0:0:0:0:
256,192,61318,1,0,0:0:0:0:
256,192,61392,1,2,0:0:0:0:
256,192,61466,1,0,0:0:0:0:
256,192,61539,1,2,0:0:0:0:
256,192,61613,1,0,0:0:0:0:
256,192,61687,1,2,0:0:0:0:
256,192,61761,1,2,0:0:0:0:
256,192,61835,1,2,0:0:0:0:
256,192,61909,1,2,0:0:0:0:
256,192,61983,1,2,0:0:0:0:
256,192,62057,1,0,0:0:0:0:
256,192,62131,1,2,0:0:0:0:
256,192,62204,1,0,0:0:0:0:
256,192,62278,1,0,0:0:0:0:
256,192,62352,1,2,0:0:0:0:
256,192,62426,1,0,0:0:0:0:
256,192,62500,1,2,0:0:0:0:
256,192,62574,1,2,0:0:0:0:
256,192,62648,1,2,0:0:0:0:
256,192,62722,1,0,0:0:0:0:
256,192,62796,1,0,0:0:0:0:
256,192,62869,1,2,0:0:0:0:
256,192,62943,1,2,0:0:0:0:
256,192,63017,1,0,0:0:0:0:
256,192,63091,1,2,0:0:0:0:
256,192,63165,1,2,0:0:0:0:
256,192,63239,1,0,0:0:0:0:
256,192,63313,1,2,0:0:0:0:
256,192,63387,1,2,0:0:0:0:
256,192,63461,1,2,0:0:0:0:
256,192,63535,1,0,0:0:0:0:
256,192,63608,1,2,0:0:0:0:
256,192,63682,1,2,0:0:0:0:
256,192,63756,1,2,0:0:0:0:
256,192,63830,1,0,0:0:0:0:
256,192,63904,1,2,0:0:0:0:
256,192,63978,1,0,0:0:0:0:
256,192,64052,1,2,0:0:0:0:
256,192,64126,1,0,0:0:0:0:
256,192,64200,1,2,0:0:0:0:
256,192,64273,1,0,0:0:0:0:
256,192,64347,1,2,0:0:0:0:
256,192,64421,1,2,0:0:0:0:
256,192,64495,1,0,0:0:0:0:
256,192,64569,1,2,0:0:0:0:
256,192,64643,1,0,0:0:0:0:
256,192,64717,1,2,0:0:0:0:
256,192,64791,1,0,0:0:0:0:
256,192,64865,1,2,0:0:0:0:
256,192,64938,1,2,0:0:0:0:
256,192,65012,1,0,0:0:0:0:
256,192,65086,1,2,0:0:0:0:
256,192,65160,1,0,0:0:0:0:
256,192,65234,1,0,0:0:0:0:
256,192,65308,1,2,0:0:0:0:
256,192,65382,1,0,0:0:0:0:
256,192,65456,1,0,0:0:0:0:
256,192,65530,1,0,0:0:0:0:
256,192,65603,1,0,0:0:0:0:
256,192,65677,1,0,0:0:0:0:
256,192,65751,1,0,0:0:0:0:
256,192,65825,1,2,0:0:0:0:
256,192,65899,1,0,0:0:0:0:
256,192,65973,1,0,0:0:0:0:
256,192,66047,1,2,0:0:0:0:
256,192,66121,1,0,0:0:0:0:
256,192,66195,1,0,0:0:0:0:
256,192,66269,1,2,0:0:0:0:
256,192,66342,1,2,0:0:0:0:
256,192,66416,1,2,0:0:0:0:
256,192,66490,1,2,0:0:0:0:
256,192,66564,1,0,0:0:0:0:
256,192,66638,1,0,0:0:0:0:
256,192,66712,1,0,0:0:0:0:
256,192,66786,1,0,0:0:0:0:
256,192,66860,1,2,0:0:0:0:
256,192,66934,1,0,0:0:0:0:
256,192,67007,1,0,0:0:0:0:
256,192,67081,1,2,0:0:0:0:
256,192,67155,1,0,0:0:0:0:
256,192,67229,1,0,0:0:0:0:
256,192,67303,1,0,0:0:0:0:
256,192,67377,1,2,0:0:0:0:
256,192,67451,1,2,0:0:0:0:
256,192,67525,1,2,0:0:0:0:
256,192,67599,1,0,0:0:0:0:
256,192,67672,1,0,0:0:0:0:
256,192,67746,1,0,0:0:0:0:
256,192,67820,1,0,0:0:0:0:
256,192,67894,1,0,0:0:0:0:
256,192,67968,1,2,0:0:0:0:
256,192,68042,1,0,0:0:0:0:
256,192,68116,1,2,0:0:0:0:
256,192,68190,1,0,0:0:0:0:
256,192,68264,1,0,0:0:0:0:
256,192,68337,1,0,0:0:0:0:
256,192,68411,1,2,0:0:0:0:
256,192,68485,1,2,0:0:0:0:
256,192,68559,1,0,0:0:0:0:
256,192,68633,1,0,0:0:0:0:
256,192,68707,1,0,0:0:0:0:
256,192,68781,1,2,0:0:0:0:
256,192,68855,1,0,0:0:0:0:
256,192,68929,1,0,0:0:0:0:
256,192,69002,1,2,0:0:0:0:
256,192,69076,1,2,0:0:0:0:
256,192,69150,1,2,0:0:0:0:
256,192,69224,1,2,0:0:0:0:
256,192,69298,1,2,0:0:0:0:
256,192,69372,1,0,0:0:0:0:
256,192,69446,1,0,0:0:0:0:
256,192,69520,1,0,0:0:0:0:
256,192,69594,1,0,0:0:0:0:
256,192,69668,1,2,0:0:0:0:
256,192,69741,1,0,0:0:0:0:
256,192,69815,1,0,0:0:0:0:
256,192,69889,1,0,0:0:0:0:
256,192,69963,1,2,0:0:0:0:
256,192,70037,1,0,0:0:0:0:
256,192,70111,1,0,0:0:0:0:
256,192,70185,1,2,0:0:0:0:
256,192,70259,1,0,0:0:0:0:
256,192,70333,1,0,0:0:0:0:
256,192,70406,1,2,0:0:0:0:
256,192,70480,1,2,0:0:0:0:
256,192,70554,1,0,0:0:0:0:
256,192,70628,1,0,0:0:0:0:
256,192,70702,1,0,0:0:0:0:
256,192,70776,1,0,0:0:0:0:
256,192,70850,1,2,0:0:0:0:
256,192,70924,1,2,0:0:0:0:
256,192,70998,1,2,0:0:0:0:
256,192,71071,1,0,0:0:0:0:
256,192,71145,1,2,0:0:0:0:
256,192,71219,1,2,0:0:0:0:
256,192,71293,1,0,0:0:0:0:
256,192,71367,1,0,0:0:0:0:
256,192,71441,1,2,0:0:0:0:
256,192,71515,1,0,0:0:0:0:
256,192,71589,1,2,0:0:0:0:
256,192,71663,1,0,0:0:0:0:
256,192,71736,1,0,0:0:0:0:
256,192,71810,1,0,0:0:0:0:
256,192,71884,1,2,0:0:0:0:
256,192,71958,1,2,0:0:0:0:
256,192,72032,1,2,0:0:0:0:
256,192,72106,1,2,0:0:0:0:
256,192,72180,1,2,0:0:0:0:
256,192,72254,1,0,0:0:0:0:
256,192,72328,1,0,0:0:0:0:
256,192,72402,1,0,0:0:0:0:
256,192,72475,1,2,0:0:0:0:
256,192,72549,1,2,0:0:0:0:
256,192,72623,1,2,0:0:0:0:
256,192,72697,1,2,0:0:0:0:
256,192,72771,1,0,0:0:0:0:
256,192,72845,1,0,0:0:0:0:
256,192,72919,1,2,0:0:0:0:
256,192,72993,1,0,0:0:0:0:
256,192,73067,1,0,0:0:0:0:
256,192,73140,1,0,0:0:0:0:
256,192,73214,1,2,0:0:0:0:
256,192,73288,1,0,0:0:0:0:
256,192,73362,1,0,0:0:0:0:
256,192,73436,1,0,0:0:0:0:
256,192,73510,1,2,0:0:0:0:
256,192,73584,1,2,0:0:0:0:
256,192,73658,1,0,0:0:0:0:
256,192,73732,1,0,0:0:0:0:
256,192,73805,1,0,0:0:0:0:
256,192,73879,1,2,0:0:0:0:
256,192,73953,1,0,0:0:0:0:
256,192,74027,1,0,0:0:0:0:
256,192,74101,1,2,0:0:0:0:
256,192,74175,1,2,0:0:0:0:
256,192,74249,1,2,0:0:0:0:
256,192,74323,1,2,0:0:0:0:
256,192,74397,1,0,0:0:0:0:
256,192,74470,1,0,0:0:0:0:
256,192,74544,1,0,0:0:0:0:
256,192,74618,1,0,0:0:0:0:
256,192,74692,1,0,0:0:0:0:
256,192,74766,1,0,0:0:0:0:
256,192,74840,1,2,0:0:0:0:
256,192,74914,1,2,0:0:0:0:
256,192,74988,1,0,0:0:0:0:
256,192,75062,1,2,0:0:0:0:
256,192,75135,1,0,0:0:0:0:
256,192,75209,1,0,0:0:0:0:
256,192,75283,1,2,0:0:0:0:
256,192,75357,1,2,0:0:0:0:
256,192,75431,1,0,0:0:0:0:
256,192,75505,1,2,0:0:0:0:
256,192,75579,1,0,0:0:0:0:
256,192,75653,1,0,0:0:0:0:
256,192,75727,1,0,0:0:0:0:
256,192,75801,1,2,0:0:0:0:
256,192,75874,1,0,0:0:0:0:
256,192,75948,1,2,0:0:0:0:
256,192,76022,1,0,0:0:0:0:
256,192,76096,1,2,0:0:0:0:
256,192,76170,1,2,0:0:0:0:
256,192,76244,1,0,0:0:0:0:
256,192,76318,1,2,0:0:0:0:
256,192,76392,1,0,0:0:0:0:
256,192,76466,1,0,0:0:0:0:
256,192,76539,1,0,0:0:0:0:
256,192,76613,1,0,0:0:0:0:
256,192,76687,1,0,0:0:0:0:
256,192,76761,1,2,0:0:0:0:
256,192,76835,1,0,0:0:0:0:
256,192,76909,1,2,0:0:0:0:
256,192,76983,1,2,0:0:0:0:
256,192,77057,1,2,0:0:0:0:
256,192,77131,1,0,0:0:0:0:
256,192,77204,1,2,0:0:0:0:
256,192,77278,1,2,0:0:0:0:
256,192,77352,1,2,0:0:0:0:
256,192,77426,1,2,0:0:0:0:
256,192,77500,1,2,0:0:0:0:
256,192,77574,1,0,0:0:0:0:
256,192,77648,1,0,0:0:0:0:
256,192,77722,1,0,0:0:0:0:
256,192,77796,1,2,0:0:0:0:
256,192,77869,1,2,0:0:0:0:
256,192,77943,1,2,0:0:0:0:
256,192,78017,1,2,0:0:0:0:
256,192,78091,1,0,0:0:0:0:
256,192,78165,1,0,0:0:0:0:
256,192,78239,1,0,0:0:0:0:
256,192,78313,1,2,0:0:0:0:
256,192,78387,1,0,0:0:0:0:
256,192,78461,1,0,0:0:0:0:
256,192,78535,1,2,0:0:0:0:
256,192,78608,1,0,0:0:0:0:
256,192,78682,1,0,0:0:0:0:
256,192,78756,1,2,0:0:0:0:
256,192,78830,1,2,0:0:0:0:
256,192,78904,1,0,0:0:0:0:
256,192,78978,1,0,0:0:0:0:
256,192,79052,1,0,0:0:0:0:
256,192,79126,1,2,0:0:0:0:
256,192,79200,1,2,0:0:0:0:
256,192,79273,1,0,0:0:0:0:
256,192,79347,1,0,0:0:0:0:
256,192,79421,1,2,0:0:0:0:
256,192,79495,1,0,0:0:0:0:
256,192,79569,1,0,0:0:0:0:
256,192,79643,1,0,0:0:0:0:
256,192,79717,1,0,0:0:0:0:
256,192,79791,1,0,0:0:0:0:
256,192,79865,1,0,0:0:0:0:
256,192,79938,1,0,0:0:0:0:
256,192,80012,1,2,0:0:0:0:
256,192,80086,1,2,0:0:0:0:
256,192,80160,1,2,0:0:0:0:
256,192,80234,1,2,0:0:0:0:
256,192,80308,1,2,0:0:0:0:
256,192,80382,1,2,0:0:0:0:
256,192,80456,1,2,0:0:0:0:
256,192,80530,1,0,0:0:0:0:
256,192,80603,1,0,0:0:0:0:
256,192,80677,1,2,0:0:0:0:
256,192,80751,1,2,0:0:0:0:
256,192,80825,1,2,0:0:0:0:
256,192,80899,1,0,0:0:0:0:
256,192,80973,1,2,0:0:0:0:
256,192,81047,1,0,0:0:0:0:
256,192,81121,1,0,0:0:0:0:
256,192,81195,1,2,0:0:0:0:
256,192,81269,1,2,0:0:0:0:
256,192,81342,1,0,0:0:0:0:
256,192,81416,1,2,0:0:0:0:
256,192,81490,1,2,0:0:0:0:
256,192,81564,1,2,0:0:0:0:
256,192,81638,1,0,0:0:0:0:
256,192,81712,1,2,0:0:0:0:
256,192,81786,1,2,0:0:0:0:
256,192,81860,1,2,0:0:0:0:
256,192,81934,1,0,0:0:0:0:
256,192,82007,1,0,0:0:0:0:
256,192,82081,1,2,0:0:0:0:
256,192,82155,1,2,0:0:0:0:
256,192,82229,1,2,0:0:0:0:
256,192,82303,1,0,0:0:0:0:
256,192,82377,1,2,0:0:0:0:
256,192,82451,1,0,0:0:0:0:
256,192,82525,1,2,0:0:0:0:
256,192,82599,1,0,0:0:0:0:
256,192,82672,1,2,0:0:0:0:
256,192,82746,1,0,0:0:0:0:
256,192,82820,1,2,0:0:0:0:
256,192,82894,1,0,0:0:0:0:
256,192,82968,1,0,0:0:0:0:
256,192,83042,1,2,0:0:0:0:
256,192,83116,1,0,0:0:0:0:
256,192,83190,1,0,0:0:0:0:
256,192,83264,1,0,0:0:0:0:
256,192,83337,1,0,0:0:0:0:
256,192,83411,1,2,0:0:0:0:
256,192,83485,1,2,0:0:0:0:
256,192,83559,1,0,0:0:0:0:
256,192,83633,1,0,0:0:0:0:
256,192,83707,1,0,0:0:0:0:
256,192,83781,1,0,0:0:0:0:
256,192,83855,1,0,0:0:0:0:
256,192,83929,1,0,0:0:0:0:
256,192,84002,1,0,0:0:0:0:
256,192,84076,1,2,0:0:0:0:
256,192,84150,1,2,0:0:0:0:
256,192,84224,1,0,0:0:0:0:
256,192,84298,1,0,0:0:0:0:
256,192,84372,1,0,0:0:0:0:
256,192,84446,1,0,0:0:0:0:
256,192,84520,1,2,0:0:0:0:
256,192,84594,1,2,0:0:0:0:
256,192,84668,1,0,0:0:0:0:
256,192,84741,1,0,0:0:0:0:
256,192,84815,1,2,0:0:0:0:
256,192,84889,1,2,0:0:0:0:
256,192,84963,1,0,0:0:0:0:
256,192,85037,1,2,0:0:0:0:
256,192,85111,1,2,0:0:0:0:
256,192,85185,1,0,0:0:0:0:
256,192,85259,1,0,0:0:0:0:
256,192,85333,1,2,0:0:0:0:
256,192,85406,1,2,0:0:0:0:
256,192,85480,1,2,0:0:0:0:
256,192,85554,1,2,0:0:0:0:
256,192,85628,1,2,0:0:0:0:
256,192,85702,1,0,0:0:0:0:
256,192,85776,1,2,0:0:0:0:
256,192,85850,1,2,0:0:0:0:
256,192,85924,1,2,0:0:0:0:
256,192,85998,1,2,0:0:0:0:
256,192,86071,1,0,0:0:0:0:
256,192,86145,1,2,0:0:0:0:
256,192,86219,1,0,0:0:0:0:
256,192,86293,1,0,0:0:0:0:
256,192,86367,1,0,0:0:0:0:
256,192,86441,1,0,0:0:0:0:
256,192,86515,1,0,0:0:0:0:
256,192,86589,1,0,0:0:0:0:
256,192,86663,1,0,0:0:0:0:
256,192,86736,1,2,0:0:0:0:
256,192,86810,1,2,0:0:0:0:
256,192,86884,1,0,0:0:0:0:
256,192,86958,1,2,0:0:0:0:
256,192,87032,1,0,0:0:0:0:
256,192,87106,1,2,0:0:0:0:
256,192,87180,1,0,0:0:0:0:
256,192,87254,1,2,0:0:0:0:
256,192,87328,1,0,0:0:0:0:
256,192,87402,1,0,0:0:0:0:
256,192,87475,1,2,0:0:0:0:
256,192,87549,1,2,0:0:0:0:
256,192,87623,1,0,0:0:0:0:
256,192,87697,1,2,0:0:0:0:
256,192,87771,1,2,0:0:0:0:
256,192,87845,1,0,0:0:0:0:
256,192,87919,1,0,0:0:0:0:
256,192,87993,1,2,0:0:0:0:
256,192,88067,1,0,0:0:0:0:
256,192,88140,1,2,0:0:0:0:
256,192,88214,1,2,0:0:0:0:
256,192,88288,1,2,0:0:0:0:
256,192,88362,1,2,0:0:0:0:
256,192,88436,1,0,0:0:0:0:
256,192,88510,1,2,0:0:0:0:
256,192,88584,1,0,0:0:0:0:
256,192,88658,1,0,0:0:0:0:
256,192,88732,1,0,0:0:0:0:
256,192,88805,1,2,0:0:0:0:
256,192,88879,1,2,0:0:0:0:
256,192,88953,1,0,0:0:0:0:
256,192,89027,1,0,0:0:0:0:
256,192,89101,1,0,0:0:0:0:
256,192,89175,1,0,0:0:0:0:
256,192,89249,1,0,0:0:0:0:
256,192,89323,1,0,0:0:0:0:
256,192,89397,1,0,0:0:0:0:
256,192,89470,1,0,0:0:0:0:
256,192,89544,1,2,0:0:0:0:
256,192,89618,1,2,0:0:0:0:
256,192,89692,1,2,0:0:0:0:
256,192,89766,1,2,0:0:0:0:
256,192,89840,1,2,0:0:0:0:
256,192,89914,1,2,0:0:0:0:
256,192,89988,1,0,0:0:0:0:
256,192,90062,1,2,0:0:0:0:
256,192,90136,1,2,0:0:0:0:
256,192,90209,1,0,0:0:0:0:
256,192,90283,1,2,0:0:0:0:
256,192,90357,1,2,0:0:0:0:
256,192,90431,1,0,0:0:0:0:
256,192,90505,1,0,0:0:0:0:
256,192,90579,1,2,0:0:0:0:
256,192,90653,1,0,0:0:0:0:
256,192,90727,1,0,0:0:0:0:
256,192,90801,1,2,0:0:0:0:
256,192,90874,1,2,0:0:0:0:
256,192,90948,1,0,0:0:0:0:
256,192,91022,1,0,0:0:0:0:
256,192,91096,1,0,0:0:0:0:
256,192,91170,1,2,0:0:0:0:
256,192,91244,1,0,0:0:0:0:
256,192,91318,1,0,0:0:0:0:
256,192,91392,1,0,0:0:0:0:
256,192,91466,1,0,0:0:0:0:
256,192,91539,1,2,0:0:0:0:
256,192,91613,1,2,0:0:0:0:
256,192,91687,1,0,0:0:0:0:
256,192,91761,1,2,0:0:0:0:
256,192,91835,1,0,0:0:0:0:
256,192,91909,1,2,0:0:0:0:
256,192,91983,1,2,0:0:0:0:
256,192,92057,1,2,0:0:0:0:
256,192,92131,1,2,0:0:0:0:
256,192,92204,1,0,0:0:0:0:
256,192,92278,1,0,0:0:0:0:
256,192,92352,1,0,0:0:0:0:
256,192,92426,1,0,0:0:0:0:
256,192,92500,1,2,0:0:0:0:
256,192,92574,1,0,0:0:0:0:
256,192,92648,1,0,0:0:0:0:
256,192,92722,1,0,0:0:0:0:
256,192,92796,1,0,0:0:0:0:
256,192,92869,1,2,0:0:0:0:
256,192,92943,1,2,0:0:0:0:
256,192,93017,1,0,0:0:0:0:
256,192,93091,1,2,0:0:0:0:
256,192,93165,1,2,0:0:0:0:
256,192,93239,1,0,0:0:0:0:
256,192,93313,1,2,0:0:0:0:
256,192,93387,1,0,0:0:0:0:
256,192,93461,1,0,0:0:0:0:
256,192,93535,1,2,0:0:0:0:
256,192,93608,1,0,0:0:0:0:
256,192,93682,1,2,0:0:0:0:
256,192,93756,1,0,0:0:0:0:
256,192,93830,1,2,0:0:0:0:
256,192,93904,1,2,0:0:0:0:
256,192,93978,1,2,0:0:0:0:
256,192,94052,1,0,0:0:0:0:
256,192,94126,1,2,0:0:0:0:
256,192,94200,1,0,0:0:0:0:
256,192,94273,1,0,0:0:0:0:
256,192,94347,1,0,0:0:0:0:
256,192,94421,1,0,0:0:0:0:
256,192,94495,1,0,0:0:0:0:
256,192,94569,1,2,0:0:0:0:
256,192,94643,1,2,0:0:0:0:
256,192,94717,1,0,0:0:0:0:
256,192,94791,1,2,0:0:0:0:
256,192,94865,1,2,0:0:0:0:
256,192,94938,1,2,0:0:0:0:
256,192,95012,1,2,0:0:0:0:
256,192,95086,1,0,0:0:0:0:
256,192,95160,1,0,0:0:0:0:
256,192,95234,1,0,0:0:0:0:
256,192,95308,1,0,0:0:0:0:
256,192,95382,1,2,0:0:0:0:
256,192,95456,1,2,0:0:0:0:
256,192,95530,1,0,0:0:0:0:
256,192,95603,1,2,0:0:0:0:
256,192,95677,1,0,0:0:0:0:
256,192,95751,1,2,0:0:0:0:
256,192,95825,1,2,0:0:0:0:
256,192,95899,1,2,0:0:0:0:
256,192,95973,1,2,0:0:0:0:
256,192,96047,1,2,0:0:0:0:
256,192,96121,1,2,0:0:0:0:
256,192,96195,1,2,0:0:0:0:
256,192,96269,1,2,0:0:0:0:
256,192,96342,1,0,0:0:0:0:
256,192,96416,1,0,0:0:0:0:
256,192,96490,1,0,0:0:0:0:
256,192,96564,1,0,0:0:0:0:
256,192,96638,1,2,0:0:0:0:
256,192,96712,1,0,0:0:0:0:
256,192,96786,1,0,0:0:0:0:
256,192,96860,1,2,0:0:0:0:
256,192,96934,1,0,0:0:0:0:
256,192,97007,1,2,0:0:0:0:
256,192,97081,1,0,0:0:0:0:
256,192,97155,1,0,0:0:0:0:
256,192,97229,1,2,0:0:0:0:
256,192,97303,1,2,0:0:0:0:
256,192,97377,1,0,0:0:0:0:
256,192,97451,1,2,0:0:0:0:
256,192,97525,1,2,0:0:0:0:
256,192,97599,1,2,0:0:0:0:
256,192,97672,1,2,0:0:0:0:
256,192,97746,1,0,0:0:0:0:
256,192,97820,1,0,0:0:0:0:
256,192,97894,1,2,0:0:0:0:
256,192,97968,1,2,0:0:0:0:
256,192,98042,1,2,0:0:0:0:
256,192,98116,1,2,0:0:0:0:
256,192,98190,1,0,0:0:0:0:
256,192,98264,1,2,0:0:0:0:
256,192,98337,1,0,0:0:0:0:
256,192,98411,1,2,0:0:0:0:
256,192,98485,1,2,0:0:0:0:
256,192,98559,1,0,0:0:0:0:
256,192,98633,1,0,0:0:0:0:
256,192,98707,1,0,0:0:0:0:
256,192,98781,1,0,0:0:0:0:
256,192,98855,1,2,0:0:0:0:
256,192,98929,1,0,0:0:0:0:
256,192,99002,1,2,0:0:0:0:
256,192,99076,1,2,0:0:0:0:
256,192,99150,1,2,0:0:0:0:
256,192,99224,1,2,0:0:0:0:
256,192,99298,1,0,0:0:0:0:
256,192,99372,1,0,0:0:0:0:
256,192,99446,1,0,0:0:0:0:
256,192,99520,1,2,0:0:0:0:
256,192,99594,1,2,0:0:0:0:
256,192,99668,1,2,0:0:0:0:
256,192,99741,1,0,0:0:0:0:
256,192,99815,1,0,0:0:0:0:
256,192,99889,1,0,0:0:0:0:
256,192,99963,1,0,0:0:0:0:
256,192,100037,1,2,0:0:0:0:
256,192,100111,1,2,0:0:0:0:
256,192,100185,1,2,0:0:0:0:
256,192,100259,1,0,0:0:0:0:
256,192,100333,1,2,0:0:0:0:
256,192,100406,1,2,0:0:0:0:
256,192,100480,1,0,0:0:0:0:
256,192,100554,1,2,0:0:0:0:
256,192,100628,1,2,0:0:0:0:
256,192,100702,1,0,0:0:0:0:
256,192,100776,1,2,0:0:0:0:
256,192,100850,1,2,0:0:0:0:
256,192,100924,1,0,0:0:0:0:
256,192,100998,1,0,0:0:0:0:
256,192,101071,1,2,0:0:0:0:
256,192,101145,1,0,0:0:0:0:
256,192,101219,1,0,0:0:0:0:
256,192,101293,1,2,0:0:0:0:
256,192,101367,1,2,0:0:0:0:
256,192,101441,1,2,0:0:0:0:
256,192,101515,1,2,0:0:0:0:
256,192,101589,1,2,0:0:0:0:
256,192,101663,1,2,0:0:0:0:
256,192,101736,1,0,0:0:0:0:
256,192,101810,1,0,0:0:0:0:
256,192,101884,1,2,0:0:0:0:
256,192,101958,1,0,0:0:0:0:
256,192,102032,1,2,0:0:0:0:
256,192,102106,1,0,0:0:0:0:
256,192,102180,1,2,0:0:0:0:
256,192,102254,1,0,0:0:0:0:
256,192,102328,1,0,0:0:0:0:
256,192,102402,1,0,0:0:0:0:
256,192,102475,1,0,0:0:0:0:
256,192,102549,1,0,0:0:0:0:
256,192,102623,1,0,0:0:0:0:
256,192,102697,1,2,0:0:0:0:
256,192,102771,1,2,0:0:0:0:
256,192,102845,1,2,0:0:0:0:
256,192,102919,1,0,0:0:0:0:
256,192,102993,1,0,0:0:0:0:
256,192,103067,1,0,0:0:0:0:
256,192,103140,1,2,0:0:0:0:
256,192,103214,1,0,0:0:0:0:
256,192,103288,1,0,0:0:0:0:
256,192,103362,1,2,0:0:0:0:
256,192,103436,1,2,0:0:0:0:
256,192,103510,1,0,0:0:0:0:
256,192,103584,1,0,0:0:0:0:
256,192,103658,1,0,0:0:0:0:
256,192,103732,1,0,0:0:0:0:
256,192,103805,1,0,0:0:0:0:
256,192,103879,1,2,0:0:0:0:
256,192,103953,1,0,0:0:0:0:
256,192,104027,1,0,0:0:0:0:
256,192,104101,1,0,0:0:0:0:
256,192,104175,1,2,0:0:0:0:
256,192,104249,1,2,0:0:0:0:
256,192,104323,1,0,0:0:0:0:
256,192,104397,1,2,0:0:0:0:
256,192,104470,1,2,0:0:0:0:
256,192,104544,1,2,0:0:0:0:
256,192,104618,1,0,0:0:0:0:
256,192,104692,1,2,0:0:0:0:
256,192,104766,1,2,0:0:0:0:
256,192,104840,1,0,0:0:0:0:
256,192,104914,1,0,0:0:0:0:
256,192,104988,1,0,0:0:0:0:
256,192,105062,1,0,0:0:0:0:
256,192,105136,1,0,0:0:0:0:
256,192,105209,1,0,0:0:0:0:
256,192,105283,1,2,0:0:0:0:
256,192,105357,1,0,0:0:0:0:
256,192,105431,1,2,0:0:0:0:
256,192,105505,1,2,0:0:0:0:
256,192,105579,1,2,0:0:0:0:
256,192,105653,1,0,0:0:0:0:
256,192,105727,1,2,0:0:0:0:
256,192,105801,1,0,0:0:0:0:
256,192,105874,1,2,0:0:0:0:
256,192,105948,1,2,0:0:0:0:
256,192,106022,1,0,0:0:0:0:
256,192,106096,1,0,0:0:0:0:
256,192,106170,1,2,0:0:0:0:
256,192,106244,1,2,0:0:0:0:
256,192,106318,1,2,0:0:0:0:
256,192,106392,1,0,0:0:0:0:
256,192,106466,1,2,0:0:0:0:
256,192,106539,1,0,0:0:0:0:
256,192,106613,1,2,0:0:0:0:
256,192,106687,1,0,0:0:0:0:
256,192,106761,1,0,0:0:0:0:
256,192,106835,1,0,0:0:0:0:
256,192,106909,1,2,0:0:0:0:
256,192,106983,1,0,0:0:0:0:
256,192,107057,1,2,0:0:0:0:
256,192,107131,1,2,0:0:0:0:
256,192,107204,1,2,0:0:0:0:
256,192,107278,1,2,0:0:0:0:
256,192,107352,1,2,0:0:0:0:
256,192,107426,1,2,0:0:0:0:
256,192,107500,1,0,0:0:0:0:
256,192,107574,1,2,0:0:0:0:
256,192,107648,1,0,0:0:0:0:
256,192,107722,1,0,0:0:0:0:
256,192,107796,1,2,0:0:0:0:
256,192,107869,1,2,0:0:0:0:
256,192,107943,1,0,0:0:0:0:
256,192,108017,1,2,0:0:0:0:
256,192,108091,1,0,0:0:0:0:
256,192,108165,1,2,0:0:0:0:
256,192,108239,1,0,0:0:0:0:
256,192,108313,1,2,0:0:0:0:
256,192,108387,1,2,0:0:0:0:
256,192,108461,1,2,0:0:0:0:
256,192,108535,1,0,0:0:0:0:
256,192,108608,1,2,0:0:0:0:
256,192,108682,1,0,0:0:0:0:
256,192,108756,1,2,0:0:0:0:
256,192,108830,1,0,0:0:0:0:
256,192,108904,1,0,0:0:0:0:
256,192,108978,1,2,0:0:0:0:
256,192,109052,1,2,0:0:0:0:
256,192,109126,1,0,0:0:0:0:
256,192,109200,1,0,0:0:0:0:
256,192,109273,1,0,0:0:0:0:
256,192,109347,1,2,0:0:0:0:
256,192,109421,1,0,0:0:0:0:
256,192,109495,1,0,0:0:0:0:
256,192,109569,1,2,0:0:0:0:
256,192,109643,1,0,0:0:0:0:
256,192,109717,1,2,0:0:0:0:
256,192,109791,1,2,0:0:0:0:
256,192,109865,1,0,0:0:0:0:
256,192,109938,1,0,0:0:0:0:
256,192,110012,1,2,0:0:0:0:
256,192,110086,1,2,0:0:0:0:
256,192,110160,1,2,0:0:0:0:
256,192,110234,1,0,0:0:0:0:
256,192,110308,1,2,0:0:0:0:
256,192,110382,1,2,0:0:0:0:
256,192,110456,1,2,0:0:0:0:
256,192,110530,1,0,0:0:0:0:
256,192,110603,1,0,0:0:0:0:
256,192,110677,1,0,0:0:0:0:
256,192,110751,1,0,0:0:0:0:
256,192,110825,1,0,0:0:0:0:
256,192,110899,1,2,0:0:0:0:
256,192,110973,1,0,0:0:0:0:
256,192,111047,1,0,0:0:0:0:
256,192,111121,1,0,0:0:0:0:
256,192,111195,1,0,0:0:0:0:
256,192,111269,1,0,0:0:0:0:
256,192,111342,1,2,0:0:0:0:
256,192,111416,1,0,0:0:0:0:
256,192,111490,1,0,0:0:0:0:
256,192,111564,1,0,0:0:0:0:
256,192,111638,1,0,0:0:0:0:
256,192,111712,1,0,0:0:0:0:
256,192,111786,1,2,0:0:0:0:
256,192,111860,1,0,0:0:0:0:
256,192,111934,1,2,0:0:0:0:
256,192,112007,1,0,0:0:0:0:
256,192,112081,1,2,0:0:0:0:
256,192,112155,1,2,0:0:0:0:
256,192,112229,1,0,0:0:0:0:
256,192,112303,1,2,0:0:0:0:
256,192,112377,1,0,0:0:0:0:
256,192,112451,1,0,0:0:0:0:
256,192,112525,1,2,0:0:0:0:
256,192,112599,1,0,0:0:0:0:
256,192,112672,1,0,0:0:0:0:
256,192,112746,1,2,0:0:0:0:
256,192,112820,1,2,0:0:0:0:
256,192,112894,1,2,0:0:0:0:
256,192,112968,1,2,0:0:0:0:
256,192,113042,1,2,0:0:0:0:
256,192,113116,1,2,0:0:0:0:
256,192,113190,1,0,0:0:0:0:
256,192,113264,1,2,0:0:0:0:
256,192,113337,1,0,0:0:0:0:
256,192,113411,1,2,0:0:0:0:
256,192,113485,1,2,0:0:0:0:
256,192,113559,1,2,0:0:0:0:
256,192,113633,1,2,0:0:0:0:
256,192,113707,1,2,0:0:0:0:
256,192,113781,1,2,0:0:0:0:
256,192,113855,1,2,0:0:0:0:
256,192,113929,1,0,0:0:0:0:
256,192,114002,1,0,0:0:0:0:
256,192,114076,1,0,0:0:0:0:
256,192,114150,1,2,0:0:0:0:
256,192,114224,1,0,0:0:0:0:
256,192,114298,1,0,0:0:0:0:
256,192,114372,1,0,0:0:0:0:
256,192,114446,1,2,0:0:0:0:
256,192,114520,1,2,0:0:0:0:
256,192,114594,1,0,0:0:0:0:
256,192,114668,1,0,0:0:0:0:
256,192,114741,1,0,0:0:0:0:
256,192,114815,1,2,0:0:0:0:
256,192,114889,1,0,0:0:0:0:
256,192,114963,1,0,0:0:0:0:
256,192,115037,1,0,0:0:0:0:
256,192,115111,1,0,0:0:0:0:
256,192,115185,1,0,0:0:0:0:
256,192,115259,1,0,0:0:0:0:
256,192,115333,1,2,0:0:0:0:
256,192,115406,1,0,0:0:0:0:
256,192,115480,1,0,0:0:0:0:
256,192,115554,1,0,0:0:0:0:
256,192,115628,1,2,0:0:0:0:
256,192,115702,1,0,0:0:0:0:
256,192,115776,1,0,0:0:0:0:
256,192,115850,1,0,0:0:0:0:
256,192,115924,1,2,0:0:0:0:
256,192,115998,1,0,0:0:0:0:
256,192,116071,1,0,0:0:0:0:
256,192,116145,1,0,0:0:0:0:
256,192,116219,1,2,0:0:0:0:
256,192,116293,1,0,0:0:0:0:
256,192,116367,1,2,0:0:0:0:
256,192,116441,1,0,0:0:0:0:
256,192,116515,1,2,0:0:0:0:
256,192,116589,1,2,0:0:0:0:
256,192,116663,1,2,0:0:0:0:
256,192,116736,1,0,0:0:0:0:
256,192,116810,1,0,0:0:0:0:
256,192,116884,1,0,0:0:0:0:
256,192,116958,1,0,0:0:0:0:
256,192,117032,1,0,0:0:0:0:
256,192,117106,1,0,0:0:0:0:
256,192,117180,1,0,0:0:0:0:
256,192,117254,1,2,0:0:0:0:
256,192,117328,1,2,0:0:0:0:
256,192,117402,1,0,0:0:0:0:
256,192,117475,1,0,0:0:0:0:
256,192,117549,1,2,0:0:0:0:
256,192,117623,1,0,0:0:0:0:
256,192,117697,1,2,0:0:0:0:
256,192,117771,1,2,0:0:0:0:
256,192,117845,1,0,0:0:0:0:
256,192,117919,1,0,0:0:0:0:
256,192,117993,1,0,0:0:0:0:
256,192,118067,1,0,0:0:0:0:
256,192,118140,1,0,0:0:0:0:
256,192,118214,1,2,0:0:0:0:
256,192,118288,1,2,0:0:0:0:
256,192,118362,1,0,0:0:0:0:
256,192,118436,1,0,0:0:0:0:
256,192,118510,1,2,0:0:0:0:
256,192,118584,1,2,0:0:0:0:
256,192,118658,1,2,0:0:0:0:
256,192,118732,1,0,0:0:0:0:
256,192,118805,1,2,0:0:0:0:
256,192,118879,1,2,0:0:0:0:
256,192,118953,1,0,0:0:0:0:
256,192,119027,1,2,0:0:0:0:
256,192,119101,1,0,0:0:0:0:
256,192,119175,1,2,0:0:0:0:
256,192,119249,1,0,0:0:0:0:
256,192,119323,1,0,0:0:0:0:
256,192,119397,1,0,0:0:0:0:
256,192,119470,1,0,0:0:0:0:
256,192,119544,1,0,0:0:0:0:
256,192,119618,1,2,0:0:0:0:
256,192,119692,1,0,0:0:0:0:
256,192,119766,1,0,0:0:0:0:
256,192,119840,1,0,0:0:0:0:
256,192,119914,1,2,0:0:0:0:
256,192,119988,1,0,0:0:0:0:
256,192,120062,1,2,0:0:0:0:
256,192,120136,1,0,0:0:0:0:
256,192,120209,1,0,0:0:0:0:
256,192,120283,1,2,0:0:0:0:
256,192,120357,1,0,0:0:0:0:
256,192,120431,1,0,0:0:0:0:
256,192,120505,1,2,0:0:0:0:
256,192,120579,1,0,0:0:0:0:
256,192,120653,1,2,0:0:0:0:
256,192,120727,1,2,0:0:0:0:
256,192,120801,1,0,0:0:0:0:
256,192,120874,1,0,0:0:0:0:
256,192,120948,1,0,0:0:0:0:
256,192,121022,1,2,0:0:0:0:
256,192,121096,1,2,0:0:0:0:
256,192,121170,1,2,0:0:0:0:
256,192,121244,1,0,0:0:0:0:
256,192,121318,1,2,0:0:0:0:
256,192,121392,1,2,0:0:0:0:
256,192,121466,1,0,0:0:0:0:
256,192,121539,1,2,0:0:0:0:
256,192,121613,1,2,0:0:0:0:
256,192,121687,1,0,0:0:0:0:
256,192,121761,1,2,0:0:0:0:
256,192,121835,1,2,0:0:0:0:
256,192,121909,1,0,0:0:0:0:
256,192,121983,1,2,0:0:0:0:
256,192,122057,1,0,0:0:0:0:
256,192,122131,1,2,0:0:0:0:
256,192,122204,1,0,0:0:0:0:
256,192,122278,1,0,0:0:0:0:
256,192,122352,1,2,0:0:0:0:
256,192,122426,1,0,0:0:0:0:
256,192,122500,1,2,0:0:0:0:
256,192,122574,1,2,0:0:0:0:
256,192,122648,1,2,0:0:0:0:
256,192,122722,1,2,0:0:0:0:
256,192,122796,1,2,0:0:0:0:
256,192,122869,1,2,0:0:0:0:
256,192,122943,1,0,0:0:0:0:
256,192,123017,1,2,0:0:0:0:
256,192,123091,1,0,0:0:0:0:
256,192,123165,1,0,0:0:0:0:
256,192,123239,1,2,0:0:0:0:
256,192,123313,1,0,0:0:0:0:
256,192,123387,1,0,0:0:0:0:
256,192,123461,1,0,0:0:0:0:
256,192,123535,1,0,0:0:0:0:
256,192,123608,1,0,0:0:0:0:
256,192,123682,1,0,0:0:0:0:
256,192,123756,1,0,0:0:0:0:
256,192,123830,1,0,0:0:0:0:
256,192,123904,1,0,0:0:0:0:
256,192,123978,1,2,0:0:0:0:
256,192,124052,1,0,0:0:0:0:
256,192,124126,1,0,0:0:0:0:
256,192,124200,1,0,0:0:0:0:
256,192,124273,1,2,0:0:0:0:
256,192,124347,1,2,0:0:0:0:
256,192,124421,1,2,0:0:0:0:
256,192,124495,1,2,0:0:0:0:
256,192,124569,1,2,0:0:0:0:
256,192,124643,1,0,0:0:0:0:
256,192,124717,1,2,0:0:0:0:
256,192,124791,1,0,0:0:0:0:
256,192,124865,1,2,0:0:0:0:
256,192,124938,1,0,0:0:0:0:
256,192,125012,1,2,0:0:0:0:
256,192,125086,1,2,0:0:0:0:
256,192,125160,1,2,0:0:0:0:
256,192,125234,1,2,0:0:0:0:
256,192,125308,1,0,0:0:0:0:
256,192,125382,1,0,0:0:0:0:
256,192,125456,1,0,0:0:0:0:
256,192,125530,1,0,0:0:0:0:
256,192,125603,1,0,0:0:0:0:
256,192,125677,1,2,0:0:0:0:
256,192,125751,1,0,0:0:0:0:
256,192,125825,1,0,0:0:0:0:
256,192,125899,1,0,0:0:0:0:
256,192,125973,1,0,0:0:0:0:
256,192,126047,1,0,0:0:0:0:
256,192,126121,1,2,0:0:0:0:
256,192,126195,1,2,0:0:0:0:
256,192,126269,1,2,0:0:0:0:
256,192,126342,1,0,0:0:0:0:
256,192,126416,1,2,0:0:0:0:
256,192,126490,1,2,0:0:0:0:
256,192,126564,1,0,0:0:0:0:
256,192,126638,1,2,0:0:0:0:
256,192,126712,1,2,0:0:0:0:
256,192,126786,1,0,0:0:0:0:
256,192,126860,1,0,0:0:0:0:
256,192,126934,1,2,0:0:0:0:
256,192,127007,1,0,0:0:0:0:
256,192,127081,1,2,0:0:0:0:
256,192,127155,1,0,0:0:0:0:
256,192,127229,1,0,0:0:0:0:
256,192,127303,1,2,0:0:0:0:
256,192,127377,1,2,0:0:0:0:
256,192,127451,1,0,0:0:0:0:
256,192,127525,1,0,0:0:0:0:
256,192,127599,1,0,0:0:0:0:
256,192,127672,1,0,0:0:0:0:
256,192,127746,1,0,0:0:0:0:
256,192,127820,1,0,0:0:0:0:
256,192,127894,1,2,0:0:0:0:
256,192,127968,1,0,0:0:0:0:
256,192,128042,1,0,0:0:0:0:
256,192,128116,1,0,0:0:0:0:
256,192,128190,1,2,0:0:0:0:
256,192,128264,1,0,0:0:0:0:
256,192,128337,1,2,0:0:0:0:
256,192,128411,1,2,0:0:0:0:
256,192,128485,1,0,0:0:0:0:
256,192,128559,1,0,0:0:0:0:
256,192,128633,1,0,0:0:0:0:
256,192,128707,1,2,0:0:0:0:
256,192,128781,1,2,0:0:0:0:
256,192,128855,1,0,0:0:0:0:
256,192,128929,1,2,0:0:0:0:
256,192,129002,1,2,0:0:0:0:
256,192,129076,1,2,0:0:0:0:
256,192,129150,1,0,0:0:0:0:
256,192,129224,1,2,0:0:0:0:
256,192,129298,1,2,0:0:0:0:
256,192,129372,1,2,0:0:0:0:
256,192,129446,1,2,0:0:0:0:
256,192,129520,1,0,0:0:0:0:
256,192,129594,1,0,0:0:0:0:
256,192,129668,1,2,0:0:0:0:
256,192,129741,1,2,0:0:0:0:
256,192,129815,1,2,0:0:0:0:
256,192,129889,1,0,0:0:0:0:
256,192,129963,1,0,0:0:0:0:
256,192,130037,1,2,0:0:0:0:
256,192,130111,1,2,0:0:0:0:
256,192,130185,1,0,0:0:0:0:
256,192,130259,1,2,0:0:0:0:
256,192,130333,1,0,0:0:0:0:
256,192,130406,1,0,0:0:0:0:
256,192,130480,1,0,0:0:0:0:
256,192,130554,1,0,0:0:0:0:
256,192,130628,1,2,0:0:0:0:
256,192,130702,1,2,0:0:0:0:
256,192,130776,1,2,0:0:0:0:
256,192,130850,1,2,0:0:0:0:
256,192,130924,1,0,0:0:0:0:
256,192,130998,1,0,0:0:0:0:
256,192,131071,1,2,0:0:0:0:
256,192,131145,1,2,0:0:0:0:
256,192,131219,1,0,0:0:0:0:
256,192,131293,1,2,0:0:0:0:
256,192,131367,1,0,0:0:0:0:
256,192,131441,1,2,0:0:0:0:
256,192,131515,1,2,0:0:0:0:
256,192,131589,1,2,0:0:0:0:
256,192,131663,1,2,0:0:0:0:
256,192,131736,1,2,0:0:0:0:
256,192,131810,1,0,0:0:0:0:
256,192,131884,1,2,0:0:0:0:
256,192,131958,1,0,0:0:0:0:
256,192,132032,1,2,0:0:0:0:
256,192,132106,1,0,0:0:0:0:
256,192,132180,1,2,0:0:0:0:
256,192,132254,1,2,0:0:0:0:
256,192,132328,1,0,0:0:0:0:
256,192,132402,1,2,0:0:0:0:
256,192,132475,1,2,0:0:0:0:
256,192,132549,1,0,0:0:0:0:
256,192,132623,1,0,0:0:0:0:
256,192,132697,1,2,0:0:0:0:
256,192,132771,1,2,0:0:0:0:
256,192,132845,1,2,0:0:0:0:
256,192,132919,1,2,0:0:0:0:
256,192,132993,1,2,0:0:0:0:
256,192,133067,1,2,0:0:0:0:
256,192,133140,1,0,0:0:0:0:
256,192,133214,1,2,0:0:0:0:
256,192,133288,1,2,0:0:0:0:
256,192,133362,1,0,0:0:0:0:
256,192,133436,1,0,0:0:0:0:
256,192,133510,1,2,0:0:0:0:
256,192,133584,1,0,0:0:0:0:
256,192,133658,1,2,0:0:0:0:
256,192,133732,1,0,0:0:0:0:
256,192,133805,1,0,0:0:0:0:
256,192,133879,1,0,0:0:0:0:
256,192,133953,1,2,0:0:0:0:
256,192,134027,1,0,0:0:0:0:
256,192,134101,1,0,0:0:0:0:
256,192,134175,1,2,0:0:0:0:
256,192,134249,1,0,0:0:0:0:
256,192,134323,1,0,0:0:0:0:
256,192,134397,1,0,0:0:0:0:
256,192,134470,1,0,0:0:0:0:
256,192,134544,1,0,0:0:0:0:
256,192,134618,1,0,0:0:0:0:
256,192,134692,1,0,0:0:0:0:
256,192,134766,1,0,0:0:0:0:
256,192,134840,1,0,0:0:0:0:
256,192,134914,1,0,0:0:0:0:
256,192,134988,1,0,0:0:0:0:
256,192,135062,1,0,0:0:0:0:
256,192,135136,1,2,0:0:0:0:
256,192,135209,1,2,0:0:0:0:
256,192,135283,1,0,0:0:0:0:
256,192,135357,1,0,0:0:0:0:
256,192,135431,1,2,0:0:0:0:
256,192,135505,1,2,0:0:0:0:
256,192,135579,1,2,0:0:0:0:
256,192,135653,1,0,0:0:0:0:
256,192,135727,1,0,0:0:0:0:
256,192,135801,1,2,0:0:0:0:
256,192,135874,1,0,0:0:0:0:
256,192,135948,1,2,0:0:0:0:
256,192,136022,1,0,0:0:0:0:
256,192,136096,1,0,0:0:0:0:
256,192,136170,1,2,0:0:0:0:
256,192,136244,1,2,0:0:0:0:
256,192,136318,1,2,0:0:0:0:
256,192,136392,1,0,0:0:0:0:
256,192,136466,1,2,0:0:0:0:
256,192,136539,1,0,0:0:0:0:
256,192,136613,1,0,0:0:0:0:
256,192,136687,1,0,0:0:0:0:
256,192,136761,1,2,0:0:0:0:
256,192,136835,1,2,0:0:0:0:
256,192,136909,1,0,0:0:0:0:
256,192,136983,1,2,0:0:0:0:
256,192,137057,1,2,0:0:0:0:
256,192,137131,1,2,0:0:0:0:
256,192,137204,1,2,0:0:0:0:
256,192,137278,1,2,0:0:0:0:
256,192,137352,1,0,0:0:0:0:
256,192,137426,1,2,0:0:0:0:
256,192,137500,1,2,0:0:0:0:
256,192,137574,1,2,0:0:0:0:
256,192,137648,1,2,0:0:0:0:
256,192,137722,1,2,0:0:0:0:
256,192,137796,1,2,0:0:0:0:
256,192,137869,1,2,0:0:0:0:
256,192,137943,1,0,0:0:0:0:
256,192,138017,1,2,0:0:0:0:
256,192,138091,1,0,0:0:0:0:
256,192,138165,1,2,0:0:0:0:
256,192,138239,1,0,0:0:0:0:
256,192,138313,1,2,0:0:0:0:
256,192,138387,1,0,0:0:0:0:
256,192,138461,1,0,0:0:0:0:
256,192,138535,1,2,0:0:0:0:
256,192,138608,1,2,0:0:0:0:
256,192,138682,1,0,0:0:0:0:
256,192,138756,1,2,0:0:0:0:
256,192,138830,1,0,0:0:0:0:
256,192,138904,1,0,0:0:0:0:
256,192,138978,1,2,0:0:0:0:
256,192,139052,1,0,0:0:0:0:
256,192,139126,1,0,0:0:0:0:
256,192,139200,1,0,0:0:0:0:
256,192,139273,1,2,0:0:0:0:
256,192,139347,1,2,0:0:0:0:
256,192,139421,1,0,0:0:0:0:
256,192,139495,1,0,0:0:0:0:
256,192,139569,1,0,0:0:0:0:
256,192,139643,1,2,0:0:0:0:
256,192,139717,1,2,0:0:0:0:
256,192,139791,1,2,0:0:0:0:
256,192,139865,1,0,0:0:0:0:
256,192,139938,1,2,0:0:0:0:
256,192,140012,1,2,0:0:0:0:
256,192,140086,1,2,0:0:0:0:
256,192,140160,1,0,0:0:0:0:
256,192,140234,1,0,0:0:0:0:
256,192,140308,1,2,0:0:0:0:
256,192,140382,1,0,0:0:0:0:
256,192,140456,1,2,0:0:0:0:
256,192,140530,1,0,0:0:0:0:
256,192,140603,1,0,0:0:0:0:
256,192,140677,1,2,0:0:0:0:
256,192,140751,1,0,0:0:0:0:
256,192,140825,1,0,0:0:0:0:
256,192,140899,1,0,0:0:0:0:
256,192,140973,1,0,0:0:0:0:
256,192,141047,1,0,0:0:0:0:
256,192,141121,1,2,0:0:0:0:
256,192,141195,1,2,0:0:0:0:
256,192,141269,1,0,0:0:0:0:
256,192,141342,1,0,0:0:0:0:
256,192,141416,1,2,0:0:0:0:
256,192,141490,1,2,0:0:0:0:
256,192,141564,1,0,0:0:0:0:
256,192,141638,1,0,0:0:0:0:
256,192,141712,1,2,0:0:0:0:
256,192,141786,1,0,0:0:0:0:
256,192,141860,1,2,0:0:0:0:
256,192,141934,1,0,0:0:0:0:
256,192,142007,1,2,0:0:0:0:
256,192,142081,1,0,0:0:0:0:
256,192,142155,1,0,0:0:0:0:
256,192,142229,1,0,0:0:0:0:
256,192,142303,1,0,0:0:0:0:
256,192,142377,1,0,0:0:0:0:
256,192,142451,1,2,0:0:0:0:
256,192,142525,1,2,0:0:0:0:
256,192,142599,1,2,0:0:0:0:
256,192,142672,1,0,0:0:0:0:
256,192,142746,1,2,0:0:0:0:
256,192,142820,1,0,0:0:0:0:
256,192,142894,1,2,0:0:0:0:
256,192,142968,1,2,0:0:0:0:
256,192,143042,1,0,0:0:0:0:
256,192,143116,1,2,0:0:0:0:
256,192,143190,1,2,0:0:0:0:
256,192,143264,1,2,0:0:0:0:
256,192,143337,1,2,0:0:0:0:
256,192,143411,1,2,0:0:0:0:
256,192,143485,1,2,0:0:0:0:
256,192,143559,1,0,0:0:0:0:
256,192,143633,1,0,0:0:0:0:
256,192,143707,1,0,0:0:0:0:
256,192,143781,1,2,0:0:0:0:
256,192,143855,1,2,0:0:0:0:
256,192,143929,1,2,0:0:0:0:
256,192,144002,1,0,0:0:0:0:
256,192,144076,1,0,0:0:0:0:
256,192,144150,1,0,0:0:0:0:
256,192,144224,1,2,0:0:0:0:
256,192,144298,1,0,0:0:0:0:
256,192,144372,1,2,0:0:0:0:
256,192,144446,1,0,0:0:0:0:
256,192,144520,1,2,0:0:0:0:
256,192,144594,1,0,0:0:0:0:
256,192,144668,1,2,0:0:0:0:
256,192,144741,1,0,0:0:0:0:
256,192,144815,1,0,0:0:0:0:
256,192,144889,1,0,0:0:0:0:
256,192,144963,1,2,0:0:0:0:
256,192,145037,1,0,0:0:0:0:
256,192,145111,1,2,0:0:0:0:
256,192,145185,1,2,0:0:0:0:
256,192,145259,1,2,0:0:0:0:
256,192,145333,1,2,0:0:0:0:
256,192,145406,1,2,0:0:0:0:
256,192,145480,1,0,0:0:0:0:
256,192,145554,1,2,0:0:0:0:
256,192,145628,1,2,0:0:0:0:
256,192,145702,1,0,0:0:0:0:
256,192,145776,1,2,0:0:0:0:
256,192,145850,1,0,0:0:0:0:
256,192,145924,1,2,0:0:0:0:
256,192,145998,1,2,0:0:0:0:
256,192,146071,1,0,0:0:0:0:
256,192,146145,1,2,0:0:0:0:
256,192,146219,1,2,0:0:0:0:
256,192,146293,1,2,0:0:0:0:
256,192,146367,1,0,0:0:0:0:
256,192,146441,1,2,0:0:0:0:
256,192,146515,1,0,0:0:0:0:
256,192,146589,1,0,0:0:0:0:
256,192,146663,1,2,0:0:0:0:
256,192,146736,1,0,0:0:0:0:
256,192,146810,1,0,0:0:0:0:
256,192,146884,1,2,0:0:0:0:
256,192,146958,1,0,0:0:0:0:
256,192,147032,1,2,0:0:0:0:
256,192,147106,1,0,0:0:0:0:
256,192,147180,1,0,0:0:0:0:
256,192,147254,1,2,0:0:0:0:
256,192,147328,1,2,0:0:0:0:
256,192,147402,1,2,0:0:0:0:
256,192,147475,1,2,0:0:0:0:
256,192,147549,1,0,0:0:0:0:
256,192,147623,1,0,0:0:0:0:
256,192,147697,1,2,0:0:0:0:
256,192,147771,1,0,0:0:0:0:
256,192,147845,1,2,0:0:0:0:
256,192,147919,1,0,0:0:0:0:
256,192,147993,1,2,0:0:0:0:
256,192,148067,1,2,0:0:0:0:
256,192,148140,1,0,0:0:0:0:
256,192,148214,1,0,0:0:0:0:
256,192,148288,1,2,0:0:0:0:
256,192,148362,1,2,0:0:0:0:
256,192,148436,1,2,0:0:0:0:
256,192,148510,1,0,0:0:0:0:
256,192,148584,1,2,0:0:0:0:
256,192,148658,1,0,0:0:0:0:
256,192,148732,1,2,0:0:0:0:
256,192,148805,1,2,0:0:0:0:
256,192,148879,1,2,0:0:0:0:
256,192,148953,1,2,0:0:0:0:
256,192,149027,1,2,0:0:0:0:
256,192,149101,1,2,0:0:0:0:
256,192,149175,1,2,0:0:0:0:
256,192,149249,1,0,0:0:0:0:
256,192,149323,1,2,0:0:0:0:
256,192,149397,1,0,0:0:0:0:
256,192,149470,1,2,0:0:0:0:
256,192,149544,1,2,0:0:0:0:
256,192,149618,1,0,0:0:0:0:
256,192,149692,1,2,0:0:0:0:
256,192,149766,1,2,0:0:0:0:
256,192,149840,1,0,0:0:0:0:
256,192,149914,1,0,0:0:0:0:
256,192,149988,1,2,0:0:0:0:
256,192,150062,1,2,0:0:0:0:
256,192,150136,1,2,0:0:0:0:
256,192,150209,1,2,0:0:0:0:
256,192,150283,1,0,0:0:0:0:
256,192,150357,1,0,0:0:0:0:
256,192,150431,1,2,0:0:0:0:
256,192,150505,1,0,0:0:0:0:
256,192,150579,1,0,0:0:0:0:
256,192,150653,1,2,0:0:0:0:
256,192,150727,1,0,0:0:0:0:
256,192,150801,1,2,0:0:0:0:
256,192,150874,1,2,0:0:0:0:
256,192,150948,1,0,0:0:0:0:
256,192,151022,1,0,0:0:0:0:
256,192,151096,1,0,0:0:0:0:
256,192,151170,1,0,0:0:0:0:
256,192,151244,1,0,0:0:0:0:
256,192,151318,1,0,0:0:0:0:
256,192,151392,1,2,0:0:0:0:
256,192,151466,1,2,0:0:0:0:
256,192,151539,1,2,0:0:0:0:
256,192,151613,1,0,0:0:0:0:
256,192,151687,1,0,0:0:0:0:
256,192,151761,1,2,0:0:0:0:
256,192,151835,1,0,0:0:0:0:
256,192,151909,1,2,0:0:0:0:
256,192,151983,1,0,0:0:0:0:
256,192,152057,1,2,0:0:0:0:
256,192,152131,1,0,0:0:0:0:
256,192,152204,1,0,0:0:0:0:
256,192,152278,1,0,0:0:0:0:
256,192,152352,1,0,0:0:0:0:
256,192,152426,1,0,0:0:0:0:
256,192,152500,1,0,0:0:0:0:
256,192,152574,1,0,0:0:0:0:
256,192,152648,1,0,0:0:0:0:
256,192,152722,1,0,0:0:0:0:
256,192,152796,1,0,0:0:0:0:
256,192,152869,1,0,0:0:0:0:
256,192,152943,1,0,0:0:0:0:
256,192,153017,1,0,0:0:0:0:
256,192,153091,1,0,0:0:0:0:
256,192,153165,1,2,0:0:0:0:
256,192,153239,1,0,0:0:0:0:
256,192,153313,1,0,0:0:0:0:
256,192,153387,1,2,0:0:0:0:
256,192,153461,1,2,0:0:0:0:
256,192,153535,1,0,0:0:0:0:
256,192,153608,1,2,0:0:0:0:
256,192,153682,1,0,0:0:0:0:
256,192,153756,1,0,0:0:0:0:
256,192,153830,1,2,0:0:0:0:
256,192,153904,1,2,0:0:0:0:
256,192,153978,1,2,0:0:0:0:
256,192,154052,1,0,0:0:0:0:
256,192,154126,1,0,0:0:0:0:
256,192,154200,1,2,0:0:0:0:
256,192,154273,1,2,0:0:0:0:
256,192,154347,1,0,0:0:0:0:
256,192,154421,1,2,0:0:0:0:
256,192,154495,1,0,0:0:0:0:
256,192,154569,1,2,0:0:0:0:
256,192,154643,1,2,0:0:0:0:
256,192,154717,1,0,0:0:0:0:
256,192,154791,1,2,0:0:0:0:
256,192,154865,1,0,0:0:0:0:
256,192,154938,1,2,0:0:0:0:
256,192,155012,1,2,0:0:0:0:
256,192,155086,1,2,0:0:0:0:
256,192,155160,1,2,0:0:0:0:
256,192,155234,1,2,0:0:0:0:
256,192,155308,1,0,0:0:0:0:
256,192,155382,1,0,0:0:0:0:
256,192,155456,1,2,0:0:0:0:
256,192,155530,1,2,0:0:0:0:
256,192,155603,1,2,0:0:0:0:
256,192,155677,1,2,0:0:0:0:
256,192,155751,1,0,0:0:0:0:
256,192,155825,1,0,0:0:0:0:
256,192,155899,1,0,0:0:0:0:
256,192,155973,1,2,0:0:0:0:
256,192,156047,1,2,0:0:0:0:
256,192,156121,1,0,0:0:0:0:
256,192,156195,1,0,0:0:0:0:
256,192,156269,1,2,0:0:0:0:
256,192,156342,1,0,0:0:0:0:
256,192,156416,1,2,0:0:0:0:
256,192,156490,1,2,0:0:0:0:
256,192,156564,1,2,0:0:0:0:
256,192,156638,1,2,0:0:0:0:
256,192,156712,1,0,0:0:0:0:
256,192,156786,1,2,0:0:0:0:
256,192,156860,1,0,0:0:0:0:
256,192,156934,1,0,0:0:0:0:
256,192,157007,1,2,0:0:0:0:
256,192,157081,1,0,0:0:0:0:
256,192,157155,1,0,0:0:0:0:
256,192,157229,1,0,0:0:0:0:
256,192,157303,1,2,0:0:0:0:
256,192,157377,1,2,0:0:0:0:
256,192,157451,1,0,0:0:0:0:
256,192,157525,1,2,0:0:0:0:
256,192,157599,1,2,0:0:0:0:
256,192,157672,1,0,0:0:0:0:
256,192,157746,1,0,0:0:0:0:
256,192,157820,1,0,0:0:0:0:
256,192,157894,1,0,0:0:0:0:
256,192,157968,1,2,0:0:0:0:
256,192,158042,1,2,0:0:0:0:
256,192,158116,1,2,0:0:0:0:
256,192,158190,1,0,0:0:0:0:
256,192,158264,1,0,0:0:0:0:
256,192,158337,1,0,0:0:0:0:
256,192,158411,1,0,0:0:0:0:
256,192,158485,1,0,0:0:0:0:
256,192,158559,1,2,0:0:0:0:
256,192,158633,1,0,0:0:0:0:
256,192,158707,1,2,0:0:0:0:
256,192,158781,1,0,0:0:0:0:
256,192,158855,1,2,0:0:0:0:
256,192,158929,1,0,0:0:0:0:
256,192,159002,1,2,0:0:0:0:
256,192,159076,1,0,0:0:0:0:
256,192,159150,1,2,0:0:0:0:
256,192,159224,1,0,0:0:0:0:
256,192,159298,1,0,0:0:0:0:
256,192,159372,1,0,0:0:0:0:
256,192,159446,1,2,0:0:0:0:
256,192,159520,1,2,0:0:0:0:
256,192,159594,1,0,0:0:0:0:
256,192,159668,1,0,0:0:0:0:
256,192,159741,1,2,0:0:0:0:
256,192,159815,1,2,0:0:0:0:
256,192,159889,1,2,0:0:0:0:
256,192,159963,1,0,0:0:0:0:
256,192,160037,1,0,0:0:0:0:
256,192,160111,1,0,0:0:0:0:
256,192,160185,1,0,0:0:0:0:
256,192,160259,1,0,0:0:0:0:
256,192,160333,1,0,0:0:0:0:
256,192,160406,1,2,0:0:0:0:
256,192,160480,1,2,0:0:0:0:
256,192,160554,1,2,0:0:0:0:
256,192,160628,1,0,0:0:0:0:
256,192,160702,1,0,0:0:0:0:
256,192,160776,1,2,0:0:0:0:
256,192,160850,1,2,0:0:0:0:
256,192,160924,1,0,0:0:0:0:
256,192,160998,1,2,0:0:0:0:
256,192,161071,1,2,0:0:0:0:
256,192,161145,1,2,0:0:0:0:
256,192,161219,1,2,0:0:0:0:
256,192,161293,1,2,0:0:0:0:
256,192,161367,1,2,0:0:0:0:
256,192,161441,1,2,0:0:0:0:
256,192,161515,1,0,0:0:0:0:
256,192,161589,1,2,0:0:0:0:
256,192,161663,1,0,0:0:0:0:
256,192,161736,1,2,0:0:0:0:
256,192,161810,1,0,0:0:0:0:
256,192,161884,1,0,0:0:0:0:
256,192,161958,1,0,0:0:0:0:
256,192,162032,1,0,0:0:0:0:
256,192,162106,1,2,0:0:0:0:
256,192,162180,1,2,0:0:0:0:
256,192,162254,1,0,0:0:0:0:
256,192,162328,1,0,0:0:0:0:
256,192,162402,1,2,0:0:0:0:
256,192,162475,1,0,0:0:0:0:
256,192,162549,1,0,0:0:0:0:
256,192,162623,1,2,0:0:0:0:
256,192,162697,1,2,0:0:0:0:
256,192,162771,1,0,0:0:0:0:
256,192,162845,1,2,0:0:0:0:
256,192,162919,1,2,0:0:0:0:
256,192,162993,1,0,0:0:0:0:
256,192,163067,1,0,0:0:0:0:
256,192,163140,1,0,0:0:0:0:
256,192,163214,1,2,0:0:0:0:
256,192,163288,1,0,0:0:0:0:
256,192,163362,1,0,0:0:0:0:
256,192,163436,1,0,0:0:0:0:
256,192,163510,1,2,0:0:0:0:
256,192,163584,1,0,0:0:0:0:
256,192,163658,1,2,0:0:0:0:
256,192,163732,1,2,0:0:0:0:
256,192,163805,1,2,0:0:0:0:
256,192,163879,1,2,0:0:0:0:
256,192,163953,1,2,0:0:0:0:
256,192,164027,1,2,0:0:0:0:
256,192,164101,1,2,0:0:0:0:
256,192,164175,1,0,0:0:0:0:
256,192,164249,1,0,0:0:0:0:
256,192,164323,1,0,0:0:0:0:
256,192,164397,1,2,0:0:0:0:
256,192,164470,1,0,0:0:0:0:
256,192,164544,1,2,0:0:0:0:
256,192,164618,1,0,0:0:0:0:
256,192,164692,1,2,0:0:0:0:
256,192,164766,1,2,0:0:0:0:
256,192,164840,1,0,0:0:0:0:
256,192,164914,1,0,0:0:0:0:
256,192,164988,1,0,0:0:0:0:
256,192,165062,1,0,0:0:0:0:
256,192,165136,1,0,0:0:0:0:
256,192,165209,1,2,0:0:0:0:
256,192,165283,1,2,0:0:0:0:
256,192,165357,1,0,0:0:0:0:
256,192,165431,1,2,0:0:0:0:
256,192,165505,1,2,0:0:0:0:
256,192,165579,1,2,0:0:0:0:
256,192,165653,1,2,0:0:0:0:
256,192,165727,1,2,0:0:0:0:
256,192,165801,1,2,0:0:0:0:
256,192,165874,1,2,0:0:0:0:
256,192,165948,1,0,0:0:0:0:
256,192,166022,1,2,0:0:0:0:
256,192,166096,1,0,0:0:0:0:
256,192,166170,1,0,0:0:0:0:
256,192,166244,1,0,0:0:0:0:
256,192,166318,1,0,0:0:0:0:
256,192,166392,1,0,0:0:0:0:
256,192,166466,1,2,0:0:0:0:
256,192,166539,1,2,0:0:0:0:
256,192,166613,1,0,0:0:0:0:
256,192,166687,1,0,0:0:0:0:
256,192,166761,1,2,0:0:0:0:
256,192,166835,1,2,0:0:0:0:
256,192,166909,1,2,0:0:0:0:
256,192,166983,1,0,0:0:0:0:
256,192,167057,1,0,0:0:0:0:
256,192,167131,1,0,0:0:0:0:
256,192,167204,1,0,0:0:0:0:
256,192,167278,1,0,0:0:0:0:
256,192,167352,1,0,0:0:0:0:
256,192,167426,1,2,0:0:0:0:
256,192,167500,1,2,0:0:0:0:
256,192,167574,1,0,0:0:0:0:
256,192,167648,1,2,0:0:0:0:
256,192,167722,1,0,0:0:0:0:
256,192,167796,1,0,0:0:0:0:
256,192,167869,1,0,0:0:0:0:
256,192,167943,1,2,0:0:0:0:
256,192,168017,1,2,0:0:0:0:
256,192,168091,1,2,0:0:0:0:
256,192,168165,1,0,0:0:0:0:
256,192,168239,1,0,0:0:0:0:
256,192,168313,1,0,0:0:0:0:
256,192,168387,1,0,0:0:0:0:
256,192,168461,1,2,0:0:0:0:
256,192,168535,1,0,0:0:0:0:
256,192,168608,1,0,0:0:0:0:
256,192,168682,1,2,0:0:0:0:
256,192,168756,1,2,0:0:0:0:
256,192,168830,1,2,0:0:0:0:
256,192,168904,1,0,0:0:0:0:
256,192,168978,1,0,0:0:0:0:
256,192,169052,1,2,0:0:0:0:
256,192,169126,1,2,0:0:0:0:
256,192,169200,1,2,0:0:0:0:
256,192,169273,1,0,0:0:0:0:
256,192,169347,1,2,0:0:0:0:
256,192,169421,1,2,0:0:0:0:
256,192,169495,1,0,0:0:0:0:
256,192,169569,1,2,0:0:0:0:
256,192,169643,1,2,0:0:0:0:
256,192,169717,1,2,0:0:0:0:
256,192,169791,1,0,0:0:0:0:
256,192,169865,1,2,0:0:0:0:
256,192,169938,1,2,0:0:0:0:
256,192,170012,1,0,0:0:0:0:
256,192,170086,1,0,0:0:0:0:
256,192,170160,1,2,0:0:0:0:
256,192,170234,1,2,0:0:0:0:
256,192,170308,1,0,0:0:0:0:
256,192,170382,1,0,0:0:0:0:
256,192,170456,1,2,0:0:0:0:
256,192,170530,1,0,0:0:0:0:
256,192,170603,1,0,0:0:0:0:
256,192,170677,1,0,0:0:0:0:
256,192,170751,1,2,0:0:0:0:
256,192,170825,1,0,0:0:0:0:
256,192,170899,1,0,0:0:0:0:
256,192,170973,1,0,0:0:0:0:
256,192,171047,1,0,0:0:0:0:
256,192,171121,1,2,0:0:0:0:
256,192,171195,1,2,0:0:0:0:
256,192,171269,1,2,0:0:0:0:
256,192,171342,1,2,0:0:0:0:
256,192,171416,1,2,0:0:0:0:
256,192,171490,1,2,0:0:0:0:
256,192,171564,1,0,0:0:0:0:
256,192,171638,1,0,0:0:0:0:
256,192,171712,1,2,0:0:0:0:
256,192,171786,1,2,0:0:0:0:
256,192,171860,1,2,0:0:0:0:
256,192,171934,1,0,0:0:0:0:
256,192,172007,1,2,0:0:0:0:
256,192,172081,1,2,0:0:0:0:
256,192,172155,1,2,0:0:0:0:
256,192,172229,1,0,0:0:0:0:
256,192,172303,1,2,0:0:0:0:
256,192,172377,1,2,0:0:0:0:
256,192,172451,1,2,0:0:0:0:
256,192,172525,1,2,0:0:0:0:
256,192,172599,1,0,0:0:0:0:
256,192,172672,1,0,0:0:0:0:
256,192,172746,1,0,0:0:0:0:
256,192,172820,1,2,0:0:0:0:
256,192,172894,1,0,0:0:0:0:
256,192,172968,1,2,0:0:0:0:
256,192,173042,1,2,0:0:0:0:
256,192,173116,1,2,0:0:0:0:
256,192,173190,1,0,0:0:0:0:
256,192,173264,1,0,0:0:0:0:
256,192,173337,1,2,0:0:0:0:
256,192,173411,1,0,0:0:0:0:
256,192,173485,1,2,0:0:0:0:
256,192,173559,1,2,0:0:0:0:
256,192,173633,1,0,0:0:0:0:
256,192,173707,1,0,0:0:0:0:
256,192,173781,1,0,0:0:0:0:
256,192,173855,1,0,0:0:0:0:
256,192,173929,1,2,0:0:0:0:
256,192,174002,1,0,0:0:0:0:
256,192,174076,1,0,0:0:0:0:
256,192,174150,1,0,0:0:0:0:
256,192,174224,1,0,0:0:0:0:
256,192,174298,1,2,0:0:0:0:
256,192,174372,1,0,0:0:0:0:
256,192,174446,1,0,0:0:0:0:
256,192,174520,1,2,0:0:0:0:
256,192,174594,1,2,0:0:0:0:
256,192,174668,1,2,0:0:0:0:
256,192,174741,1,0,0:0:0:0:
256,192,174815,1,2,0:0:0:0:
256,192,174889,1,2,0:0:0:0:
256,192,174963,1,2,0:0:0:0:
256,192,175037,1,0,0:0:0:0:
256,192,175111,1,0,0:0:0:0:
256,192,175185,1,0,0:0:0:0:
256,192,175259,1,2,0:0:0:0:
256,192,175333,1,2,0:0:0:0:
256,192,175406,1,0,0:0:0:0:
256,192,175480,1,2,0:0:0:0:
256,192,175554,1,0,0:0:0:0:
256,192,175628,1,0,0:0:0:0:
256,192,175702,1,0,0:0:0:0:
256,192,175776,1,0,0:0:0:0:
256,192,175850,1,2,0:0:0:0:
256,192,175924,1,0,0:0:0:0:
256,192,175998,1,2,0:0:0:0:
256,192,176071,1,2,0:0:0:0:
256,192,176145,1,0,0:0:0:0:
256,192,176219,1,0,0:0:0:0:
256,192,176293,1,2,0:0:0:0:
256,192,176367,1,2,0:0:0:0:
256,192,176441,1,2,0:0:0:0:
256,192,176515,1,2,0:0:0:0:
256,192,176589,1,0,0:0:0:0:
256,192,176663,1,0,0:0:0:0:
256,192,176736,1,2,0:0:0:0:
256,192,176810,1,0,0:0:0:0:
256,192,176884,1,0,0:0:0:0:
256,192,176958,1,2,0:0:0:0:
256,192,177032,1,0,0:0:0:0:
256,192,177106,1,0,0:0:0:0:
256,192,177180,1,2,0:0:0:0:
256,192,177254,1,0,0:0:0:0:
256,192,177328,1,2,0:0:0:0:
256,192,177402,1,0,0:0:0:0:
256,192,177475,1,0,0:0:0:0:
256,192,177549,1,0,0:0:0:0:
256,192,177623,1,2,0:0:0:0:
256,192,177697,1,0,0:0:0:0:
256,192,177771,1,2,0:0:0:0:
256,192,177845,1,2,0:0:0:0:
256,192,177919,1,2,0:0:0:0:
256,192,177993,1,0,0:0:0:0:
256,192,178067,1,0,0:0:0:0:
256,192,178140,1,2,0:0:0:0:
256,192,178214,1,0,0:0:0:0:
256,192,178288,1,0,0:0:0:0:
256,192,178362,1,2,0:0:0:0:
256,192,178436,1,0,0:0:0:0:
256,192,178510,1,0,0:0:0:0:
256,192,178584,1,0,0:0:0:0:
256,192,178658,1,0,0:0:0:0:
256,192,178732,1,0,0:0:0:0:
256,192,178805,1,0,0:0:0:0:
256,192,178879,1,0,0:0:0:0:
256,192,178953,1,2,0:0:0:0:
256,192,179027,1,2,0:0:0:0:
256,192,179101,1,0,0:0:0:0:
256,192,179175,1,0,0:0:0:0:
256,192,179249,1,2,0:0:0:0:
256,192,179323,1,0,0:0:0:0:
256,192,179397,1,0,0:0:0:0:
256,192,179470,1,2,0:0:0:0:
256,192,179544,1,2,0:0:0:0:
256,192,179618,1,2,0:0:0:0:
256,192,179692,1,0,0:0:0:0:
256,192,179766,1,2,0:0:0:0:
256,192,179840,1,0,0:0:0:0:
256,192,179914,1,2,0:0:0:0:
256,192,179988,1,0,0:0:0:0:
256,192,180062,1,2,0:0:0:0:
256,192,180136,1,0,0:0:0:0:
256,192,180209,1,2,0:0:0:0:
256,192,180283,1,0,0:0:0:0:
256,192,180357,1,0,0:0:0:0:
256,192,180431,1,2,0:0:0:0:
256,192,180505,1,0,0:0:0:0:
256,192,180579,1,0,0:0:0:0:
256,192,180653,1,2,0:0:0:0:
256,192,180727,1,2,0:0:0:0:
256,192,180801,1,0,0:0:0:0:
256,192,180874,1,0,0:0:0:0:
256,192,180948,1,0,0:0:0:0:
256,192,181022,1,2,0:0:0:0:
256,192,181096,1,2,0:0:0:0:
256,192,181170,1,0,0:0:0:0:
256,192,181244,1,2,0:0:0:0:
256,192,181318,1,2,0:0:0:0:
256,192,181392,1,0,0:0:0:0:
256,192,181466,1,0,0:0:0:0:
256,192,181539,1,2,0:0:0:0:
256,192,181613,1,2,0:0:0:0:
256,192,181687,1,2,0:0:0:0:
256,192,181761,1,0,0:0:0:0:
256,192,181835,1,2,0:0:0:0:
256,192,181909,1,2,0:0:0:0:
256,192,181983,1,0,0:0:0:0:
256,192,182057,1,2,0:0:0:0:
256,192,182131,1,0,0:0:0:0:
256,192,182204,1,0,0:0:0:0:
256,192,182278,1,0,0:0:0:0:
256,192,182352,1,2,0:0:0:0:
256,192,182426,1,0,0:0:0:0:
256,192,182500,1,0,0:0:0:0:
256,192,182574,1,2,0:0:0:0:
256,192,182648,1,0,0:0:0:0:
256,192,182722,1,0,0:0:0:0:
256,192,182796,1,0,0:0:0:0:
256,192,182869,1,2,0:0:0:0:
256,192,182943,1,0,0:0:0:0:
256,192,183017,1,2,0:0:0:0:
256,192,183091,1,2,0:0:0:0:
256,192,183165,1,2,0:0:0:0:
256,192,183239,1,0,0:0:0:0:
256,192,183313,1,2,0:0:0:0:
256,192,183387,1,2,0:0:0:0:
256,192,183461,1,0,0:0:0:0:
256,192,183535,1,0,0:0:0:0:
256,192,183608,1,2,0:0:0:0:
256,192,183682,1,2,0:0:0:0:
256,192,183756,1,0,0:0:0:0:
256,192,183830,1,0,0:0:0:0:
256,192,183904,1,0,0:0:0:0:
256,192,183978,1,2,0:0:0:0:
256,192,184052,1,2,0:0:0:0:
256,192,184126,1,0,0:0:0:0:
256,192,184200,1,2,0:0:0:0:
256,192,184273,1,0,0:0:0:0:
256,192,184347,1,0,0:0:0:0:
256,192,184421,1,2,0:0:0:0:
256,192,184495,1,2,0:0:0:0:
256,192,184569,1,0,0:0:0:0:
256,192,184643,1,2,0:0:0:0:
256,192,184717,1,0,0:0:0:0:
256,192,184791,1,0,0:0:0:0:
256,192,184865,1,2,0:0:0:0:
256,192,184938,1,0,0:0:0:0:
256,192,185012,1,0,0:0:0:0:
256,192,185086,1,2,0:0:0:0:
256,192,185160,1,0,0:0:0:0:
256,192,185234,1,0,0:0:0:0:
256,192,185308,1,0,0:0:0:0:
256,192,185382,1,2,0:0:0:0:
256,192,185456,1,0,0:0:0:0:
256,192,185530,1,0,0:0:0:0:
256,192,185603,1,2,0:0:0:0:
256,192,185677,1,2,0:0:0:0:
256,192,185751,1,2,0:0:0:0:
256,192,185825,1,0,0:0:0:0:
256,192,185899,1,0,0:0:0:0:
256,192,185973,1,0,0:0:0:0:
256,192,186047,1,2,0:0:0:0:
256,192,186121,1,2,0:0:0:0:
256,192,186195,1,2,0:0:0:0:
256,192,186269,1,2,0:0:0:0:
256,192,186342,1,0,0:0:0:0:
256,192,186416,1,2,0:0:0:0:
256,192,186490,1,0,0:0:0:0:
256,192,186564,1,0,0:0:0:0:
256,192,186638,1,0,0:0:0:0:
256,192,186712,1,2,0:0:0:0:
256,192,186786,1,0,0:0:0:0:
256,192,186860,1,0,0:0:0:0:
256,192,186934,1,2,0:0:0:0:
256,192,187007,1,2,0:0:0:0:
256,192,187081,1,0,0:0:0:0:
256,192,187155,1,0,0:0:0:0:
256,192,187229,1,2,0:0:0:0:
256,192,187303,1,0,0:0:0:0:
256,192,187377,1,2,0:0:0:0:
256,192,187451,1,0,0:0:0:0:
256,192,187525,1,0,0:0:0:0:
256,192,187599,1,2,0:0:0:0:
256,192,187672,1,0,0:0:0:0:
256,192,187746,1,2,0:0:0:0:
256,192,187820,1,2,0:0:0:0:
256,192,187894,1,0,0:0:0:0:
256,192,187968,1,2,0:0:0:0:
256,192,188042,1,2,0:0:0:0:
256,192,188116,1,0,0:0:0:0:
256,192,188190,1,0,0:0:0:0:
256,192,188264,1,2,0:0:0:0:
256,192,188337,1,0,0:0:0:0:
256,192,188411,1,2,0:0:0:0:
256,192,188485,1,0,0:0:0:0:
256,192,188559,1,0,0:0:0:0:
256,192,188633,1,0,0:0:0:0:
256,192,188707,1,0,0:0:0:0:
256,192,188781,1,2,0:0:0:0:
256,192,188855,1,2,0:0:0:0:
256,192,188929,1,2,0:0:0:0:
256,192,189002,1,2,0:0:0:0:
256,192,189076,1,0,0:0:0:0:
256,192,189150,1,2,0:0:0:0:
256,192,189224,1,2,0:0:0:0:
