osu file format v14

[General]
AudioFilename: audio.mp3
AudioLeadIn: 0
PreviewTime: 23
Countdown: 0
SampleSet: Normal
StackLeniency: 0.7
Mode: 1
LetterboxInBreaks: 0
WidescreenStoryboard: 0

[Editor]
Bookmarks: 28823,33623,33698,38423
DistanceSpacing: 1.5
BeatDivisor: 4
GridSize: 32
TimelineZoom: 1.399999

[Metadata]
Title:2punk2suck
TitleUnicode:2punk2suck
Artist:Kola Kid
ArtistUnicode:Kola Kid
Creator:HEAVENLY MOON
Version:oni
Source:
Tags:cash machine go! go bitpop instrumental electronic mpg mg mappers' guild fa featured artist 8bit 8-bit chiptune gigachad dako ginjani
BeatmapID:4229351
BeatmapSetID:2029654

[Difficulty]
HPDrainRate:6
CircleSize:2
OverallDifficulty:5.8
ApproachRate:0
SliderMultiplier:1.4
SliderTickRate:1

[Events]
//Background and Video events
0,0,"woliul-hasan-98DTjl72NE8-unsplash.jpg",0,0
//Break Periods
//Storyboard Layer 0 (Background)
//Storyboard Layer 1 (Fail)
//Storyboard Layer 2 (Pass)
//Storyboard Layer 3 (Foreground)
//Storyboard Layer 4 (Overlay)
//Storyboard Sound Samples

[TimingPoints]
23,300,4,1,0,100,1,0
23,-99.9999999999999,4,1,0,100,0,0
28823,-95.2380952380952,4,1,0,100,0,1
38423,-95.2380952380952,4,1,0,100,0,0
38498,-99.9999999999999,4,1,0,90,0,0
47948,-99.9999999999999,4,1,0,100,0,0
67223,-95.2380952380952,4,1,0,100,0,1
76823,-95.2380952380952,4,1,0,100,0,0
77123,-95.2380952380952,4,1,0,90,0,0

[HitObjects]
256,192,23,5,2,0:0:0:0:
256,192,173,1,2,0:0:0:0:
256,192,248,1,0,0:0:0:0:
256,192,323,1,0,0:0:0:0:
256,192,473,1,2,0:0:0:0:
256,192,623,1,2,0:0:0:0:
256,192,698,1,0,0:0:0:0:
256,192,773,1,0,0:0:0:0:
256,192,923,1,2,0:0:0:0:
256,192,1223,1,2,0:0:0:0:
256,192,1373,1,2,0:0:0:0:
256,192,1448,1,0,0:0:0:0:
256,192,1523,1,0,0:0:0:0:
256,192,1673,1,2,0:0:0:0:
256,192,1823,1,0,0:0:0:0:
256,192,1973,1,0,0:0:0:0:
256,192,2123,1,2,0:0:0:0:
256,192,2198,1,0,0:0:0:0:
256,192,2273,1,2,0:0:0:0:
256,192,2423,1,2,0:0:0:0:
256,192,2573,1,0,0:0:0:0:
256,192,2648,1,0,0:0:0:0:
256,192,2723,1,2,0:0:0:0:
256,192,2873,1,2,0:0:0:0:
256,192,3023,1,0,0:0:0:0:
256,192,3098,1,0,0:0:0:0:
256,192,3173,1,2,0:0:0:0:
256,192,3323,1,2,0:0:0:0:
256,192,3623,1,2,0:0:0:0:
256,192,3773,1,0,0:0:0:0:
256,192,3848,1,0,0:0:0:0:
256,192,3923,1,2,0:0:0:0:
256,192,4073,1,2,0:0:0:0:
256,192,4223,1,0,0:0:0:0:
256,192,4373,1,2,0:0:0:0:
256,192,4523,1,2,0:0:0:0:
256,192,4598,1,2,0:0:0:0:
256,192,4673,1,0,0:0:0:0:
256,192,4823,1,0,0:0:0:0:
256,192,4973,1,2,0:0:0:0:
256,192,5048,1,0,0:0:0:0:
256,192,5123,1,0,0:0:0:0:
256,192,5273,1,0,0:0:0:0:
256,192,5423,1,2,0:0:0:0:
256,192,5498,1,0,0:0:0:0:
256,192,5573,1,0,0:0:0:0:
256,192,5723,1,0,0:0:0:0:
256,192,6023,1,0,0:0:0:0:
256,192,6173,1,2,0:0:0:0:
256,192,6248,1,0,0:0:0:0:
256,192,6323,1,0,0:0:0:0:
256,192,6473,1,0,0:0:0:0:
256,192,6623,1,2,0:0:0:0:
256,192,6773,1,0,0:0:0:0:
256,192,6923,1,2,0:0:0:0:
256,192,6998,1,2,0:0:0:0:
256,192,7073,1,0,0:0:0:0:
256,192,7223,1,2,0:0:0:0:
256,192,7373,1,2,0:0:0:0:
256,192,7448,1,0,0:0:0:0:
256,192,7523,1,2,0:0:0:0:
256,192,7673,1,2,0:0:0:0:
256,192,7823,1,2,0:0:0:0:
256,192,7898,1,0,0:0:0:0:
256,192,7973,1,2,0:0:0:0:
256,192,8123,1,2,0:0:0:0:
256,192,8423,1,2,0:0:0:0:
256,192,8573,1,2,0:0:0:0:
256,192,8648,1,0,0:0:0:0:
256,192,8723,1,0,0:0:0:0:
256,192,8873,1,2,0:0:0:0:
256,192,9023,1,0,0:0:0:0:
256,192,9173,1,0,0:0:0:0:
256,192,9323,1,2,0:0:0:0:
256,192,9398,1,0,0:0:0:0:
256,192,9473,1,0,0:0:0:0:
256,192,9623,1,2,0:0:0:0:
256,192,9923,1,2,0:0:0:0:
256,192,10073,1,2,0:0:0:0:
256,192,10148,1,2,0:0:0:0:
256,192,10223,1,0,0:0:0:0:
256,192,10373,1,0,0:0:0:0:
256,192,10523,1,2,0:0:0:0:
256,192,10823,1,0,0:0:0:0:
256,192,10973,1,0,0:0:0:0:
256,192,11123,1,2,0:0:0:0:
256,192,11198,1,0,0:0:0:0:
256,192,11273,1,0,0:0:0:0:
256,192,11423,1,2,0:0:0:0:
256,192,11573,1,2,0:0:0:0:
256,192,11723,1,0,0:0:0:0:
256,192,12023,1,2,0:0:0:0:
256,192,12323,1,2,0:0:0:0:
256,192,12473,1,0,0:0:0:0:
256,192,12548,1,0,0:0:0:0:
256,192,12623,1,2,0:0:0:0:
256,192,12773,1,0,0:0:0:0:
256,192,12923,1,2,0:0:0:0:
256,192,13223,1,0,0:0:0:0:
256,192,13373,1,0,0:0:0:0:
256,192,13523,1,2,0:0:0:0:
256,192,13673,1,0,0:0:0:0:
256,192,13748,1,0,0:0:0:0:
256,192,13823,1,2,0:0:0:0:
256,192,13973,1,0,0:0:0:0:
256,192,14123,1,2,0:0:0:0:
256,192,14423,1,2,0:0:0:0:
256,192,14723,1,2,0:0:0:0:
256,192,14873,1,2,0:0:0:0:
256,192,14948,1,2,0:0:0:0:
256,192,15023,1,0,0:0:0:0:
256,192,15173,1,0,0:0:0:0:
256,192,15323,1,2,0:0:0:0:
256,192,15623,1,0,0:0:0:0:
256,192,15773,1,0,0:0:0:0:
256,192,15848,1,0,0:0:0:0:
256,192,15923,1,2,0:0:0:0:
256,192,16073,1,0,0:0:0:0:
256,192,16223,1,0,0:0:0:0:
256,192,16373,1,0,0:0:0:0:
256,192,16523,1,2,0:0:0:0:
256,192,16823,1,2,0:0:0:0:
256,192,17123,1,2,0:0:0:0:
256,192,17273,1,2,0:0:0:0:
256,192,17348,1,2,0:0:0:0:
256,192,17423,1,0,0:0:0:0:
256,192,17573,1,0,0:0:0:0:
256,192,17723,1,2,0:0:0:0:
256,192,18023,1,2,0:0:0:0:
256,192,18173,1,0,0:0:0:0:
256,192,18323,1,2,0:0:0:0:
256,192,18473,1,0,0:0:0:0:
256,192,18548,1,0,0:0:0:0:
256,192,18623,1,0,0:0:0:0:
256,192,18773,1,0,0:0:0:0:
256,192,18923,1,2,0:0:0:0:
256,192,19223,1,2,0:0:0:0:
256,192,19523,1,0,0:0:0:0:
256,192,19598,1,2,0:0:0:0:
256,192,19673,1,2,0:0:0:0:
256,192,19823,1,0,0:0:0:0:
256,192,19973,1,0,0:0:0:0:
256,192,20123,1,2,0:0:0:0:
256,192,20423,1,0,0:0:0:0:
256,192,20573,1,2,0:0:0:0:
256,192,20723,1,2,0:0:0:0:
256,192,20798,1,0,0:0:0:0:
256,192,20873,1,0,0:0:0:0:
256,192,21023,1,2,0:0:0:0:
256,192,21098,1,2,0:0:0:0:
256,192,21173,1,0,0:0:0:0:
256,192,21323,1,2,0:0:0:0:
256,192,21623,1,2,0:0:0:0:
256,192,21923,1,2,0:0:0:0:
256,192,22073,1,0,0:0:0:0:
256,192,22148,1,0,0:0:0:0:
256,192,22223,1,2,0:0:0:0:
256,192,22373,1,0,0:0:0:0:
256,192,22523,1,2,0:0:0:0:
256,192,22823,1,0,0:0:0:0:
256,192,22973,1,0,0:0:0:0:
256,192,23123,1,2,0:0:0:0:
256,192,23273,1,0,0:0:0:0:
256,192,23348,1,0,0:0:0:0:
256,192,23423,1,0,0:0:0:0:
256,192,23573,1,0,0:0:0:0:
256,192,23723,1,2,0:0:0:0:
256,192,24023,1,2,0:0:0:0:
256,192,24323,1,2,0:0:0:0:
256,192,24473,1,2,0:0:0:0:
256,192,24548,1,0,0:0:0:0:
256,192,24623,1,0,0:0:0:0:
256,192,24773,1,0,0:0:0:0:
256,192,24923,1,2,0:0:0:0:
256,192,25223,1,0,0:0:0:0:
256,192,25373,1,0,0:0:0:0:
256,192,25448,1,0,0:0:0:0:
256,192,25523,1,2,0:0:0:0:
256,192,25673,1,0,0:0:0:0:
256,192,25823,1,2,0:0:0:0:
256,192,25973,1,0,0:0:0:0:
256,192,26123,1,2,0:0:0:0:
256,192,26423,1,2,0:0:0:0:
256,192,26723,1,2,0:0:0:0:
256,192,26873,1,0,0:0:0:0:
256,192,26948,1,0,0:0:0:0:
256,192,27023,1,2,0:0:0:0:
256,192,27173,1,0,0:0:0:0:
256,192,27323,1,2,0:0:0:0:
256,192,27623,1,0,0:0:0:0:
256,192,27773,1,0,0:0:0:0:
256,192,27923,1,2,0:0:0:0:
256,192,28073,1,0,0:0:0:0:
256,192,28223,1,0,0:0:0:0:
256,192,28373,1,0,0:0:0:0:
256,192,28523,1,2,0:0:0:0:
256,192,28823,1,2,0:0:0:0:
256,192,28973,1,0,0:0:0:0:
256,192,29048,1,0,0:0:0:0:
256,192,29123,1,2,0:0:0:0:
256,192,29273,1,0,0:0:0:0:
256,192,29423,1,2,0:0:0:0:
256,192,29573,1,0,0:0:0:0:
256,192,29648,1,0,0:0:0:0:
256,192,29723,1,2,0:0:0:0:
256,192,29798,1,2,0:0:0:0:
256,192,29873,1,0,0:0:0:0:
256,192,30023,1,2,0:0:0:0:
256,192,30173,1,0,0:0:0:0:
256,192,30323,1,2,0:0:0:0:
256,192,30398,1,2,0:0:0:0:
256,192,30473,1,0,0:0:0:0:
256,192,30623,1,2,0:0:0:0:
256,192,30773,1,0,0:0:0:0:
256,192,30923,1,2,0:0:0:0:
256,192,30998,1,2,0:0:0:0:
256,192,31073,1,0,0:0:0:0:
256,192,31223,1,2,0:0:0:0:
256,192,31373,1,0,0:0:0:0:
256,192,31448,1,0,0:0:0:0:
256,192,31523,1,2,0:0:0:0:
256,192,31673,1,0,0:0:0:0:
256,192,31748,1,2,0:0:0:0:
256,192,31823,1,2,0:0:0:0:
256,192,31973,1,2,0:0:0:0:
256,192,32048,1,0,0:0:0:0:
256,192,32123,1,2,0:0:0:0:
256,192,32198,1,2,0:0:0:0:
256,192,32273,1,0,0:0:0:0:
256,192,32423,1,2,0:0:0:0:
256,192,32573,1,0,0:0:0:0:
256,192,32648,1,0,0:0:0:0:
256,192,32723,1,2,0:0:0:0:
256,192,32873,1,0,0:0:0:0:
256,192,33023,1,2,0:0:0:0:
256,192,33098,1,2,0:0:0:0:
256,192,33173,1,0,0:0:0:0:
256,192,33323,1,2,0:0:0:0:
256,192,33623,1,2,0:0:0:0:
256,192,33698,1,2,0:0:0:0:
256,192,33773,1,0,0:0:0:0:
256,192,33848,1,0,0:0:0:0:
256,192,33923,1,2,0:0:0:0:
256,192,34073,1,0,0:0:0:0:
256,192,34223,1,2,0:0:0:0:
256,192,34298,1,2,0:0:0:0:
256,192,34373,1,0,0:0:0:0:
256,192,34523,1,2,0:0:0:0:
256,192,34673,1,0,0:0:0:0:
256,192,34823,1,2,0:0:0:0:
256,192,34898,1,0,0:0:0:0:
256,192,34973,1,0,0:0:0:0:
256,192,35048,1,0,0:0:0:0:
256,192,35123,1,2,0:0:0:0:
256,192,35273,1,0,0:0:0:0:
256,192,35423,1,2,0:0:0:0:
256,192,35498,1,0,0:0:0:0:
256,192,35573,1,0,0:0:0:0:
256,192,35723,1,2,0:0:0:0:
256,192,35873,1,0,0:0:0:0:
256,192,36023,1,2,0:0:0:0:
256,192,36098,1,2,0:0:0:0:
256,192,36173,1,0,0:0:0:0:
256,192,36248,1,0,0:0:0:0:
256,192,36323,1,2,0:0:0:0:
256,192,36473,1,0,0:0:0:0:
256,192,36623,1,2,0:0:0:0:
256,192,36698,1,0,0:0:0:0:
256,192,36773,1,0,0:0:0:0:
256,192,36923,1,2,0:0:0:0:
256,192,37073,1,0,0:0:0:0:
256,192,37223,1,2,0:0:0:0:
256,192,37298,1,2,0:0:0:0:
256,192,37373,1,2,0:0:0:0:
256,192,37448,1,2,0:0:0:0:
256,192,37523,1,0,0:0:0:0:
256,192,37673,1,0,0:0:0:0:
256,192,37823,1,2,0:0:0:0:
256,192,37973,1,2,0:0:0:0:
256,192,38123,1,2,0:0:0:0:
256,192,38273,1,2,0:0:0:0:
256,192,38423,1,4,0:0:0:0:
256,192,39323,1,2,0:0:0:0:
256,192,39623,1,2,0:0:0:0:
256,192,40823,1,2,0:0:0:0:
256,192,41123,1,0,0:0:0:0:
256,192,41423,1,2,0:0:0:0:
256,192,41723,1,2,0:0:0:0:
256,192,42023,1,2,0:0:0:0:
256,192,43223,1,2,0:0:0:0:
256,192,43523,1,2,0:0:0:0:
256,192,43823,1,0,0:0:0:0:
256,192,44423,1,2,0:0:0:0:
256,192,45623,1,2,0:0:0:0:
256,192,45923,1,2,0:0:0:0:
256,192,46223,1,0,0:0:0:0:
256,192,46823,1,2,0:0:0:0:
256,192,47423,1,4,0:0:0:0:
256,192,47648,1,2,0:0:0:0:
256,192,47723,1,2,0:0:0:0:
256,192,47873,1,0,0:0:0:0:
256,192,48023,1,6,0:0:0:0:
256,192,48323,1,0,0:0:0:0:
256,192,48473,1,2,0:0:0:0:
256,192,48548,1,2,0:0:0:0:
256,192,48623,1,0,0:0:0:0:
256,192,48773,1,0,0:0:0:0:
256,192,48923,1,2,0:0:0:0:
256,192,49073,1,0,0:0:0:0:
256,192,49223,1,2,0:0:0:0:
256,192,49523,1,2,0:0:0:0:
256,192,49673,1,2,0:0:0:0:
256,192,49823,1,0,0:0:0:0:
256,192,49973,1,0,0:0:0:0:
256,192,50123,1,2,0:0:0:0:
256,192,50198,1,0,0:0:0:0:
256,192,50273,1,2,0:0:0:0:
256,192,50423,1,2,0:0:0:0:
256,192,50723,1,0,0:0:0:0:
256,192,50873,1,2,0:0:0:0:
256,192,50948,1,2,0:0:0:0:
256,192,51023,1,0,0:0:0:0:
256,192,51173,1,0,0:0:0:0:
256,192,51323,1,2,0:0:0:0:
256,192,51398,1,0,0:0:0:0:
256,192,51473,1,0,0:0:0:0:
256,192,51623,1,2,0:0:0:0:
256,192,51923,1,2,0:0:0:0:
256,192,52073,1,2,0:0:0:0:
256,192,52223,1,0,0:0:0:0:
256,192,52373,1,2,0:0:0:0:
256,192,52523,1,2,0:0:0:0:
256,192,52598,1,2,0:0:0:0:
256,192,52673,1,0,0:0:0:0:
256,192,52823,1,2,0:0:0:0:
256,192,53123,1,0,0:0:0:0:
256,192,53273,1,2,0:0:0:0:
256,192,53423,1,2,0:0:0:0:
256,192,53498,1,0,0:0:0:0:
256,192,53573,1,0,0:0:0:0:
256,192,53723,1,2,0:0:0:0:
256,192,53873,1,2,0:0:0:0:
256,192,54023,1,0,0:0:0:0:
256,192,54323,1,0,0:0:0:0:
256,192,54473,1,2,0:0:0:0:
256,192,54623,1,2,0:0:0:0:
256,192,54773,1,0,0:0:0:0:
256,192,54923,1,2,0:0:0:0:
256,192,54998,1,2,0:0:0:0:
256,192,55073,1,0,0:0:0:0:
256,192,55223,1,2,0:0:0:0:
256,192,55523,1,0,0:0:0:0:
256,192,55673,1,2,0:0:0:0:
256,192,55748,1,0,0:0:0:0:
256,192,55823,1,0,0:0:0:0:
256,192,55973,1,0,0:0:0:0:
256,192,56123,1,2,0:0:0:0:
256,192,56198,1,2,0:0:0:0:
256,192,56273,1,0,0:0:0:0:
256,192,56423,1,2,0:0:0:0:
256,192,56723,1,0,0:0:0:0:
256,192,56873,1,2,0:0:0:0:
256,192,57023,1,0,0:0:0:0:
256,192,57098,1,0,0:0:0:0:
256,192,57173,1,2,0:0:0:0:
256,192,57323,1,2,0:0:0:0:
256,192,57623,1,2,0:0:0:0:
256,192,57698,1,0,0:0:0:0:
256,192,57773,1,2,0:0:0:0:
256,192,57923,1,2,0:0:0:0:
256,192,58073,1,0,0:0:0:0:
256,192,58223,1,2,0:0:0:0:
256,192,58298,1,0,0:0:0:0:
256,192,58373,1,0,0:0:0:0:
256,192,58523,1,2,0:0:0:0:
256,192,58673,1,0,0:0:0:0:
256,192,58823,1,2,0:0:0:0:
256,192,59123,1,0,0:0:0:0:
256,192,59273,1,2,0:0:0:0:
256,192,59423,1,2,0:0:0:0:
256,192,59573,1,0,0:0:0:0:
256,192,59723,1,2,0:0:0:0:
256,192,59798,1,2,0:0:0:0:
256,192,59873,1,0,0:0:0:0:
256,192,60023,1,2,0:0:0:0:
256,192,60098,1,0,0:0:0:0:
256,192,60173,1,2,0:0:0:0:
256,192,60323,1,2,0:0:0:0:
256,192,60473,1,0,0:0:0:0:
256,192,60623,1,2,0:0:0:0:
256,192,60698,1,0,0:0:0:0:
256,192,60773,1,0,0:0:0:0:
256,192,60923,1,2,0:0:0:0:
256,192,61073,1,0,0:0:0:0:
256,192,61223,1,2,0:0:0:0:
256,192,61298,1,2,0:0:0:0:
256,192,61373,1,0,0:0:0:0:
256,192,61523,1,2,0:0:0:0:
256,192,61598,1,2,0:0:0:0:
256,192,61673,1,2,0:0:0:0:
256,192,61823,1,0,0:0:0:0:
256,192,62123,1,2,0:0:0:0:
256,192,62198,1,0,0:0:0:0:
256,192,62273,1,0,0:0:0:0:
256,192,62423,1,2,0:0:0:0:
256,192,62498,1,0,0:0:0:0:
256,192,62573,1,2,0:0:0:0:
256,192,62723,1,2,0:0:0:0:
256,192,62873,1,0,0:0:0:0:
256,192,63023,1,2,0:0:0:0:
256,192,63098,1,2,0:0:0:0:
256,192,63173,1,0,0:0:0:0:
256,192,63323,1,2,0:0:0:0:
256,192,63473,1,0,0:0:0:0:
256,192,63623,1,2,0:0:0:0:
256,192,63923,1,0,0:0:0:0:
256,192,64073,1,0,0:0:0:0:
256,192,64223,1,2,0:0:0:0:
256,192,64373,1,0,0:0:0:0:
256,192,64523,1,2,0:0:0:0:
256,192,64598,1,0,0:0:0:0:
256,192,64673,1,0,0:0:0:0:
256,192,64823,1,2,0:0:0:0:
256,192,64898,1,0,0:0:0:0:
256,192,64973,1,2,0:0:0:0:
256,192,65123,1,2,0:0:0:0:
256,192,65273,1,0,0:0:0:0:
256,192,65423,1,2,0:0:0:0:
256,192,65498,1,2,0:0:0:0:
256,192,65573,1,0,0:0:0:0:
256,192,65723,1,2,0:0:0:0:
256,192,65873,1,0,0:0:0:0:
256,192,66023,1,2,0:0:0:0:
256,192,66098,1,0,0:0:0:0:
256,192,66173,1,0,0:0:0:0:
256,192,66323,1,2,0:0:0:0:
256,192,66398,1,2,0:0:0:0:
256,192,66473,1,2,0:0:0:0:
256,192,66623,1,0,0:0:0:0:
256,192,66923,1,2,0:0:0:0:
256,192,67073,1,0,0:0:0:0:
256,192,67223,1,2,0:0:0:0:
256,192,67298,1,2,0:0:0:0:
256,192,67373,1,0,0:0:0:0:
256,192,67523,1,2,0:0:0:0:
256,192,67673,1,0,0:0:0:0:
256,192,67823,1,2,0:0:0:0:
256,192,67898,1,2,0:0:0:0:
256,192,67973,1,0,0:0:0:0:
256,192,68048,1,0,0:0:0:0:
256,192,68123,1,2,0:0:0:0:
256,192,68273,1,0,0:0:0:0:
256,192,68423,1,2,0:0:0:0:
256,192,68498,1,0,0:0:0:0:
256,192,68573,1,0,0:0:0:0:
256,192,68723,1,2,0:0:0:0:
256,192,68873,1,0,0:0:0:0:
256,192,69023,1,2,0:0:0:0:
256,192,69098,1,2,0:0:0:0:
256,192,69173,1,2,0:0:0:0:
256,192,69323,1,0,0:0:0:0:
256,192,69623,1,2,0:0:0:0:
256,192,69698,1,0,0:0:0:0:
256,192,69773,1,2,0:0:0:0:
256,192,69923,1,2,0:0:0:0:
256,192,70073,1,0,0:0:0:0:
256,192,70223,1,2,0:0:0:0:
256,192,70298,1,0,0:0:0:0:
256,192,70373,1,0,0:0:0:0:
256,192,70523,1,2,0:0:0:0:
256,192,70598,1,2,0:0:0:0:
256,192,70673,1,0,0:0:0:0:
256,192,70823,1,2,0:0:0:0:
256,192,70898,1,2,0:0:0:0:
256,192,70973,1,0,0:0:0:0:
256,192,71048,1,0,0:0:0:0:
256,192,71123,1,2,0:0:0:0:
256,192,71273,1,0,0:0:0:0:
256,192,71423,1,2,0:0:0:0:
256,192,71573,1,0,0:0:0:0:
256,192,71723,1,2,0:0:0:0:
256,192,72023,1,2,0:0:0:0:
256,192,72098,1,2,0:0:0:0:
256,192,72173,1,0,0:0:0:0:
256,192,72323,1,2,0:0:0:0:
256,192,72473,1,0,0:0:0:0:
256,192,72623,1,2,0:0:0:0:
256,192,72698,1,0,0:0:0:0:
256,192,72773,1,0,0:0:0:0:
256,192,72848,1,0,0:0:0:0:
256,192,72923,1,2,0:0:0:0:
256,192,73073,1,0,0:0:0:0:
256,192,73223,1,2,0:0:0:0:
256,192,73298,1,0,0:0:0:0:
256,192,73373,1,2,0:0:0:0:
256,192,73523,1,0,0:0:0:0:
256,192,73673,1,0,0:0:0:0:
256,192,73823,1,2,0:0:0:0:
256,192,73898,1,2,0:0:0:0:
256,192,73973,1,0,0:0:0:0:
256,192,74123,1,0,0:0:0:0:
256,192,74423,1,2,0:0:0:0:
256,192,74498,1,0,0:0:0:0:
256,192,74573,1,2,0:0:0:0:
256,192,74648,1,2,0:0:0:0:
256,192,74723,1,0,0:0:0:0:
256,192,74873,1,0,0:0:0:0:
256,192,75023,1,2,0:0:0:0:
256,192,75098,1,0,0:0:0:0:
256,192,75173,1,0,0:0:0:0:
256,192,75323,1,2,0:0:0:0:
256,192,75398,1,2,0:0:0:0:
256,192,75473,1,0,0:0:0:0:
256,192,75623,1,2,0:0:0:0:
256,192,75698,1,2,0:0:0:0:
256,192,75773,1,0,0:0:0:0:
256,192,75848,1,0,0:0:0:0:
256,192,75923,1,2,0:0:0:0:
256,192,76073,1,0,0:0:0:0:
256,192,76223,1,2,0:0:0:0:
256,192,76373,1,0,0:0:0:0:
256,192,76523,1,2,0:0:0:0:
256,192,76598,1,2,0:0:0:0:
256,192,76673,1,2,0:0:0:0:
256,192,76823,1,4,0:0:0:0:
256,192,77198,1,2,0:0:0:0:
256,192,77310,1,2,0:0:0:0:
256,192,77423,1,2,0:0:0:0:
256,192,77573,1,2,0:0:0:0:
256,192,77798,1,2,0:0:0:0:
256,192,78023,1,4,0:0:0:0:
256,192,78256,1,4,0:0:0:0:
256,192,78698,1,4,0:0:0:0:
