osu file format v14

[General]
AudioFilename: audio.mp3
AudioLeadIn: 0
PreviewTime: 57628
Countdown: 0
SampleSet: Normal
StackLeniency: 0.7
Mode: 1
LetterboxInBreaks: 0
WidescreenStoryboard: 1

[Editor]
Bookmarks: 9623,19208,28823,38408,48008,57608,76808
DistanceSpacing: 1.5
BeatDivisor: 4
GridSize: 4
TimelineZoom: 2.899999

[Metadata]
Title:2punk2suck
TitleUnicode:2punk2suck
Artist:Kola Kid
ArtistUnicode:Kola Kid
Creator:Coryn
Version:Muzukashii
Source:osu!
Tags:cash machine go! go instrumental electronic mpg mg mappers guild fa featured artist 8bit 8-bit chiptune
BeatmapID:2327147
BeatmapSetID:1112677

[Difficulty]
HPDrainRate:5.5
CircleSize:5
OverallDifficulty:5
ApproachRate:5
SliderMultiplier:1.4
SliderTickRate:1

[Events]
//Background and Video events
0,0,"weath field.png",0,0
//Break Periods
//Storyboard Layer 0 (Background)
//Storyboard Layer 1 (Fail)
//Storyboard Layer 2 (Pass)
//Storyboard Layer 3 (Foreground)
//Storyboard Layer 4 (Overlay)
//Storyboard Sound Samples

[TimingPoints]
28,300,4,1,0,80,1,0
28828,-98.0392156862745,4,1,0,70,0,1
38428,-98.0392156862745,4,1,0,70,0,0
38728,-100,4,1,0,80,0,0

[HitObjects]
281,173,28,5,8,0:0:0:0:
286,58,178,1,0,0:0:0:0:
286,58,328,1,0,0:0:0:0:
311,83,478,1,8,0:0:0:0:
325,84,928,1,8,0:0:0:0:
381,122,1078,1,0,0:0:0:0:
322,96,1228,1,8,0:0:0:0:
208,76,1378,1,0,0:0:0:0:
230,80,1453,1,0,0:0:0:0:
208,76,1528,1,0,0:0:0:0:
322,96,1678,1,8,0:0:0:0:
208,76,1828,1,0,0:0:0:0:
208,76,1978,1,0,0:0:0:0:
305,67,2128,1,8,0:0:0:0:
270,58,2428,1,8,0:0:0:0:
208,76,2578,1,0,0:0:0:0:
208,76,2728,1,0,0:0:0:0:
249,67,2878,1,8,0:0:0:0:
251,64,3328,1,8,0:0:0:0:
250,89,3478,5,0,0:0:0:0:
251,64,3628,1,8,0:0:0:0:
211,73,3778,1,0,0:0:0:0:
211,73,3928,1,0,0:0:0:0:
251,64,4078,1,8,0:0:0:0:
211,73,4228,1,0,0:0:0:0:
344,118,4303,1,0,0:0:0:0:
211,73,4378,1,0,0:0:0:0:
288,194,4528,1,8,0:0:0:0:
261,64,4828,1,8,0:0:0:0:
211,73,4978,1,0,0:0:0:0:
211,73,5128,1,0,0:0:0:0:
258,67,5278,1,8,0:0:0:0:
258,67,5728,1,8,0:0:0:0:
300,130,5878,1,0,0:0:0:0:
258,67,6028,1,8,0:0:0:0:
335,118,6178,1,0,0:0:0:0:
323,118,6253,1,0,0:0:0:0:
216,58,6328,1,0,0:0:0:0:
258,67,6478,1,8,0:0:0:0:
216,58,6628,1,0,0:0:0:0:
216,58,6778,1,0,0:0:0:0:
261,58,6928,1,8,0:0:0:0:
261,58,7228,1,8,0:0:0:0:
216,58,7378,1,0,0:0:0:0:
216,58,7528,1,0,0:0:0:0:
269,55,7678,1,8,0:0:0:0:
269,55,8128,1,8,0:0:0:0:
216,58,8278,1,0,0:0:0:0:
328,52,8428,1,8,0:0:0:0:
216,58,8578,1,0,0:0:0:0:
216,58,8728,1,0,0:0:0:0:
269,55,8878,1,8,0:0:0:0:
216,58,9178,1,0,0:0:0:0:
269,55,9328,1,8,0:0:0:0:
269,55,9628,1,12,0:0:0:0:
241,72,9778,1,0,0:0:0:0:
241,72,9928,1,8,0:0:0:0:
291,87,10078,1,8,0:0:0:0:
241,72,10228,1,0,0:0:0:0:
227,73,10378,1,0,0:0:0:0:
288,85,10528,1,0,0:0:0:0:
281,113,10828,1,0,0:0:0:0:
271,82,10978,1,0,0:0:0:0:
288,50,11128,1,8,0:0:0:0:
227,138,11278,1,8,0:0:0:0:
288,50,11428,1,8,0:0:0:0:
224,138,11578,1,0,0:0:0:0:
288,50,11728,1,8,0:0:0:0:
276,70,12028,1,8,0:0:0:0:
216,122,12178,1,0,0:0:0:0:
216,114,12328,1,8,0:0:0:0:
271,82,12478,1,8,0:0:0:0:
216,114,12628,1,0,0:0:0:0:
216,114,12778,1,0,0:0:0:0:
271,82,12928,1,0,0:0:0:0:
271,82,13378,1,0,0:0:0:0:
271,82,13528,1,8,0:0:0:0:
216,111,13678,1,0,0:0:0:0:
271,82,13828,1,0,0:0:0:0:
271,82,13978,1,0,0:0:0:0:
271,82,14128,1,8,0:0:0:0:
271,82,14428,1,8,0:0:0:0:
364,105,14578,1,0,0:0:0:0:
309,102,14728,1,8,0:0:0:0:
271,82,14878,1,8,0:0:0:0:
309,102,15028,1,0,0:0:0:0:
309,102,15178,1,0,0:0:0:0:
273,79,15328,1,0,0:0:0:0:
166,56,15778,1,0,0:0:0:0:
273,79,15928,1,8,0:0:0:0:
226,99,16078,1,0,0:0:0:0:
273,79,16228,1,0,0:0:0:0:
236,85,16378,1,0,0:0:0:0:
236,85,16528,1,8,0:0:0:0:
271,76,16828,1,8,0:0:0:0:
191,122,16978,1,0,0:0:0:0:
191,122,17128,1,8,0:0:0:0:
191,122,17278,1,8,0:0:0:0:
191,122,17428,1,0,0:0:0:0:
191,122,17578,1,8,0:0:0:0:
279,76,17728,1,0,0:0:0:0:
236,70,18178,1,0,0:0:0:0:
282,90,18328,1,8,0:0:0:0:
226,99,18478,1,0,0:0:0:0:
282,90,18628,1,0,0:0:0:0:
236,70,18778,1,0,0:0:0:0:
236,70,18928,1,8,0:0:0:0:
249,120,19228,1,8,0:0:0:0:
320,152,19378,1,0,0:0:0:0:
276,113,19528,1,8,0:0:0:0:
276,113,19678,1,0,0:0:0:0:
305,113,19828,1,0,0:0:0:0:
276,113,19978,1,0,0:0:0:0:
276,113,20128,1,8,0:0:0:0:
280,117,20578,1,0,0:0:0:0:
280,117,20728,1,8,0:0:0:0:
280,117,20878,1,0,0:0:0:0:
280,117,21028,1,8,0:0:0:0:
241,64,21178,1,8,0:0:0:0:
274,99,21328,1,8,0:0:0:0:
274,99,21628,1,8,0:0:0:0:
121,117,21778,1,0,0:0:0:0:
276,122,21928,1,8,0:0:0:0:
276,87,22078,1,8,0:0:0:0:
232,64,22228,1,8,0:0:0:0:
279,76,22378,1,0,0:0:0:0:
279,85,22528,1,0,0:0:0:0:
311,105,22978,1,0,0:0:0:0:
311,105,23128,1,8,0:0:0:0:
302,70,23278,1,0,0:0:0:0:
302,70,23428,1,0,0:0:0:0:
302,70,23578,1,0,0:0:0:0:
302,70,23728,1,8,0:0:0:0:
279,79,24028,1,8,0:0:0:0:
279,79,24178,1,8,0:0:0:0:
11,149,24253,1,8,0:0:0:0:
326,76,24328,1,8,0:0:0:0:
279,79,24478,1,8,0:0:0:0:
326,76,24628,1,0,0:0:0:0:
256,87,24778,1,0,0:0:0:0:
279,79,24928,1,0,0:0:0:0:
261,102,25378,1,0,0:0:0:0:
261,102,25528,1,8,0:0:0:0:
261,102,25678,1,0,0:0:0:0:
261,102,25828,1,0,0:0:0:0:
261,102,25978,1,0,0:0:0:0:
261,102,26128,1,8,0:0:0:0:
279,79,26428,5,8,0:0:0:0:
223,67,26503,1,8,0:0:0:0:
226,70,26578,1,8,0:0:0:0:
229,70,26728,1,8,0:0:0:0:
279,79,26878,1,0,0:0:0:0:
235,72,27028,1,0,0:0:0:0:
235,72,27178,1,8,0:0:0:0:
279,79,27328,1,0,0:0:0:0:
238,108,27778,1,0,0:0:0:0:
238,108,27928,1,8,0:0:0:0:
238,108,28078,1,0,0:0:0:0:
238,108,28228,1,0,0:0:0:0:
238,108,28378,1,0,0:0:0:0:
238,108,28528,1,8,0:0:0:0:
367,144,28828,5,8,0:0:0:0:
367,144,28903,1,8,0:0:0:0:
329,111,28978,1,8,0:0:0:0:
329,111,29128,1,8,0:0:0:0:
329,111,29278,1,8,0:0:0:0:
329,111,29428,1,8,0:0:0:0:
329,111,29578,1,8,0:0:0:0:
329,111,29728,1,0,0:0:0:0:
329,111,29878,1,0,0:0:0:0:
265,99,30028,1,8,0:0:0:0:
265,99,30103,1,8,0:0:0:0:
265,99,30178,1,8,0:0:0:0:
272,99,30328,1,8,0:0:0:0:
272,99,30478,1,8,0:0:0:0:
254,102,30628,1,8,0:0:0:0:
387,47,30703,1,8,0:0:0:0:
436,80,30778,1,8,0:0:0:0:
274,101,31228,1,0,0:0:0:0:
242,111,31303,1,0,0:0:0:0:
242,111,31378,1,0,0:0:0:0:
242,111,31528,1,8,0:0:0:0:
246,116,31678,1,8,0:0:0:0:
242,113,31828,1,0,0:0:0:0:
246,116,31978,1,0,0:0:0:0:
242,113,32128,1,8,0:0:0:0:
246,118,32278,1,8,0:0:0:0:
242,113,32428,1,0,0:0:0:0:
246,118,32503,1,0,0:0:0:0:
246,118,32578,1,0,0:0:0:0:
246,118,32728,1,8,0:0:0:0:
199,82,32878,1,8,0:0:0:0:
204,84,33028,1,0,0:0:0:0:
204,84,33103,1,0,0:0:0:0:
204,84,33178,1,0,0:0:0:0:
246,118,33628,1,8,0:0:0:0:
199,95,33703,1,8,0:0:0:0:
206,88,33778,1,8,0:0:0:0:
246,118,33928,1,0,0:0:0:0:
213,109,34078,1,0,0:0:0:0:
246,118,34228,1,8,0:0:0:0:
215,107,34378,1,8,0:0:0:0:
215,104,34528,1,8,0:0:0:0:
208,104,34678,1,8,0:0:0:0:
246,118,34828,1,8,0:0:0:0:
208,104,34903,1,8,0:0:0:0:
208,104,34978,1,8,0:0:0:0:
204,109,35128,1,0,0:0:0:0:
204,109,35278,1,0,0:0:0:0:
204,109,35428,1,8,0:0:0:0:
204,109,35503,1,8,0:0:0:0:
204,109,35578,1,8,0:0:0:0:
246,118,36028,1,0,0:0:0:0:
204,109,36103,1,0,0:0:0:0:
204,109,36178,1,0,0:0:0:0:
249,120,36328,1,8,0:0:0:0:
202,107,36478,1,8,0:0:0:0:
249,120,36628,1,0,0:0:0:0:
202,107,36778,1,0,0:0:0:0:
202,107,36928,1,8,0:0:0:0:
202,107,37078,1,8,0:0:0:0:
249,120,37228,1,0,0:0:0:0:
195,93,37303,1,0,0:0:0:0:
195,93,37378,1,0,0:0:0:0:
195,93,37528,1,8,0:0:0:0:
195,93,37678,1,8,0:0:0:0:
195,93,37828,1,0,0:0:0:0:
195,93,37903,1,0,0:0:0:0:
195,93,37978,1,0,0:0:0:0:
249,120,38428,1,0,0:0:0:0:
249,120,38728,1,0,0:0:0:0:
249,120,39028,1,0,0:0:0:0:
249,120,39328,1,0,0:0:0:0:
249,120,39478,1,0,0:0:0:0:
249,120,39628,1,0,0:0:0:0:
249,120,39928,1,0,0:0:0:0:
249,120,40078,1,0,0:0:0:0:
249,120,40228,1,0,0:0:0:0:
272,155,40828,1,8,0:0:0:0:
272,155,41128,1,8,0:0:0:0:
272,155,41428,1,8,0:0:0:0:
272,155,41728,1,8,0:0:0:0:
272,155,41878,1,8,0:0:0:0:
272,155,42028,1,8,0:0:0:0:
265,134,42328,1,8,0:0:0:0:
265,134,42478,1,8,0:0:0:0:
265,134,42628,1,8,0:0:0:0:
240,129,43228,1,0,0:0:0:0:
240,129,43528,1,0,0:0:0:0:
240,129,43828,1,0,0:0:0:0:
240,129,44128,1,0,0:0:0:0:
240,129,44278,1,0,0:0:0:0:
240,129,44428,1,0,0:0:0:0:
240,129,44728,1,0,0:0:0:0:
240,129,44878,1,0,0:0:0:0:
240,129,45028,1,0,0:0:0:0:
139,129,45628,1,8,0:0:0:0:
348,118,45928,1,8,0:0:0:0:
348,118,46228,1,8,0:0:0:0:
348,118,46528,1,8,0:0:0:0:
348,118,46678,1,8,0:0:0:0:
348,118,46828,1,8,0:0:0:0:
348,118,47128,1,8,0:0:0:0:
348,118,47278,1,8,0:0:0:0:
139,129,47428,1,12,0:0:0:0:
139,129,47728,1,0,0:0:0:0:
139,129,47878,1,12,0:0:0:0:
139,129,48028,1,12,0:0:0:0:
277,112,48178,1,0,0:0:0:0:
236,83,48328,1,0,0:0:0:0:
234,127,48478,1,8,0:0:0:0:
315,108,48928,1,8,0:0:0:0:
276,76,49078,1,0,0:0:0:0:
315,108,49228,1,8,0:0:0:0:
222,51,49378,1,0,0:0:0:0:
291,125,49453,1,0,0:0:0:0:
338,92,49528,1,0,0:0:0:0:
234,127,49678,1,8,0:0:0:0:
265,96,49828,1,0,0:0:0:0:
143,127,49978,1,0,0:0:0:0:
275,94,50128,1,8,0:0:0:0:
190,66,50428,1,8,0:0:0:0:
190,66,50578,1,0,0:0:0:0:
190,66,50728,1,0,0:0:0:0:
315,108,50878,1,8,0:0:0:0:
341,72,51328,1,8,0:0:0:0:
221,47,51478,5,0,0:0:0:0:
341,72,51628,1,8,0:0:0:0:
338,100,51778,1,0,0:0:0:0:
338,100,51928,1,0,0:0:0:0:
338,100,52078,1,8,0:0:0:0:
330,97,52228,1,0,0:0:0:0:
271,148,52303,1,0,0:0:0:0:
330,97,52378,1,0,0:0:0:0:
330,97,52528,1,8,0:0:0:0:
242,112,52828,1,8,0:0:0:0:
289,112,52978,1,0,0:0:0:0:
283,92,53128,1,0,0:0:0:0:
248,74,53278,1,8,0:0:0:0:
242,112,53728,1,8,0:0:0:0:
180,82,53878,1,0,0:0:0:0:
251,101,54028,1,8,0:0:0:0:
242,86,54178,1,0,0:0:0:0:
265,148,54253,1,0,0:0:0:0:
242,86,54328,1,0,0:0:0:0:
236,88,54478,1,8,0:0:0:0:
236,88,54628,1,0,0:0:0:0:
236,94,54778,1,0,0:0:0:0:
236,94,54928,1,8,0:0:0:0:
251,101,55228,1,8,0:0:0:0:
251,159,55378,1,0,0:0:0:0:
251,159,55528,1,0,0:0:0:0:
254,97,55678,1,8,0:0:0:0:
254,97,56128,1,8,0:0:0:0:
265,43,56278,5,0,0:0:0:0:
256,97,56428,1,8,0:0:0:0:
198,51,56578,1,0,0:0:0:0:
213,97,56728,1,0,0:0:0:0:
213,97,56878,1,8,0:0:0:0:
268,92,57178,1,0,0:0:0:0:
274,89,57328,1,8,0:0:0:0:
277,83,57628,1,8,0:0:0:0:
312,139,57703,1,8,0:0:0:0:
301,84,57778,1,8,0:0:0:0:
283,84,57928,1,8,0:0:0:0:
234,46,58228,1,0,0:0:0:0:
233,57,58378,1,8,0:0:0:0:
222,72,58528,1,0,0:0:0:0:
207,46,58678,1,0,0:0:0:0:
221,98,58828,1,0,0:0:0:0:
11,163,58903,1,0,0:0:0:0:
17,154,58978,1,0,0:0:0:0:
277,90,59428,1,8,0:0:0:0:
286,69,59728,5,8,0:0:0:0:
286,69,59878,1,0,0:0:0:0:
262,42,60028,1,8,0:0:0:0:
261,58,60103,1,8,0:0:0:0:
263,75,60178,1,8,0:0:0:0:
263,75,60328,1,8,0:0:0:0:
262,87,60628,1,8,0:0:0:0:
262,87,60703,1,8,0:0:0:0:
262,87,60778,1,8,0:0:0:0:
240,57,60928,1,0,0:0:0:0:
240,57,61078,1,0,0:0:0:0:
245,55,61228,1,8,0:0:0:0:
248,66,61378,1,8,0:0:0:0:
251,107,61528,1,8,0:0:0:0:
262,107,61678,1,8,0:0:0:0:
266,110,61828,1,0,0:0:0:0:
330,96,62128,1,8,0:0:0:0:
330,96,62278,1,0,0:0:0:0:
330,96,62428,1,8,0:0:0:0:
330,96,62503,1,8,0:0:0:0:
330,96,62578,1,8,0:0:0:0:
330,96,62728,1,8,0:0:0:0:
318,92,63028,1,0,0:0:0:0:
318,92,63178,1,8,0:0:0:0:
301,81,63328,1,0,0:0:0:0:
301,81,63478,1,0,0:0:0:0:
301,81,63628,1,0,0:0:0:0:
188,131,63703,1,0,0:0:0:0:
355,207,63778,1,0,0:0:0:0:
289,66,64228,1,8,0:0:0:0:
281,72,64528,1,8,0:0:0:0:
281,72,64678,1,0,0:0:0:0:
281,72,64828,1,8,0:0:0:0:
281,72,64903,1,8,0:0:0:0:
281,72,64978,1,8,0:0:0:0:
312,87,65128,1,8,0:0:0:0:
280,57,65428,1,8,0:0:0:0:
153,107,65503,1,8,0:0:0:0:
277,81,65578,1,8,0:0:0:0:
172,42,65728,1,0,0:0:0:0:
175,57,65878,1,0,0:0:0:0:
169,57,66028,1,8,0:0:0:0:
127,134,66103,1,8,0:0:0:0:
178,81,66178,1,8,0:0:0:0:
233,148,66328,1,8,0:0:0:0:
245,163,66478,1,8,0:0:0:0:
280,188,66628,1,0,0:0:0:0:
210,148,66928,1,8,0:0:0:0:
210,148,67078,1,0,0:0:0:0:
210,148,67228,1,8,0:0:0:0:
210,148,67303,1,8,0:0:0:0:
266,174,67378,1,8,0:0:0:0:
266,174,67528,1,8,0:0:0:0:
306,133,67828,1,0,0:0:0:0:
304,142,67978,1,8,0:0:0:0:
304,133,68128,1,0,0:0:0:0:
309,131,68278,1,0,0:0:0:0:
254,110,68428,1,0,0:0:0:0:
254,110,68503,1,0,0:0:0:0:
242,125,68578,1,0,0:0:0:0:
216,122,69028,1,8,0:0:0:0:
248,78,69328,1,8,0:0:0:0:
248,78,69478,1,0,0:0:0:0:
231,72,69628,1,8,0:0:0:0:
239,87,69703,1,8,0:0:0:0:
242,89,69778,1,8,0:0:0:0:
245,92,69928,1,8,0:0:0:0:
227,81,70228,1,8,0:0:0:0:
231,83,70303,1,8,0:0:0:0:
231,83,70378,1,8,0:0:0:0:
291,84,70528,1,0,0:0:0:0:
295,81,70678,1,0,0:0:0:0:
225,69,70828,1,8,0:0:0:0:
233,63,70903,1,8,0:0:0:0:
245,63,70978,1,8,0:0:0:0:
245,46,71128,1,8,0:0:0:0:
245,46,71203,1,8,0:0:0:0:
254,72,71278,1,8,0:0:0:0:
260,72,71428,1,0,0:0:0:0:
301,81,71728,1,8,0:0:0:0:
301,81,71878,1,0,0:0:0:0:
301,81,72028,1,8,0:0:0:0:
306,83,72103,1,8,0:0:0:0:
306,83,72178,1,8,0:0:0:0:
306,83,72328,1,8,0:0:0:0:
289,83,72628,1,0,0:0:0:0:
289,83,72778,1,8,0:0:0:0:
263,89,72928,1,0,0:0:0:0:
263,89,73078,1,0,0:0:0:0:
274,95,73228,1,0,0:0:0:0:
277,98,73303,1,0,0:0:0:0:
280,92,73378,1,0,0:0:0:0:
245,157,73828,1,8,0:0:0:0:
231,104,74128,1,8,0:0:0:0:
242,102,74278,1,0,0:0:0:0:
256,104,74428,1,8,0:0:0:0:
260,107,74503,1,8,0:0:0:0:
266,112,74578,1,8,0:0:0:0:
271,116,74728,1,8,0:0:0:0:
216,84,75028,1,8,0:0:0:0:
216,84,75103,1,8,0:0:0:0:
221,92,75178,1,8,0:0:0:0:
213,90,75328,1,0,0:0:0:0:
180,126,75403,1,0,0:0:0:0:
221,98,75478,1,0,0:0:0:0:
225,96,75628,1,8,0:0:0:0:
227,98,75703,1,8,0:0:0:0:
236,107,75778,1,8,0:0:0:0:
239,112,75928,1,8,0:0:0:0:
242,116,76003,1,8,0:0:0:0:
242,116,76078,1,8,0:0:0:0:
242,116,76228,1,0,0:0:0:0:
234,113,76528,1,0,0:0:0:0:
228,110,76603,1,0,0:0:0:0:
228,110,76678,1,0,0:0:0:0:
256,192,76828,12,0,78703,0:0:0:0:
