osu file format v14

[General]
AudioFilename: audio.mp3
AudioLeadIn: 0
PreviewTime: 57628
Countdown: 0
SampleSet: Normal
StackLeniency: 0.7
Mode: 1
LetterboxInBreaks: 0
WidescreenStoryboard: 1

[Editor]
Bookmarks: 9623,19208,28823,38408,48008,57608,76808
DistanceSpacing: 1.8
BeatDivisor: 4
GridSize: 4
TimelineZoom: 2.899999

[Metadata]
Title:2punk2suck
TitleUnicode:2punk2suck
Artist:Kola Kid
ArtistUnicode:Kola Kid
Creator:Coryn
Version:Kantan
Source:osu!
Tags:cash machine go! go instrumental electronic mpg mg mappers guild fa featured artist 8bit 8-bit chiptune
BeatmapID:2327146
BeatmapSetID:1112677

[Difficulty]
HPDrainRate:6.5
CircleSize:5
OverallDifficulty:4
ApproachRate:5
SliderMultiplier:1.4
SliderTickRate:1

[Events]
//Background and Video events
0,0,"weath field.png",0,0
//Break Periods
//Storyboard Layer 0 (Background)
//Storyboard Layer 1 (Fail)
//Storyboard Layer 2 (Pass)
//Storyboard Layer 3 (Foreground)
//Storyboard Layer 4 (Overlay)
//Storyboard Sound Samples

[TimingPoints]
28,300,4,1,0,80,1,0
28828,-98.0392156862745,4,1,0,70,0,1
38428,-98.0392156862745,4,1,0,70,0,0
39628,-100,4,1,0,80,0,0

[HitObjects]
281,173,28,5,8,0:0:0:0:
389,100,928,1,8,0:0:0:0:
361,72,1228,1,8,0:0:0:0:
299,93,2128,5,0,0:0:0:0:
270,58,2428,1,8,0:0:0:0:
251,64,3328,1,8,0:0:0:0:
251,64,3628,1,8,0:0:0:0:
288,194,4528,1,0,0:0:0:0:
261,64,4828,1,8,0:0:0:0:
258,67,5728,1,8,0:0:0:0:
258,67,6028,1,8,0:0:0:0:
287,87,6928,1,0,0:0:0:0:
261,58,7228,1,8,0:0:0:0:
269,55,8128,1,8,0:0:0:0:
216,58,8428,1,8,0:0:0:0:
308,32,9328,1,8,0:0:0:0:
269,55,9628,1,12,0:0:0:0:
241,72,10078,1,0,0:0:0:0:
288,85,10528,1,0,0:0:0:0:
288,50,11128,1,8,0:0:0:0:
288,50,11428,1,8,0:0:0:0:
288,50,11728,1,0,0:0:0:0:
276,70,12028,1,8,0:0:0:0:
271,82,12478,1,8,0:0:0:0:
271,82,12928,1,0,0:0:0:0:
271,82,14428,1,0,0:0:0:0:
271,82,14878,1,8,0:0:0:0:
273,79,15328,1,0,0:0:0:0:
271,76,16828,1,8,0:0:0:0:
191,122,17278,1,8,0:0:0:0:
279,76,17728,1,0,0:0:0:0:
249,120,19228,1,8,0:0:0:0:
276,113,19678,1,0,0:0:0:0:
276,113,20128,1,8,0:0:0:0:
280,117,20728,1,8,0:0:0:0:
280,117,21028,1,8,0:0:0:0:
274,99,21328,1,8,0:0:0:0:
274,99,21628,1,0,0:0:0:0:
276,87,22078,1,8,0:0:0:0:
279,85,22528,1,0,0:0:0:0:
279,79,24028,1,0,0:0:0:0:
279,79,24478,1,8,0:0:0:0:
279,79,24928,1,0,0:0:0:0:
279,79,26428,5,8,0:0:0:0:
279,79,26878,1,0,0:0:0:0:
279,79,27328,1,0,0:0:0:0:
367,144,28828,5,8,0:0:0:0:
329,111,29128,1,8,0:0:0:0:
329,111,29428,1,8,0:0:0:0:
329,111,29728,1,0,0:0:0:0:
265,99,30028,1,8,0:0:0:0:
274,101,31228,1,0,0:0:0:0:
242,111,31528,1,0,0:0:0:0:
242,113,31828,1,8,0:0:0:0:
242,113,32128,1,8,0:0:0:0:
242,113,32428,1,0,0:0:0:0:
246,118,33628,1,8,0:0:0:0:
246,118,33928,1,8,0:0:0:0:
246,118,34228,1,0,0:0:0:0:
246,118,34828,1,8,0:0:0:0:
246,118,36028,1,8,0:0:0:0:
249,120,36328,1,8,0:0:0:0:
249,120,36628,1,0,0:0:0:0:
249,120,37228,1,8,0:0:0:0:
249,120,38428,1,0,0:0:0:0:
249,120,39628,1,0,0:0:0:0:
249,120,40228,1,0,0:0:0:0:
272,155,40828,1,8,0:0:0:0:
272,155,42028,1,8,0:0:0:0:
265,134,42628,1,8,0:0:0:0:
240,129,43228,1,0,0:0:0:0:
240,129,44428,1,0,0:0:0:0:
240,129,45028,1,0,0:0:0:0:
139,129,45628,1,8,0:0:0:0:
348,118,46828,1,8,0:0:0:0:
139,129,47428,1,12,0:0:0:0:
89,160,48028,1,12,0:0:0:0:
119,75,48928,1,8,0:0:0:0:
119,75,49228,1,0,0:0:0:0:
101,75,50428,1,8,0:0:0:0:
96,72,50878,1,8,0:0:0:0:
75,67,51328,1,0,0:0:0:0:
75,67,51628,1,0,0:0:0:0:
89,107,52828,1,8,0:0:0:0:
89,104,53728,1,8,0:0:0:0:
89,104,54028,1,0,0:0:0:0:
89,69,55228,1,8,0:0:0:0:
89,69,55678,1,8,0:0:0:0:
89,67,56128,1,0,0:0:0:0:
147,92,56428,1,0,0:0:0:0:
84,102,57028,1,8,0:0:0:0:
277,83,57628,5,8,0:0:0:0:
177,40,58228,5,8,0:0:0:0:
221,98,58828,1,0,0:0:0:0:
262,42,60028,1,8,0:0:0:0:
262,87,60628,1,8,0:0:0:0:
368,70,60928,1,0,0:0:0:0:
245,55,61228,1,8,0:0:0:0:
266,110,61828,1,0,0:0:0:0:
330,96,62428,1,8,0:0:0:0:
318,92,63028,1,8,0:0:0:0:
301,81,63628,1,0,0:0:0:0:
281,72,64828,1,8,0:0:0:0:
280,57,65428,1,8,0:0:0:0:
169,57,66028,1,8,0:0:0:0:
233,148,66328,1,8,0:0:0:0:
280,188,66628,1,0,0:0:0:0:
210,148,67228,1,8,0:0:0:0:
306,133,67828,1,8,0:0:0:0:
254,110,68428,1,0,0:0:0:0:
231,72,69628,1,8,0:0:0:0:
227,81,70228,1,8,0:0:0:0:
291,84,70528,1,0,0:0:0:0:
225,69,70828,1,8,0:0:0:0:
144,77,71128,1,8,0:0:0:0:
260,72,71428,1,0,0:0:0:0:
301,81,72028,1,8,0:0:0:0:
289,83,72628,1,8,0:0:0:0:
274,95,73228,1,0,0:0:0:0:
256,104,74428,1,8,0:0:0:0:
216,84,75028,1,8,0:0:0:0:
213,90,75328,1,8,0:0:0:0:
225,96,75628,1,8,0:0:0:0:
239,112,75928,1,8,0:0:0:0:
242,116,76228,1,0,0:0:0:0:
256,192,76828,12,0,78703,0:0:0:0:
