osu file format v14

[General]
AudioFilename: audio.mp3
AudioLeadIn: 0
PreviewTime: 87013
Countdown: 1
SampleSet: Normal
StackLeniency: 0.2
Mode: 0
LetterboxInBreaks: 0
WidescreenStoryboard: 1

[Editor]
Bookmarks: 18479,27013,44079,91013,108079
DistanceSpacing: 1
BeatDivisor: 3
GridSize: 4
TimelineZoom: 4.999997

[Metadata]
Title:I
TitleUnicode:I
Artist:Kokuma
ArtistUnicode:黒魔
Creator:srijanfromsd
Version:Extra/Another (not sure)
Source:
Tags:
BeatmapID:1668913
BeatmapSetID:794080

[Difficulty]
HPDrainRate:7
CircleSize:4
OverallDifficulty:8
ApproachRate:9.4
SliderMultiplier:2
SliderTickRate:1

[Events]
//Background and Video events
0,0,"Osu_I_BG.jpg",0,0
//Break Periods
2,5746,90473
//Storyboard Layer 0 (Background)
//Storyboard Layer 1 (Fail)
//Storyboard Layer 2 (Pass)
//Storyboard Layer 3 (Foreground)
//Storyboard Sound Samples

[TimingPoints]
1413,266.666666666667,4,1,0,80,1,0
1413,-111.111111111111,4,1,0,80,0,0
91013,-83.3333333333332,4,1,0,70,0,1
99279,-83.3333333333332,4,1,0,70,0,0
99546,-83.3333333333332,4,1,0,70,0,1
111813,-125,4,1,0,70,0,0

[Colours]
Combo1 : 0,244,244
Combo2 : 255,255,255
Combo3 : 0,125,255
Combo4 : 0,0,255

[HitObjects]
125,123,1413,6,0,L|132:228,1,89.9999972534181
200,290,1679,1,0,0:0:0:0:
79,297,1813,1,0,0:0:0:0:
222,287,1946,2,0,L|327:280,1,89.9999972534181
457,254,2213,1,0,0:0:0:0:
338,193,2346,1,0,0:0:0:0:
405,352,2479,5,0,0:0:0:0:
374,271,2613,1,0,0:0:0:0:
319,338,2746,1,0,0:0:0:0:
459,283,2879,1,0,0:0:0:0:
451,239,2945,1,0,0:0:0:0:
424,204,3012,1,0,0:0:0:0:
382,187,3079,1,0,0:0:0:0:
338,193,3145,1,0,0:0:0:0:
198,291,3279,1,0,0:0:0:0:
205,305,3413,1,0,0:0:0:0:
236,195,3546,6,0,L|245:84,1,89.9999972534181
385,115,3813,1,0,0:0:0:0:
318,15,3946,1,0,0:0:0:0:
395,133,4079,2,0,L|445:224,1,89.9999972534181
344,308,4346,1,0,0:0:0:0:
230,194,4479,1,0,0:0:0:0:
324,214,4613,5,0,0:0:0:0:
250,286,4746,1,0,0:0:0:0:
230,194,4879,1,0,0:0:0:0:
344,308,5013,1,0,0:0:0:0:
321,346,5079,1,0,0:0:0:0:
284,370,5146,1,0,0:0:0:0:
239,376,5213,1,0,0:0:0:0:
198,360,5279,1,0,0:0:0:0:
88,204,5413,1,0,0:0:0:0:
80,184,5546,1,0,0:0:0:0:
83,140,91013,6,0,L|246:152,1,159.999995117188
321,164,91279,1,0,0:0:0:0:
382,215,91368,1,0,0:0:0:0:
377,294,91457,1,0,0:0:0:0:
305,329,91546,2,0,P|260:337|212:326,2,79.9999975585938
263,259,91813,2,0,P|223:253|184:261,2,79.9999975585938
157,341,92079,6,0,P|100:262|126:199,1,159.999995117188
169,147,92346,1,0,0:0:0:0:
247,162,92435,1,0,0:0:0:0:
285,93,92524,1,0,0:0:0:0:
231,35,92613,2,0,P|171:40|141:64,2,79.9999975585938
285,93,92879,2,0,P|345:88|375:64,2,79.9999975585938
169,147,93146,6,0,P|89:188|77:291,1,159.999995117188
89,328,93413,1,0,0:0:0:0:
159,364,93501,1,0,0:0:0:0:
229,326,93590,1,0,0:0:0:0:
241,246,93679,2,0,P|235:206|196:171,2,79.9999975585938
160,237,93946,2,0,P|133:207|128:168,2,79.9999975585938
153,92,94213,6,0,L|325:118,1,159.999995117188
366,173,94479,1,0,0:0:0:0:
428,125,94568,1,0,2:0:0:0:
376,65,94657,1,0,2:0:0:0:
311,115,94746,2,0,P|282:161|285:197,2,79.9999975585938,0|0|0,2:0|2:0|2:0,2:0:0:0:
366,173,95013,2,0,P|394:219|391:255,2,79.9999975585938,0|0|0,2:0|2:0|2:0,2:0:0:0:
316,236,95279,6,0,P|344:307|419:321,1,159.999995117188
484,271,95546,1,0,0:0:0:0:
480,190,95635,1,0,0:0:0:0:
415,143,95724,1,0,0:0:0:0:
335,154,95813,2,0,P|292:172|264:226,2,79.9999975585938
345,233,96079,2,0,P|319:262|281:276,2,79.9999975585938
272,197,96346,6,0,P|302:274|385:289,1,159.999995117188
455,236,96613,1,0,0:0:0:0:
451,147,96702,1,0,0:0:0:0:
380,96,96791,1,0,0:0:0:0:
293,108,96880,2,0,P|252:122|224:155,2,79.9999975585938
304,194,97146,2,0,P|275:226|235:241,2,79.9999975585938
