osu file format v14

[General]
AudioFilename: audio.mp3
AudioLeadIn: 0
PreviewTime: 183397
Countdown: 0
SampleSet: Normal
StackLeniency: 0.7
Mode: 1
LetterboxInBreaks: 0
WidescreenStoryboard: 0

[Editor]
DistanceSpacing: 1.4
BeatDivisor: 4
GridSize: 8
TimelineZoom: 3.899999

[Metadata]
Title:Lucid Dream
TitleUnicode:Lucid Dream
Artist:Kokuchou feat. Chata
ArtistUnicode:黒鳥 feat. 茶太
Creator:kanpakyin
Version:Inner Oni
Source:東方星蓮船 ~ Undefined Fantastic Object.
Tags:EastNewSound touhou 東方project 法界の火 seirensen C77 ENS Sacred Factor Idumin Izumin Hijiri Byakuren Fires of Hokkai video game japanese comiket 77 doujin circle
BeatmapID:2350717
BeatmapSetID:1125030

[Difficulty]
HPDrainRate:4.5
CircleSize:5
OverallDifficulty:6.5
ApproachRate:5
SliderMultiplier:1.4
SliderTickRate:1

[Events]
//Background and Video events
0,0,"Lucid Dream.jpg",0,70
//Break Periods
//Storyboard Layer 0 (Background)
//Storyboard Layer 1 (Fail)
//Storyboard Layer 2 (Pass)
//Storyboard Layer 3 (Foreground)
//Storyboard Layer 4 (Overlay)
//Storyboard Sound Samples

[TimingPoints]
3398,352.941176470588,4,1,1,70,1,0
14692,-133.333333333333,4,1,1,70,0,0
16986,-129.87012987013,4,1,1,70,0,0
17162,-128.205128205128,4,1,1,70,0,0
17339,-126.582278481013,4,1,1,70,0,0
17515,-125,4,1,1,70,0,0
19633,-123.456790123457,4,1,1,70,0,0
19809,-121.951219512195,4,1,1,70,0,0
19986,-120.481927710843,4,1,1,70,0,0
20162,-119.047619047619,4,1,1,70,0,0
20339,-117.647058823529,4,1,1,70,0,0
22456,-116.279069767442,4,1,1,70,0,0
22633,-114.942528735632,4,1,1,70,0,0
22809,-113.636363636364,4,1,1,70,0,0
22986,-112.359550561798,4,1,1,70,0,0
23162,-111.111111111111,4,1,1,70,0,0
24397,-109.89010989011,4,1,1,70,0,0
24574,-108.695652173913,4,1,1,70,0,0
24750,-107.52688172043,4,1,1,70,0,0
24927,-106.382978723404,4,1,1,70,0,0
25103,-105.263157894737,4,1,1,70,0,0
25280,-104.166666666667,4,1,1,70,0,0
25456,-103.092783505155,4,1,1,70,0,0
25633,-102.040816326531,4,1,1,70,0,0
25809,-101.010101010101,4,1,1,70,0,0
25986,-100,4,1,1,70,0,0
92339,-95.2380952380952,4,1,1,70,0,0
93045,-94.3396226415094,4,1,1,70,0,0
93221,-93.4579439252336,4,1,1,70,0,0
93397,-92.5925925925926,4,1,1,70,0,0
93574,-91.743119266055,4,1,1,70,0,0
93750,-90.9090909090909,4,1,1,80,0,1
114309,-91.743119266055,4,1,1,80,0,1
114397,-92.5925925925926,4,1,1,80,0,1
114486,-93.4579439252336,4,1,1,80,0,1
114574,-94.3396226415094,4,1,1,80,0,1
114750,-95.2380952380952,4,1,1,80,0,1
114927,-100,4,1,1,70,0,0
160633,-101.010101010101,4,1,1,70,0,0
160721,-102.040816326531,4,1,1,70,0,0
160809,-103.092783505155,4,1,1,70,0,0
160897,-104.166666666667,4,1,1,70,0,0
160986,-105.263157894737,4,1,1,70,0,0
161074,-106.382978723404,4,1,1,70,0,0
161162,-107.52688172043,4,1,1,70,0,0
161250,-108.695652173913,4,1,1,70,0,0
161339,-109.89010989011,4,1,1,70,0,0
161427,-111.111111111111,4,1,1,70,0,0
161515,-112.359550561798,4,1,1,70,0,0
161692,-114.942528735632,4,1,1,70,0,0
161868,-117.647058823529,4,1,1,70,0,0
178456,-111.111111111111,4,1,1,70,0,0
179868,-105.263157894737,4,1,1,70,0,0
181280,-100,4,1,1,70,0,0
181986,-95.2380952380952,4,1,1,70,0,0
182692,-90.9090909090909,4,1,1,70,0,0
183397,-91.743119266055,4,1,1,70,0,0
183486,-92.5925925925926,4,1,1,70,0,0
183574,-93.4579439252336,4,1,1,70,0,0
183662,-94.3396226415094,4,1,1,70,0,0
183750,-95.2380952380952,4,1,1,70,0,0
183839,-96.1538461538461,4,1,1,70,0,0
183927,-97.0873786407767,4,1,1,70,0,0
184015,-98.0392156862745,4,1,1,70,0,0
184103,-99.009900990099,4,1,1,60,0,0
184280,-101.010101010101,4,1,1,60,0,0
184456,-103.092783505155,4,1,1,60,0,0
184633,-105.263157894737,4,1,1,60,0,0
184809,-107.52688172043,4,1,1,60,0,0
184986,-109.89010989011,4,1,1,60,0,0
185074,-111.111111111111,4,1,1,60,0,0
185162,-112.359550561798,4,1,1,60,0,0
185339,-114.942528735632,4,1,1,60,0,0
185515,-117.647058823529,4,1,1,60,0,0
203868,-111.111111111111,4,1,1,80,0,0
204574,-105.263157894737,4,1,1,80,0,0
205280,-100,4,1,1,80,0,0
205986,-95.2380952380952,4,1,1,80,0,0
206162,-94.3396226415094,4,1,1,80,0,0
206339,-93.4579439252336,4,1,1,80,0,0
206515,-92.5925925925926,4,1,1,80,0,0
206603,-91.743119266055,4,1,1,80,0,0
206692,-90.9090909090909,4,1,1,80,0,1
228397,-91.743119266055,4,1,1,80,0,1
228574,-92.5925925925926,4,1,1,80,0,1
228662,-93.4579439252336,4,1,1,80,0,1
228750,-94.3396226415094,4,1,1,80,0,1
228927,-95.2380952380952,4,1,1,80,0,1
229103,-98.0392156862745,4,1,1,80,0,1
229192,-99.009900990099,4,1,1,80,0,1
229280,-100,4,1,1,70,0,0
250809,-100,4,1,1,40,0,0

[HitObjects]
424,120,14692,5,0,0:0:0:0:
424,120,14868,1,8,0:0:0:0:
424,120,14956,1,8,0:0:0:0:
424,120,15045,1,8,0:0:0:0:
424,120,15221,1,0,0:0:0:0:
424,120,15574,1,0,0:0:0:0:
424,120,15750,1,2,0:0:0:0:
424,120,15927,1,0,0:0:0:0:
424,120,16280,1,2,0:0:0:0:
424,120,16456,1,0,0:0:0:0:
424,120,16633,1,2,0:0:0:0:
424,120,16986,1,0,0:0:0:0:
424,120,17162,1,8,0:0:0:0:
424,120,17339,1,8,0:0:0:0:
424,120,17515,1,0,0:0:0:0:
424,120,17692,1,8,0:0:0:0:
424,120,17780,1,8,0:0:0:0:
424,120,17868,1,8,0:0:0:0:
424,120,18045,1,0,0:0:0:0:
424,120,18221,1,2,0:0:0:0:
424,120,18574,1,0,0:0:0:0:
424,120,18750,1,2,0:0:0:0:
424,120,19103,1,2,0:0:0:0:
424,120,19192,1,2,0:0:0:0:
424,120,19280,1,0,0:0:0:0:
424,120,19456,1,0,0:0:0:0:
424,120,19633,1,0,0:0:0:0:
424,128,19809,1,0,0:0:0:0:
424,128,19986,1,2,0:0:0:0:
424,128,20162,1,2,0:0:0:0:
424,128,20339,1,0,0:0:0:0:
424,128,20515,1,2,0:0:0:0:
424,120,20603,1,2,0:0:0:0:
424,128,20692,1,2,0:0:0:0:
424,128,20868,1,0,0:0:0:0:
424,128,21397,1,8,0:0:0:0:
424,120,21574,1,0,0:0:0:0:
424,128,21927,1,2,0:0:0:0:
424,128,22103,1,0,0:0:0:0:
424,120,22280,1,2,0:0:0:0:
424,120,22456,1,0,0:0:0:0:
424,120,22633,1,0,0:0:0:0:
424,120,22809,1,2,0:0:0:0:
424,120,22986,1,2,0:0:0:0:
424,120,23162,1,0,0:0:0:0:
424,120,23339,1,2,0:0:0:0:
424,120,23427,1,2,0:0:0:0:
424,120,23515,1,2,0:0:0:0:
424,120,23692,1,0,0:0:0:0:
424,120,23868,1,2,0:0:0:0:
424,120,24221,1,2,0:0:0:0:
424,120,24397,1,0,0:0:0:0:
424,128,24750,1,2,0:0:0:0:
424,128,24927,1,0,0:0:0:0:
424,120,25103,1,0,0:0:0:0:
424,120,25280,1,0,0:0:0:0:
416,120,25456,1,0,0:0:0:0:
416,120,25633,1,2,0:0:0:0:
416,120,25809,1,2,0:0:0:0:
424,120,25986,1,4,0:0:0:0:
424,120,26162,1,0,0:0:0:0:
424,120,26250,1,0,0:0:0:0:
416,120,26339,1,2,0:0:0:0:
416,120,26515,1,0,0:0:0:0:
418,133,26603,1,2,0:0:0:0:
409,134,26780,1,2,0:0:0:0:
418,133,26868,1,0,0:0:0:0:
418,133,27045,1,2,0:0:0:0:
422,126,27221,1,2,0:0:0:0:
423,127,27397,1,0,0:0:0:0:
423,127,27574,1,0,0:0:0:0:
423,127,27662,1,0,0:0:0:0:
423,127,27750,1,2,0:0:0:0:
423,128,27927,1,0,0:0:0:0:
423,128,28015,1,2,0:0:0:0:
422,126,28103,1,0,0:0:0:0:
422,126,28192,1,2,0:0:0:0:
423,127,28280,1,0,0:0:0:0:
423,127,28456,1,2,0:0:0:0:
423,127,28633,1,2,0:0:0:0:
423,128,28809,1,0,0:0:0:0:
423,128,28986,1,0,0:0:0:0:
422,126,29162,1,2,0:0:0:0:
423,127,29339,1,0,0:0:0:0:
423,127,29427,1,2,0:0:0:0:
428,129,29603,1,2,0:0:0:0:
428,129,29692,1,0,0:0:0:0:
428,129,29868,1,2,0:0:0:0:
428,129,30045,1,2,0:0:0:0:
428,129,30221,1,0,0:0:0:0:
428,129,30397,1,0,0:0:0:0:
428,129,30574,1,2,0:0:0:0:
428,129,30750,1,0,0:0:0:0:
428,129,30839,1,2,0:0:0:0:
428,129,30927,1,0,0:0:0:0:
428,129,31015,1,8,0:0:0:0:
428,129,31103,1,0,0:0:0:0:
428,129,31280,1,2,0:0:0:0:
428,129,31456,1,2,0:0:0:0:
428,129,31633,1,0,0:0:0:0:
428,129,31809,1,0,0:0:0:0:
428,129,31986,1,2,0:0:0:0:
428,129,32162,1,0,0:0:0:0:
428,129,32250,1,2,0:0:0:0:
428,129,32427,1,2,0:0:0:0:
428,129,32515,1,0,0:0:0:0:
428,129,32692,1,2,0:0:0:0:
428,129,32868,1,2,0:0:0:0:
428,129,33045,1,0,0:0:0:0:
428,129,33221,1,0,0:0:0:0:
428,129,33397,1,2,0:0:0:0:
428,129,33574,1,0,0:0:0:0:
428,129,33662,1,2,0:0:0:0:
428,129,33750,1,0,0:0:0:0:
428,129,33839,1,2,0:0:0:0:
428,129,33927,1,0,0:0:0:0:
428,129,34103,1,2,0:0:0:0:
428,129,34280,1,2,0:0:0:0:
428,129,34456,1,0,0:0:0:0:
428,129,34633,1,0,0:0:0:0:
428,129,34809,1,2,0:0:0:0:
428,129,34986,1,0,0:0:0:0:
428,129,35074,1,2,0:0:0:0:
428,129,35250,1,2,0:0:0:0:
428,129,35339,1,0,0:0:0:0:
428,129,35515,1,2,0:0:0:0:
428,129,35692,1,0,0:0:0:0:
428,129,35868,1,0,0:0:0:0:
428,129,36045,1,0,0:0:0:0:
428,129,36221,1,2,0:0:0:0:
428,129,36397,1,0,0:0:0:0:
428,129,36486,1,2,0:0:0:0:
428,129,36574,1,2,0:0:0:0:
428,129,36662,1,2,0:0:0:0:
428,129,36750,1,0,0:0:0:0:
428,129,36927,1,2,0:0:0:0:
428,129,37103,1,2,0:0:0:0:
428,129,37192,1,2,0:0:0:0:
428,129,37280,1,0,0:0:0:0:
428,129,37456,1,0,0:0:0:0:
428,129,37633,1,2,0:0:0:0:
428,129,37809,1,0,0:0:0:0:
428,129,37897,1,2,0:0:0:0:
428,129,38074,1,2,0:0:0:0:
428,129,38162,1,0,0:0:0:0:
428,129,38339,1,8,0:0:0:0:
428,129,38515,1,0,0:0:0:0:
428,129,38692,1,0,0:0:0:0:
428,129,38868,1,0,0:0:0:0:
428,129,39045,1,8,0:0:0:0:
428,129,39221,1,0,0:0:0:0:
428,129,39309,1,8,0:0:0:0:
428,129,39397,1,0,0:0:0:0:
428,129,39486,1,8,0:0:0:0:
428,129,39574,1,0,0:0:0:0:
428,129,39750,1,8,0:0:0:0:
428,129,39927,1,0,0:0:0:0:
428,129,40103,1,0,0:0:0:0:
428,129,40280,1,0,0:0:0:0:
428,129,40456,1,8,0:0:0:0:
428,129,40633,1,0,0:0:0:0:
428,129,40721,1,8,0:0:0:0:
428,129,40897,1,8,0:0:0:0:
428,129,40986,1,0,0:0:0:0:
428,129,41162,1,8,0:0:0:0:
428,129,41339,1,8,0:0:0:0:
428,129,41427,1,8,0:0:0:0:
428,129,41515,1,0,0:0:0:0:
428,129,41692,1,0,0:0:0:0:
428,129,41868,1,8,0:0:0:0:
437,128,42045,1,0,0:0:0:0:
437,128,42133,1,2,0:0:0:0:
437,129,42221,1,0,0:0:0:0:
436,129,42309,1,2,0:0:0:0:
437,129,42397,1,0,0:0:0:0:
437,129,42574,1,8,0:0:0:0:
437,129,42750,1,8,0:0:0:0:
437,128,42927,1,0,0:0:0:0:
437,128,43103,1,0,0:0:0:0:
436,129,43280,1,8,0:0:0:0:
437,129,43456,1,0,0:0:0:0:
437,129,43545,1,8,0:0:0:0:
437,129,43721,1,8,0:0:0:0:
437,128,43809,1,0,0:0:0:0:
437,128,43986,1,8,0:0:0:0:
436,129,44162,1,0,0:0:0:0:
436,129,44250,1,0,0:0:0:0:
436,129,44339,1,0,0:0:0:0:
437,129,44515,1,0,0:0:0:0:
437,135,44692,1,8,0:0:0:0:
430,130,44868,1,0,0:0:0:0:
430,130,44956,1,8,0:0:0:0:
431,130,45045,1,0,0:0:0:0:
436,129,45133,1,8,0:0:0:0:
436,129,45221,1,0,0:0:0:0:
430,130,45397,1,8,0:0:0:0:
431,130,45574,1,8,0:0:0:0:
430,130,45750,1,0,0:0:0:0:
430,130,45927,1,0,0:0:0:0:
436,129,46103,1,8,0:0:0:0:
430,130,46280,1,0,0:0:0:0:
430,130,46368,1,8,0:0:0:0:
431,130,46545,1,8,0:0:0:0:
430,130,46633,1,0,0:0:0:0:
430,130,46809,1,12,0:0:0:0:
436,129,46986,1,4,0:0:0:0:
430,130,47162,1,8,0:0:0:0:
423,142,47250,1,0,0:0:0:0:
430,130,47339,1,0,0:0:0:0:
423,142,47427,1,0,0:0:0:0:
431,130,47515,1,8,0:0:0:0:
430,130,47692,1,0,0:0:0:0:
430,130,47780,1,8,0:0:0:0:
436,129,47868,1,8,0:0:0:0:
436,129,47956,1,8,0:0:0:0:
436,129,48045,1,0,0:0:0:0:
430,130,48133,1,0,0:0:0:0:
430,130,48221,1,8,0:0:0:0:
422,135,48309,1,0,0:0:0:0:
431,130,48397,1,8,0:0:0:0:
431,130,48486,1,8,0:0:0:0:
430,130,48574,1,0,0:0:0:0:
430,130,48750,1,0,0:0:0:0:
436,129,48927,1,8,0:0:0:0:
430,130,49192,1,0,0:0:0:0:
431,130,49280,1,8,0:0:0:0:
431,130,49368,1,8,0:0:0:0:
431,130,49456,1,0,0:0:0:0:
430,130,49633,1,8,0:0:0:0:
432,133,49809,1,0,0:0:0:0:
432,133,49986,1,0,0:0:0:0:
430,130,50162,1,0,0:0:0:0:
431,130,50339,1,8,0:0:0:0:
430,130,50515,1,8,0:0:0:0:
430,130,50603,1,0,0:0:0:0:
432,133,50780,1,8,0:0:0:0:
432,133,50868,1,0,0:0:0:0:
430,130,51045,1,8,0:0:0:0:
431,130,51221,1,0,0:0:0:0:
431,130,51397,1,0,0:0:0:0:
438,131,51574,1,0,0:0:0:0:
438,131,51750,1,8,0:0:0:0:
435,129,51927,1,0,0:0:0:0:
435,129,52015,1,8,0:0:0:0:
431,130,52103,1,0,0:0:0:0:
431,130,52192,1,8,0:0:0:0:
431,130,52280,1,0,0:0:0:0:
431,129,52456,1,8,0:0:0:0:
435,129,52809,1,0,0:0:0:0:
422,128,52986,1,0,0:0:0:0:
424,127,53074,1,0,0:0:0:0:
422,128,53162,1,8,0:0:0:0:
422,128,53339,1,0,0:0:0:0:
423,128,53427,1,8,0:0:0:0:
423,128,53603,1,0,0:0:0:0:
423,128,53692,1,8,0:0:0:0:
422,128,53868,1,8,0:0:0:0:
424,127,54045,1,0,0:0:0:0:
422,128,54221,1,0,0:0:0:0:
423,128,54397,1,0,0:0:0:0:
423,128,54574,1,8,0:0:0:0:
422,128,54750,1,0,0:0:0:0:
422,128,54839,1,8,0:0:0:0:
414,115,54927,1,0,0:0:0:0:
424,127,55015,1,8,0:0:0:0:
424,127,55103,1,0,0:0:0:0:
423,128,55280,1,8,0:0:0:0:
422,128,55633,1,0,0:0:0:0:
422,128,55809,1,8,0:0:0:0:
424,127,55986,1,8,0:0:0:0:
423,128,56162,1,0,0:0:0:0:
423,128,56250,1,8,0:0:0:0:
422,128,56427,1,8,0:0:0:0:
422,128,56515,1,0,0:0:0:0:
422,128,56692,1,8,0:0:0:0:
423,128,57045,1,0,0:0:0:0:
423,128,57221,1,0,0:0:0:0:
422,128,57397,1,8,0:0:0:0:
422,128,57574,1,0,0:0:0:0:
422,128,57662,1,8,0:0:0:0:
409,143,57750,1,8,0:0:0:0:
423,128,57839,1,8,0:0:0:0:
423,128,57927,1,0,0:0:0:0:
423,128,58103,1,8,0:0:0:0:
422,128,58456,1,0,0:0:0:0:
422,128,58633,1,0,0:0:0:0:
423,128,58721,1,0,0:0:0:0:
423,128,58809,1,8,0:0:0:0:
423,128,58986,1,0,0:0:0:0:
423,128,59074,1,8,0:0:0:0:
422,128,59250,1,8,0:0:0:0:
422,128,59339,1,0,0:0:0:0:
422,128,59515,1,8,0:0:0:0:
426,120,59603,1,0,0:0:0:0:
423,128,59692,1,8,0:0:0:0:
423,128,59780,1,8,0:0:0:0:
423,128,59868,1,0,0:0:0:0:
423,128,60045,1,0,0:0:0:0:
422,128,60221,1,8,0:0:0:0:
422,128,60397,1,0,0:0:0:0:
422,128,60486,1,8,0:0:0:0:
423,128,60574,1,0,0:0:0:0:
423,128,60662,1,8,0:0:0:0:
423,128,60750,1,0,0:0:0:0:
423,128,60927,1,8,0:0:0:0:
423,128,61103,1,0,0:0:0:0:
422,128,61280,1,0,0:0:0:0:
416,135,61456,1,0,0:0:0:0:
416,135,61633,1,8,0:0:0:0:
416,135,61809,1,8,0:0:0:0:
417,135,61897,1,0,0:0:0:0:
472,371,62074,1,8,0:0:0:0:
417,135,62162,1,0,0:0:0:0:
416,135,62339,1,8,0:0:0:0:
416,135,62515,1,0,0:0:0:0:
416,135,62692,1,0,0:0:0:0:
417,135,62868,1,0,0:0:0:0:
417,135,63045,1,8,0:0:0:0:
416,135,63221,1,0,0:0:0:0:
416,135,63309,1,8,0:0:0:0:
416,135,63397,1,0,0:0:0:0:
416,135,63486,1,8,0:0:0:0:
416,135,63574,1,0,0:0:0:0:
417,135,63750,1,8,0:0:0:0:
417,135,63927,1,0,0:0:0:0:
416,135,64103,1,0,0:0:0:0:
416,135,64280,1,0,0:0:0:0:
416,135,64368,1,0,0:0:0:0:
416,135,64456,1,8,0:0:0:0:
417,135,64633,1,0,0:0:0:0:
417,135,64721,1,8,0:0:0:0:
417,135,64897,1,8,0:0:0:0:
416,135,64986,1,0,0:0:0:0:
416,135,65162,1,8,0:0:0:0:
417,135,65515,1,0,0:0:0:0:
417,135,65692,1,0,0:0:0:0:
417,135,65868,1,8,0:0:0:0:
416,135,66045,1,8,0:0:0:0:
416,135,66133,1,0,0:0:0:0:
417,149,66221,1,0,0:0:0:0:
417,135,66309,1,8,0:0:0:0:
417,135,66397,1,0,0:0:0:0:
417,135,66574,1,8,0:0:0:0:
417,135,66750,1,0,0:0:0:0:
416,135,66927,1,0,0:0:0:0:
425,137,67103,1,0,0:0:0:0:
425,137,67280,1,8,0:0:0:0:
425,137,67456,1,8,0:0:0:0:
425,137,67545,1,0,0:0:0:0:
424,137,67721,1,8,0:0:0:0:
424,137,67809,1,0,0:0:0:0:
425,137,67986,1,8,0:0:0:0:
425,137,68162,1,0,0:0:0:0:
425,137,68339,1,0,0:0:0:0:
425,137,68515,1,0,0:0:0:0:
424,137,68692,1,8,0:0:0:0:
425,137,68868,1,0,0:0:0:0:
425,137,68956,1,0,0:0:0:0:
425,137,69045,1,8,0:0:0:0:
425,137,69133,1,8,0:0:0:0:
412,128,69221,1,0,0:0:0:0:
425,137,69397,1,8,0:0:0:0:
424,137,69574,1,0,0:0:0:0:
424,137,69633,1,0,0:0:0:0:
412,144,69692,1,0,0:0:0:0:
425,137,69750,1,8,0:0:0:0:
425,137,69927,1,8,0:0:0:0:
425,137,70103,1,8,0:0:0:0:
410,132,70280,1,0,0:0:0:0:
410,132,70368,1,0,0:0:0:0:
410,132,70456,1,8,0:0:0:0:
410,132,70545,1,8,0:0:0:0:
410,132,70633,1,8,0:0:0:0:
410,132,70721,1,8,0:0:0:0:
410,132,70809,1,0,0:0:0:0:
410,132,70897,1,8,0:0:0:0:
410,132,70986,1,8,0:0:0:0:
401,124,71045,1,8,0:0:0:0:
433,153,71103,1,8,0:0:0:0:
410,132,71162,1,0,0:0:0:0:
410,132,71339,1,0,0:0:0:0:
410,132,71515,1,8,0:0:0:0:
390,128,71780,1,0,0:0:0:0:
410,132,71868,1,0,0:0:0:0:
410,132,72045,1,8,0:0:0:0:
410,132,72133,1,0,0:0:0:0:
410,132,72221,1,8,0:0:0:0:
410,132,72397,1,0,0:0:0:0:
410,132,72574,1,8,0:0:0:0:
410,132,72662,1,0,0:0:0:0:
410,132,72839,1,0,0:0:0:0:
410,132,72927,1,8,0:0:0:0:
410,132,73103,1,0,0:0:0:0:
402,136,73192,1,8,0:0:0:0:
410,132,73280,1,0,0:0:0:0:
410,132,73456,1,0,0:0:0:0:
410,132,73633,1,8,0:0:0:0:
410,132,73986,1,0,0:0:0:0:
402,136,74162,1,0,0:0:0:0:
402,136,74339,1,8,0:0:0:0:
398,138,74515,1,0,0:0:0:0:
398,138,74603,1,8,0:0:0:0:
398,138,74692,1,0,0:0:0:0:
398,138,74780,1,8,0:0:0:0:
398,138,74868,1,0,0:0:0:0:
398,138,75045,1,8,0:0:0:0:
402,136,75221,1,0,0:0:0:0:
402,136,75397,1,0,0:0:0:0:
398,138,75750,1,8,0:0:0:0:
398,138,75927,1,0,0:0:0:0:
398,138,76015,1,8,0:0:0:0:
402,136,76192,1,8,0:0:0:0:
402,136,76280,1,0,0:0:0:0:
398,138,76456,1,8,0:0:0:0:
396,150,76633,1,0,0:0:0:0:
396,150,76809,1,0,0:0:0:0:
398,138,76986,1,0,0:0:0:0:
401,141,77162,1,8,0:0:0:0:
401,141,77339,1,0,0:0:0:0:
398,138,77427,1,0,0:0:0:0:
401,141,77515,1,8,0:0:0:0:
401,141,77603,1,8,0:0:0:0:
401,141,77692,1,0,0:0:0:0:
398,138,77868,1,8,0:0:0:0:
401,141,78045,1,0,0:0:0:0:
401,141,78221,1,0,0:0:0:0:
401,141,78574,1,8,0:0:0:0:
398,138,78750,1,0,0:0:0:0:
398,138,78839,1,8,0:0:0:0:
398,138,78927,1,0,0:0:0:0:
401,141,79103,1,8,0:0:0:0:
401,141,79192,1,0,0:0:0:0:
401,141,79280,1,8,0:0:0:0:
401,141,79456,1,8,0:0:0:0:
401,141,79633,1,0,0:0:0:0:
398,138,79809,1,0,0:0:0:0:
401,141,79986,1,8,0:0:0:0:
401,141,80339,1,0,0:0:0:0:
401,141,80515,1,0,0:0:0:0:
398,138,80692,1,8,0:0:0:0:
398,138,80868,1,0,0:0:0:0:
401,141,81045,1,0,0:0:0:0:
401,141,81397,1,8,0:0:0:0:
401,141,81574,1,0,0:0:0:0:
413,142,81662,1,8,0:0:0:0:
413,142,81750,1,8,0:0:0:0:
413,142,81839,1,8,0:0:0:0:
401,141,81927,1,0,0:0:0:0:
398,138,82103,1,8,0:0:0:0:
406,145,82280,1,8,0:0:0:0:
406,145,82368,1,8,0:0:0:0:
406,145,82456,1,0,0:0:0:0:
406,145,82633,1,0,0:0:0:0:
406,145,82809,1,8,0:0:0:0:
406,145,82986,1,0,0:0:0:0:
406,145,83162,1,0,0:0:0:0:
406,145,83250,1,8,0:0:0:0:
400,143,83339,1,0,0:0:0:0:
390,149,83427,1,0,0:0:0:0:
400,143,83515,1,8,0:0:0:0:
400,143,83692,1,0,0:0:0:0:
400,143,83868,1,0,0:0:0:0:
400,143,84221,1,8,0:0:0:0:
400,143,84397,1,0,0:0:0:0:
405,143,84486,1,8,0:0:0:0:
405,143,84662,1,0,0:0:0:0:
405,143,84750,1,8,0:0:0:0:
406,143,84839,1,0,0:0:0:0:
406,143,84927,1,8,0:0:0:0:
406,143,85103,1,0,0:0:0:0:
406,143,85280,1,0,0:0:0:0:
405,143,85456,1,0,0:0:0:0:
405,143,85633,1,8,0:0:0:0:
406,143,85809,1,0,0:0:0:0:
406,143,85897,1,8,0:0:0:0:
406,143,85986,1,0,0:0:0:0:
406,143,86162,1,0,0:0:0:0:
405,143,86339,1,8,0:0:0:0:
405,143,86515,1,0,0:0:0:0:
406,143,86692,1,0,0:0:0:0:
406,143,86868,1,0,0:0:0:0:
406,143,86956,1,0,0:0:0:0:
406,143,87045,1,8,0:0:0:0:
405,143,87221,1,0,0:0:0:0:
405,143,87309,1,8,0:0:0:0:
405,143,87397,1,0,0:0:0:0:
405,143,87486,1,8,0:0:0:0:
406,143,87574,1,8,0:0:0:0:
406,143,87662,1,0,0:0:0:0:
406,143,87750,1,8,0:0:0:0:
406,143,87927,1,0,0:0:0:0:
406,143,88103,1,0,0:0:0:0:
398,143,88280,1,0,0:0:0:0:
398,143,88456,1,8,0:0:0:0:
399,142,88633,1,0,0:0:0:0:
399,142,88721,1,8,0:0:0:0:
399,142,88897,1,8,0:0:0:0:
399,142,88986,1,0,0:0:0:0:
399,142,89074,1,0,0:0:0:0:
398,143,89162,1,8,0:0:0:0:
398,143,89339,1,0,0:0:0:0:
398,143,89515,1,0,0:0:0:0:
399,142,89692,1,0,0:0:0:0:
399,142,89868,1,8,0:0:0:0:
399,142,90045,1,0,0:0:0:0:
398,143,90133,1,8,0:0:0:0:
398,143,90309,1,8,0:0:0:0:
398,143,90397,1,8,0:0:0:0:
398,143,90486,1,0,0:0:0:0:
398,143,90574,1,8,0:0:0:0:
399,142,90750,1,0,0:0:0:0:
399,142,90927,1,0,0:0:0:0:
398,143,91103,1,0,0:0:0:0:
398,143,91280,1,8,0:0:0:0:
398,143,91456,1,0,0:0:0:0:
398,143,91545,1,8,0:0:0:0:
398,143,91633,1,0,0:0:0:0:
399,142,91809,1,0,0:0:0:0:
399,142,91986,1,8,0:0:0:0:
398,143,92162,1,8,0:0:0:0:
398,143,92339,1,4,0:0:0:0:
399,142,93045,1,12,0:0:0:0:
398,143,93221,1,4,0:0:0:0:
399,142,93397,1,12,0:0:0:0:
399,142,93574,1,0,0:0:0:0:
399,142,93750,1,12,0:0:0:0:
399,142,93927,1,0,0:0:0:0:
399,142,94015,1,8,0:0:0:0:
398,143,94103,1,8,0:0:0:0:
398,143,94192,1,0,0:0:0:0:
397,132,94280,1,8,0:0:0:0:
398,143,94368,1,8,0:0:0:0:
414,152,94456,1,0,0:0:0:0:
388,142,94545,1,8,0:0:0:0:
414,152,94633,1,8,0:0:0:0:
408,144,94721,1,0,0:0:0:0:
414,152,94809,1,8,0:0:0:0:
413,151,94986,1,0,0:0:0:0:
413,151,95162,1,8,0:0:0:0:
410,142,95250,1,0,0:0:0:0:
410,142,95427,1,0,0:0:0:0:
414,152,95515,1,8,0:0:0:0:
410,142,95603,1,0,0:0:0:0:
414,152,95692,1,8,0:0:0:0:
410,142,95780,1,0,0:0:0:0:
410,142,95868,1,0,0:0:0:0:
400,134,95956,1,8,0:0:0:0:
410,142,96045,1,8,0:0:0:0:
410,142,96221,1,8,0:0:0:0:
401,149,96397,1,8,0:0:0:0:
403,149,96486,1,0,0:0:0:0:
403,149,96574,1,0,0:0:0:0:
400,146,96750,1,0,0:0:0:0:
400,146,96927,1,8,0:0:0:0:
385,150,97103,1,8,0:0:0:0:
400,146,97280,1,0,0:0:0:0:
400,146,97368,1,8,0:0:0:0:
400,146,97456,1,0,0:0:0:0:
400,146,97545,1,0,0:0:0:0:
400,146,97633,1,8,0:0:0:0:
400,146,97721,1,0,0:0:0:0:
400,146,97809,1,8,0:0:0:0:
398,145,97986,1,0,0:0:0:0:
400,146,98250,1,0,0:0:0:0:
400,146,98339,1,8,0:0:0:0:
400,146,98515,1,8,0:0:0:0:
400,146,98603,1,8,0:0:0:0:
400,146,98692,1,0,0:0:0:0:
400,146,98780,1,8,0:0:0:0:
398,145,98868,1,8,0:0:0:0:
400,146,99045,1,8,0:0:0:0:
400,146,99133,1,8,0:0:0:0:
400,146,99221,1,8,0:0:0:0:
400,146,99397,1,0,0:0:0:0:
400,146,99574,1,0,0:0:0:0:
400,153,99750,1,8,0:0:0:0:
400,153,99839,1,0,0:0:0:0:
407,126,99927,1,8,0:0:0:0:
400,153,100015,1,0,0:0:0:0:
396,153,100103,1,0,0:0:0:0:
386,154,100192,1,8,0:0:0:0:
386,154,100280,1,0,0:0:0:0:
386,154,100456,1,8,0:0:0:0:
393,168,100633,1,8,0:0:0:0:
401,171,100721,1,0,0:0:0:0:
393,168,100809,1,8,0:0:0:0:
399,171,100986,1,0,0:0:0:0:
399,171,101162,1,8,0:0:0:0:
389,170,101250,1,0,0:0:0:0:
397,177,101339,1,8,0:0:0:0:
386,169,101515,1,0,0:0:0:0:
418,174,101603,1,8,0:0:0:0:
386,169,101692,1,8,0:0:0:0:
386,169,101868,1,8,0:0:0:0:
386,169,102045,1,8,0:0:0:0:
386,169,102133,1,0,0:0:0:0:
386,169,102221,1,0,0:0:0:0:
386,169,102397,1,0,0:0:0:0:
386,169,102574,1,8,0:0:0:0:
380,159,102662,1,0,0:0:0:0:
386,169,102750,1,8,0:0:0:0:
386,169,102839,1,8,0:0:0:0:
386,169,102927,1,0,0:0:0:0:
386,169,103015,1,8,0:0:0:0:
386,169,103103,1,8,0:0:0:0:
386,169,103280,1,8,0:0:0:0:
386,169,103456,1,8,0:0:0:0:
386,169,103633,1,0,0:0:0:0:
386,169,103809,1,0,0:0:0:0:
386,169,103897,1,8,0:0:0:0:
386,169,103986,1,8,0:0:0:0:
386,169,104074,1,0,0:0:0:0:
386,169,104162,1,8,0:0:0:0:
378,157,104250,1,0,0:0:0:0:
386,169,104339,1,0,0:0:0:0:
386,169,104427,1,8,0:0:0:0:
386,169,104515,1,8,0:0:0:0:
393,162,104603,1,0,0:0:0:0:
386,169,104692,1,8,0:0:0:0:
386,169,104868,1,8,0:0:0:0:
386,169,104956,1,0,0:0:0:0:
386,169,105045,1,0,0:0:0:0:
380,164,105221,1,0,0:0:0:0:
380,164,105397,1,8,0:0:0:0:
380,164,105486,1,0,0:0:0:0:
380,165,105574,1,8,0:0:0:0:
372,155,105662,1,8,0:0:0:0:
385,161,105750,1,0,0:0:0:0:
385,161,105839,1,8,0:0:0:0:
385,161,105927,1,8,0:0:0:0:
385,161,106015,1,0,0:0:0:0:
385,161,106103,1,8,0:0:0:0:
386,154,106280,1,8,0:0:0:0:
386,154,106368,1,0,0:0:0:0:
386,154,106456,1,8,0:0:0:0:
386,154,106633,1,0,0:0:0:0:
386,154,106809,1,8,0:0:0:0:
386,154,106986,1,8,0:0:0:0:
386,154,107074,1,8,0:0:0:0:
386,154,107162,1,0,0:0:0:0:
386,154,107250,1,0,0:0:0:0:
386,154,107339,1,8,0:0:0:0:
386,154,107427,1,0,0:0:0:0:
386,154,107515,1,8,0:0:0:0:
386,154,107692,1,8,0:0:0:0:
386,154,107780,1,0,0:0:0:0:
386,154,107868,1,0,0:0:0:0:
386,154,108045,1,0,0:0:0:0:
386,154,108221,1,8,0:0:0:0:
386,154,108397,1,8,0:0:0:0:
372,138,108486,1,0,0:0:0:0:
372,138,108662,1,8,0:0:0:0:
372,138,108750,1,8,0:0:0:0:
372,138,108839,1,0,0:0:0:0:
372,138,108927,1,8,0:0:0:0:
368,137,109103,1,8,0:0:0:0:
368,137,109280,1,0,0:0:0:0:
368,137,109456,1,0,0:0:0:0:
372,138,109545,1,0,0:0:0:0:
372,138,109633,1,8,0:0:0:0:
372,138,109809,1,8,0:0:0:0:
372,138,109897,1,0,0:0:0:0:
368,137,110074,1,8,0:0:0:0:
368,137,110162,1,8,0:0:0:0:
368,137,110250,1,0,0:0:0:0:
368,137,110339,1,8,0:0:0:0:
372,138,110515,1,8,0:0:0:0:
372,138,110692,1,0,0:0:0:0:
372,138,110868,1,0,0:0:0:0:
373,137,110956,1,0,0:0:0:0:
373,137,111045,1,8,0:0:0:0:
373,137,111133,1,0,0:0:0:0:
373,137,111221,1,8,0:0:0:0:
373,137,111309,1,0,0:0:0:0:
373,137,111397,1,0,0:0:0:0:
372,138,111486,1,8,0:0:0:0:
372,138,111574,1,8,0:0:0:0:
372,138,111662,1,0,0:0:0:0:
372,138,111750,1,8,0:0:0:0:
373,137,111927,1,8,0:0:0:0:
373,137,112103,1,0,0:0:0:0:
373,137,112280,1,0,0:0:0:0:
373,137,112368,1,0,0:0:0:0:
372,138,112456,1,8,0:0:0:0:
372,138,112633,1,8,0:0:0:0:
372,138,112721,1,0,0:0:0:0:
373,137,112809,1,0,0:0:0:0:
385,161,112897,1,0,0:0:0:0:
373,137,112986,1,8,0:0:0:0:
373,137,113074,1,0,0:0:0:0:
373,137,113162,1,8,0:0:0:0:
373,137,113339,1,8,0:0:0:0:
372,138,113515,1,8,0:0:0:0:
372,138,113603,1,8,0:0:0:0:
377,130,113692,1,0,0:0:0:0:
373,137,113780,1,0,0:0:0:0:
377,130,113868,1,8,0:0:0:0:
377,130,114045,1,8,0:0:0:0:
377,130,114133,1,0,0:0:0:0:
377,130,114221,1,0,0:0:0:0:
377,130,114309,1,8,0:0:0:0:
377,130,114397,1,0,0:0:0:0:
377,130,114486,1,0,0:0:0:0:
377,130,114574,1,8,0:0:0:0:
377,130,114750,1,8,0:0:0:0:
377,130,114927,1,4,0:0:0:0:
377,130,115456,1,8,0:0:0:0:
377,130,115633,1,12,0:0:0:0:
377,130,115809,1,0,0:0:0:0:
377,130,115986,1,12,0:0:0:0:
377,130,116162,1,8,0:0:0:0:
377,130,116339,1,4,0:0:0:0:
370,124,116515,1,0,0:0:0:0:
370,124,116692,1,8,0:0:0:0:
370,124,116868,1,0,0:0:0:0:
370,124,116956,1,8,0:0:0:0:
370,124,117133,1,8,0:0:0:0:
370,124,117221,1,0,0:0:0:0:
370,124,117309,1,0,0:0:0:0:
370,124,117397,1,8,0:0:0:0:
370,124,117574,1,8,0:0:0:0:
370,124,117750,1,0,0:0:0:0:
370,124,117927,1,0,0:0:0:0:
370,124,118103,1,8,0:0:0:0:
370,124,118280,1,0,0:0:0:0:
370,124,118368,1,8,0:0:0:0:
370,124,118456,1,0,0:0:0:0:
370,124,118545,1,8,0:0:0:0:
370,124,118633,1,0,0:0:0:0:
370,124,118809,1,8,0:0:0:0:
370,124,118986,1,8,0:0:0:0:
370,124,119162,1,0,0:0:0:0:
372,129,119339,1,0,0:0:0:0:
372,129,119515,1,8,0:0:0:0:
372,129,119692,1,0,0:0:0:0:
372,129,119780,1,8,0:0:0:0:
372,129,119956,1,8,0:0:0:0:
372,129,120045,1,0,0:0:0:0:
372,129,120133,1,0,0:0:0:0:
372,129,120221,1,8,0:0:0:0:
372,129,120397,1,8,0:0:0:0:
372,129,120574,1,0,0:0:0:0:
372,129,120750,1,0,0:0:0:0:
372,129,120927,1,8,0:0:0:0:
372,129,121103,1,0,0:0:0:0:
372,129,121192,1,8,0:0:0:0:
380,130,121280,1,0,0:0:0:0:
372,129,121368,1,8,0:0:0:0:
372,129,121456,1,0,0:0:0:0:
372,129,121633,1,8,0:0:0:0:
372,129,121809,1,8,0:0:0:0:
372,129,121986,1,0,0:0:0:0:
375,134,122162,1,0,0:0:0:0:
375,134,122339,1,8,0:0:0:0:
375,134,122515,1,0,0:0:0:0:
375,134,122603,1,8,0:0:0:0:
375,134,122780,1,8,0:0:0:0:
375,134,122868,1,0,0:0:0:0:
375,134,123045,1,8,0:0:0:0:
375,134,123221,1,8,0:0:0:0:
375,134,123397,1,0,0:0:0:0:
375,134,123574,1,0,0:0:0:0:
375,134,123750,1,8,0:0:0:0:
375,134,123927,1,0,0:0:0:0:
375,134,124015,1,8,0:0:0:0:
372,146,124103,1,0,0:0:0:0:
375,134,124192,1,8,0:0:0:0:
375,134,124280,1,0,0:0:0:0:
375,134,124456,1,8,0:0:0:0:
375,134,124633,1,8,0:0:0:0:
375,134,124809,1,0,0:0:0:0:
375,134,124986,1,0,0:0:0:0:
375,134,125162,1,8,0:0:0:0:
375,134,125339,1,0,0:0:0:0:
375,134,125427,1,8,0:0:0:0:
375,134,125603,1,8,0:0:0:0:
375,134,125692,1,0,0:0:0:0:
377,140,125780,1,0,0:0:0:0:
375,134,125868,1,8,0:0:0:0:
375,134,126045,1,8,0:0:0:0:
375,134,126221,1,0,0:0:0:0:
375,134,126397,1,0,0:0:0:0:
375,134,126574,1,8,0:0:0:0:
375,134,126750,1,0,0:0:0:0:
375,134,126839,1,8,0:0:0:0:
382,114,126927,1,0,0:0:0:0:
375,134,127015,1,8,0:0:0:0:
375,134,127103,1,0,0:0:0:0:
375,134,127280,1,8,0:0:0:0:
375,134,127456,1,8,0:0:0:0:
375,134,127545,1,8,0:0:0:0:
375,134,127633,1,0,0:0:0:0:
375,134,127809,1,0,0:0:0:0:
375,134,127986,1,8,0:0:0:0:
375,134,128162,1,0,0:0:0:0:
375,134,128250,1,8,0:0:0:0:
375,134,128427,1,8,0:0:0:0:
375,134,128515,1,0,0:0:0:0:
375,134,128603,1,0,0:0:0:0:
375,134,128692,1,8,0:0:0:0:
375,134,128868,1,8,0:0:0:0:
375,134,129045,1,0,0:0:0:0:
375,134,129221,1,0,0:0:0:0:
375,134,129397,1,8,0:0:0:0:
375,134,129574,1,0,0:0:0:0:
375,134,129662,1,8,0:0:0:0:
375,134,129750,1,0,0:0:0:0:
375,134,129839,1,8,0:0:0:0:
375,134,129927,1,0,0:0:0:0:
379,109,130015,1,0,0:0:0:0:
375,134,130103,1,8,0:0:0:0:
375,134,130280,1,8,0:0:0:0:
375,134,130456,1,0,0:0:0:0:
375,134,130633,1,0,0:0:0:0:
375,134,130809,1,8,0:0:0:0:
375,134,130986,1,0,0:0:0:0:
375,134,131074,1,8,0:0:0:0:
375,134,131250,1,0,0:0:0:0:
375,134,131339,1,8,0:0:0:0:
375,134,131515,1,8,0:0:0:0:
387,136,131692,1,8,0:0:0:0:
387,136,131868,1,0,0:0:0:0:
387,136,132045,1,0,0:0:0:0:
388,136,132221,1,8,0:0:0:0:
388,136,132397,1,0,0:0:0:0:
388,136,132486,1,8,0:0:0:0:
387,136,132574,1,0,0:0:0:0:
387,136,132662,1,8,0:0:0:0:
387,136,132750,1,0,0:0:0:0:
379,109,132839,1,0,0:0:0:0:
387,136,132927,1,8,0:0:0:0:
387,136,133103,1,8,0:0:0:0:
388,136,133280,1,0,0:0:0:0:
388,136,133456,1,0,0:0:0:0:
387,136,133633,1,8,0:0:0:0:
387,136,133809,1,0,0:0:0:0:
387,136,133897,1,8,0:0:0:0:
387,136,134074,1,8,0:0:0:0:
388,136,134162,1,8,0:0:0:0:
388,136,134250,1,0,0:0:0:0:
388,136,134339,1,8,0:0:0:0:
388,136,134515,1,8,0:0:0:0:
387,136,134692,1,0,0:0:0:0:
387,136,134868,1,0,0:0:0:0:
387,136,135045,1,8,0:0:0:0:
388,136,135221,1,0,0:0:0:0:
388,136,135309,1,8,0:0:0:0:
388,136,135486,1,8,0:0:0:0:
388,136,135574,1,0,0:0:0:0:
387,136,135662,1,0,0:0:0:0:
387,136,135750,1,8,0:0:0:0:
387,136,135927,1,8,0:0:0:0:
387,136,136103,1,0,0:0:0:0:
388,136,136280,1,0,0:0:0:0:
388,136,136456,1,8,0:0:0:0:
388,136,136633,1,0,0:0:0:0:
387,136,136721,1,8,0:0:0:0:
387,136,136897,1,8,0:0:0:0:
387,136,136986,1,0,0:0:0:0:
388,136,137162,1,12,0:0:0:0:
388,136,137339,1,12,0:0:0:0:
395,134,137515,1,0,0:0:0:0:
395,134,137692,1,0,0:0:0:0:
395,134,137780,1,0,0:0:0:0:
395,134,137868,1,8,0:0:0:0:
395,134,138045,1,0,0:0:0:0:
395,134,138133,1,8,0:0:0:0:
395,134,138221,1,8,0:0:0:0:
395,134,138309,1,0,0:0:0:0:
395,134,138397,1,8,0:0:0:0:
395,134,138486,1,0,0:0:0:0:
395,134,138574,1,8,0:0:0:0:
395,134,138662,1,8,0:0:0:0:
395,134,138750,1,8,0:0:0:0:
395,134,138839,1,8,0:0:0:0:
395,134,138927,1,0,0:0:0:0:
402,136,139103,1,0,0:0:0:0:
402,136,139280,1,8,0:0:0:0:
395,134,139545,1,8,0:0:0:0:
395,134,139633,1,0,0:0:0:0:
395,134,139721,1,8,0:0:0:0:
395,134,139809,1,0,0:0:0:0:
395,134,139986,1,8,0:0:0:0:
402,136,140162,1,0,0:0:0:0:
400,140,140339,1,0,0:0:0:0:
400,140,140515,1,8,0:0:0:0:
400,140,140692,1,8,0:0:0:0:
405,142,140868,1,0,0:0:0:0:
405,142,140956,1,8,0:0:0:0:
405,142,141045,1,8,0:0:0:0:
405,142,141133,1,8,0:0:0:0:
405,142,141221,1,0,0:0:0:0:
405,142,141397,1,8,0:0:0:0:
405,142,141574,1,0,0:0:0:0:
405,142,141750,1,0,0:0:0:0:
405,142,141927,1,0,0:0:0:0:
405,142,142103,1,8,0:0:0:0:
429,145,142280,1,0,0:0:0:0:
429,145,142368,1,8,0:0:0:0:
429,145,142545,1,8,0:0:0:0:
429,145,142633,1,0,0:0:0:0:
429,145,142721,1,0,0:0:0:0:
429,145,142809,1,8,0:0:0:0:
441,149,142986,1,0,0:0:0:0:
441,149,143162,1,0,0:0:0:0:
474,154,143339,1,0,0:0:0:0:
474,154,143427,1,0,0:0:0:0:
474,154,143515,1,8,0:0:0:0:
469,158,143692,1,0,0:0:0:0:
469,158,143780,1,8,0:0:0:0:
469,158,143868,1,0,0:0:0:0:
469,158,143956,1,8,0:0:0:0:
469,158,144045,1,0,0:0:0:0:
469,158,144133,1,0,0:0:0:0:
469,158,144221,1,8,0:0:0:0:
469,158,144397,1,0,0:0:0:0:
469,158,144574,1,0,0:0:0:0:
469,158,144750,1,0,0:0:0:0:
469,158,144839,1,0,0:0:0:0:
469,158,144927,1,8,0:0:0:0:
474,165,145103,1,0,0:0:0:0:
474,165,145192,1,8,0:0:0:0:
474,165,145368,1,8,0:0:0:0:
474,165,145456,1,0,0:0:0:0:
474,165,145633,1,8,0:0:0:0:
474,165,145986,1,0,0:0:0:0:
476,156,146162,1,8,0:0:0:0:
476,156,146250,1,0,0:0:0:0:
477,156,146339,1,8,0:0:0:0:
497,168,146515,1,0,0:0:0:0:
497,168,146603,1,8,0:0:0:0:
496,164,146692,1,8,0:0:0:0:
497,168,146780,1,8,0:0:0:0:
497,168,146868,1,0,0:0:0:0:
497,168,147045,1,8,0:0:0:0:
497,168,147221,1,0,0:0:0:0:
497,168,147397,1,0,0:0:0:0:
497,168,147574,1,0,0:0:0:0:
497,168,147750,1,8,0:0:0:0:
497,168,147927,1,0,0:0:0:0:
497,168,148015,1,8,0:0:0:0:
497,168,148192,1,8,0:0:0:0:
497,168,148280,1,0,0:0:0:0:
497,168,148368,1,0,0:0:0:0:
497,168,148456,1,8,0:0:0:0:
497,168,148633,1,0,0:0:0:0:
497,168,148809,1,0,0:0:0:0:
498,174,148986,1,0,0:0:0:0:
498,174,149074,1,0,0:0:0:0:
498,174,149162,1,8,0:0:0:0:
494,174,149339,1,0,0:0:0:0:
497,168,149427,1,8,0:0:0:0:
463,167,149515,1,0,0:0:0:0:
498,174,149603,1,8,0:0:0:0:
498,174,149692,1,0,0:0:0:0:
498,174,149868,1,8,0:0:0:0:
498,174,150045,1,8,0:0:0:0:
498,174,150133,1,8,0:0:0:0:
498,174,150221,1,0,0:0:0:0:
499,174,150397,1,0,0:0:0:0:
498,174,150574,1,8,0:0:0:0:
498,174,150750,1,0,0:0:0:0:
498,174,150839,1,8,0:0:0:0:
498,174,151015,1,8,0:0:0:0:
498,174,151103,1,0,0:0:0:0:
499,174,151280,1,8,0:0:0:0:
499,174,151456,1,0,0:0:0:0:
498,174,151633,1,0,0:0:0:0:
498,174,151809,1,0,0:0:0:0:
498,174,151986,1,8,0:0:0:0:
499,174,152162,1,0,0:0:0:0:
499,174,152250,1,8,0:0:0:0:
499,174,152339,1,0,0:0:0:0:
499,174,152427,1,8,0:0:0:0:
498,174,152515,1,0,0:0:0:0:
498,174,152692,1,8,0:0:0:0:
498,174,152868,1,0,0:0:0:0:
498,174,153045,1,0,0:0:0:0:
499,174,153221,1,0,0:0:0:0:
499,174,153397,1,8,0:0:0:0:
498,174,153574,1,0,0:0:0:0:
498,174,153662,1,8,0:0:0:0:
498,174,153839,1,8,0:0:0:0:
498,174,153927,1,0,0:0:0:0:
498,174,154015,1,0,0:0:0:0:
499,174,154103,1,8,0:0:0:0:
499,174,154280,1,0,0:0:0:0:
498,174,154456,1,0,0:0:0:0:
498,174,154633,1,0,0:0:0:0:
498,174,154809,1,8,0:0:0:0:
498,174,154986,1,0,0:0:0:0:
498,174,155074,1,8,0:0:0:0:
499,174,155162,1,8,0:0:0:0:
499,174,155250,1,8,0:0:0:0:
499,174,155339,1,0,0:0:0:0:
498,174,155515,1,8,0:0:0:0:
498,174,155692,1,0,0:0:0:0:
498,174,155780,1,0,0:0:0:0:
498,174,155868,1,0,0:0:0:0:
498,174,156045,1,0,0:0:0:0:
499,174,156221,1,8,0:0:0:0:
498,174,156397,1,0,0:0:0:0:
498,174,156486,1,8,0:0:0:0:
498,174,156662,1,8,0:0:0:0:
498,174,156750,1,0,0:0:0:0:
498,174,156927,1,8,0:0:0:0:
498,174,157103,1,0,0:0:0:0:
499,174,157280,1,0,0:0:0:0:
498,174,157456,1,8,0:0:0:0:
498,174,157633,1,8,0:0:0:0:
498,174,157809,1,0,0:0:0:0:
498,174,157897,1,8,0:0:0:0:
493,180,157986,1,0,0:0:0:0:
498,174,158074,1,8,0:0:0:0:
498,174,158162,1,0,0:0:0:0:
501,165,158250,1,0,0:0:0:0:
499,174,158339,1,8,0:0:0:0:
498,174,158515,1,8,0:0:0:0:
498,174,158692,5,0,0:0:0:0:
501,165,158868,1,0,0:0:0:0:
501,165,158956,1,0,0:0:0:0:
501,165,159045,1,8,0:0:0:0:
501,165,159221,1,0,0:0:0:0:
501,165,159309,1,8,0:0:0:0:
500,165,159397,1,8,0:0:0:0:
436,117,159486,1,8,0:0:0:0:
500,165,159574,1,0,0:0:0:0:
443,113,159633,1,0,0:0:0:0:
410,111,159692,1,0,0:0:0:0:
432,115,159750,5,8,0:0:0:0:
432,115,159927,1,8,0:0:0:0:
432,115,159986,1,0,0:0:0:0:
432,115,160045,1,0,0:0:0:0:
432,115,160103,5,0,0:0:0:0:
432,115,160280,1,0,0:0:0:0:
432,115,160456,1,8,0:0:0:0:
432,115,160633,1,0,0:0:0:0:
432,115,160721,1,8,0:0:0:0:
432,115,160809,1,8,0:0:0:0:
432,115,160897,1,0,0:0:0:0:
432,115,160986,1,8,0:0:0:0:
432,115,161074,1,0,0:0:0:0:
432,115,161162,1,8,0:0:0:0:
421,121,161250,1,0,0:0:0:0:
432,115,161339,1,0,0:0:0:0:
418,117,161427,1,8,0:0:0:0:
432,115,161515,1,0,0:0:0:0:
436,125,161692,1,0,0:0:0:0:
436,125,161868,1,8,0:0:0:0:
433,128,162397,1,0,0:0:0:0:
436,125,162574,1,8,0:0:0:0:
405,126,162750,1,0,0:0:0:0:
433,128,162927,1,0,0:0:0:0:
436,125,163015,1,8,0:0:0:0:
433,128,163103,1,0,0:0:0:0:
425,118,163192,1,0,0:0:0:0:
436,125,163280,1,8,0:0:0:0:
425,118,163456,1,0,0:0:0:0:
436,125,163545,1,8,0:0:0:0:
425,118,163633,1,0,0:0:0:0:
436,125,163721,1,8,0:0:0:0:
425,118,163809,1,0,0:0:0:0:
436,125,163986,1,8,0:0:0:0:
425,118,164162,1,0,0:0:0:0:
425,118,164339,1,0,0:0:0:0:
425,118,164515,1,0,0:0:0:0:
436,125,164692,1,8,0:0:0:0:
436,125,164956,1,8,0:0:0:0:
425,118,165045,1,0,0:0:0:0:
425,118,165221,1,0,0:0:0:0:
436,125,165397,1,8,0:0:0:0:
425,121,165750,1,0,0:0:0:0:
436,125,165839,1,8,0:0:0:0:
424,117,165927,1,0,0:0:0:0:
425,118,166015,1,0,0:0:0:0:
430,125,166103,1,8,0:0:0:0:
421,121,166280,1,0,0:0:0:0:
430,125,166368,1,8,0:0:0:0:
425,121,166456,1,0,0:0:0:0:
425,121,166545,1,8,0:0:0:0:
425,121,166633,1,0,0:0:0:0:
425,121,166721,1,0,0:0:0:0:
430,125,166809,1,8,0:0:0:0:
440,136,166986,1,0,0:0:0:0:
440,136,167162,1,0,0:0:0:0:
440,136,167339,1,0,0:0:0:0:
430,144,167515,1,8,0:0:0:0:
441,126,167780,1,8,0:0:0:0:
445,138,168045,1,0,0:0:0:0:
426,139,168221,1,8,0:0:0:0:
440,136,168574,1,0,0:0:0:0:
426,139,168662,1,8,0:0:0:0:
440,136,168750,1,0,0:0:0:0:
426,139,168927,1,8,0:0:0:0:
440,136,169103,1,0,0:0:0:0:
426,139,169192,1,8,0:0:0:0:
440,136,169280,1,0,0:0:0:0:
426,139,169368,1,8,0:0:0:0:
440,136,169456,1,0,0:0:0:0:
440,136,169545,1,0,0:0:0:0:
426,139,169633,1,8,0:0:0:0:
440,136,169809,1,0,0:0:0:0:
440,136,169986,1,0,0:0:0:0:
436,134,170162,1,0,0:0:0:0:
436,144,170339,1,8,0:0:0:0:
419,145,170603,1,0,0:0:0:0:
432,141,170692,1,0,0:0:0:0:
440,136,170868,1,0,0:0:0:0:
436,144,171045,1,8,0:0:0:0:
402,132,171221,1,0,0:0:0:0:
452,148,171397,1,0,0:0:0:0:
453,152,171486,1,8,0:0:0:0:
452,148,171662,1,0,0:0:0:0:
452,152,171750,1,8,0:0:0:0:
452,148,171927,1,0,0:0:0:0:
451,152,172015,1,8,0:0:0:0:
450,147,172103,1,0,0:0:0:0:
438,145,172192,1,0,0:0:0:0:
452,148,172280,1,0,0:0:0:0:
453,152,172456,1,8,0:0:0:0:
439,141,172633,1,0,0:0:0:0:
439,141,172809,1,4,0:0:0:0:
452,153,172986,1,0,0:0:0:0:
453,152,173162,1,8,0:0:0:0:
440,136,173427,1,8,0:0:0:0:
463,148,173515,1,0,0:0:0:0:
439,141,173692,1,0,0:0:0:0:
447,152,173868,1,8,0:0:0:0:
447,143,174045,1,0,0:0:0:0:
451,144,174221,1,0,0:0:0:0:
447,152,174309,1,8,0:0:0:0:
443,151,174397,1,0,0:0:0:0:
451,144,174486,1,0,0:0:0:0:
447,152,174574,1,8,0:0:0:0:
451,144,174750,1,0,0:0:0:0:
447,152,174839,1,8,0:0:0:0:
448,144,174927,1,0,0:0:0:0:
439,150,175015,1,8,0:0:0:0:
451,144,175103,1,0,0:0:0:0:
451,144,175192,1,0,0:0:0:0:
447,152,175280,1,8,0:0:0:0:
451,144,175456,1,0,0:0:0:0:
451,144,175633,1,0,0:0:0:0:
441,143,175809,1,0,0:0:0:0:
439,150,175986,1,8,0:0:0:0:
438,143,176162,1,0,0:0:0:0:
465,145,176250,1,0,0:0:0:0:
465,145,176339,1,0,0:0:0:0:
438,143,176515,1,0,0:0:0:0:
439,150,176692,1,8,0:0:0:0:
448,154,176868,1,0,0:0:0:0:
448,154,177045,1,0,0:0:0:0:
450,165,177133,1,8,0:0:0:0:
446,153,177221,1,0,0:0:0:0:
450,165,177309,1,8,0:0:0:0:
439,150,177397,1,8,0:0:0:0:
492,349,177574,1,0,0:0:0:0:
455,168,177662,1,8,0:0:0:0:
448,154,177750,1,0,0:0:0:0:
444,166,177927,1,0,0:0:0:0:
455,168,178103,1,8,0:0:0:0:
441,164,178280,1,0,0:0:0:0:
441,164,178456,1,4,0:0:0:0:
455,168,178633,1,0,0:0:0:0:
455,168,178809,1,8,0:0:0:0:
455,168,179074,1,8,0:0:0:0:
458,168,179162,1,0,0:0:0:0:
457,168,179339,1,0,0:0:0:0:
455,168,179515,1,8,0:0:0:0:
445,149,179868,1,4,0:0:0:0:
443,160,180045,1,0,0:0:0:0:
455,168,180221,1,8,0:0:0:0:
455,168,180486,1,8,0:0:0:0:
444,158,180574,1,0,0:0:0:0:
445,168,180662,1,8,0:0:0:0:
445,149,180750,1,0,0:0:0:0:
455,168,180927,1,8,0:0:0:0:
448,152,181103,1,0,0:0:0:0:
448,152,181280,1,4,0:0:0:0:
448,152,181456,1,0,0:0:0:0:
425,134,181633,1,8,0:0:0:0:
415,138,181986,1,4,0:0:0:0:
417,145,182162,1,0,0:0:0:0:
425,134,182339,1,8,0:0:0:0:
429,143,182692,1,4,0:0:0:0:
448,144,183397,1,8,0:0:0:0:
444,149,183486,1,8,0:0:0:0:
448,144,183574,1,0,0:0:0:0:
441,146,183662,1,0,0:0:0:0:
448,144,183750,1,8,0:0:0:0:
445,150,183839,1,8,0:0:0:0:
448,144,183927,1,0,0:0:0:0:
448,144,184015,1,0,0:0:0:0:
448,144,184103,1,8,0:0:0:0:
448,144,184280,1,0,0:0:0:0:
450,154,184456,1,8,0:0:0:0:
441,138,184633,1,0,0:0:0:0:
450,154,184809,1,0,0:0:0:0:
436,140,184986,1,8,0:0:0:0:
434,134,185074,1,8,0:0:0:0:
445,150,185162,1,8,0:0:0:0:
436,140,185339,1,0,0:0:0:0:
441,138,185692,1,0,0:0:0:0:
441,139,185868,1,0,0:0:0:0:
436,140,186045,1,0,0:0:0:0:
436,140,186221,1,0,0:0:0:0:
436,140,186397,1,0,0:0:0:0:
441,138,186574,1,8,0:0:0:0:
441,138,186750,1,0,0:0:0:0:
436,128,186927,1,8,0:0:0:0:
426,136,187015,1,8,0:0:0:0:
436,140,187103,1,8,0:0:0:0:
436,140,187280,1,0,0:0:0:0:
436,128,187456,1,0,0:0:0:0:
453,142,187633,1,0,0:0:0:0:
453,142,187809,1,0,0:0:0:0:
453,142,187986,1,8,0:0:0:0:
453,142,188162,1,0,0:0:0:0:
453,142,188339,1,0,0:0:0:0:
453,142,188515,1,2,0:0:0:0:
453,142,188603,1,8,0:0:0:0:
436,129,188692,1,0,0:0:0:0:
453,142,188868,1,0,0:0:0:0:
442,149,189045,1,8,0:0:0:0:
453,142,189221,1,0,0:0:0:0:
451,151,189309,1,8,0:0:0:0:
453,142,189397,1,8,0:0:0:0:
436,156,189750,1,0,0:0:0:0:
443,148,189927,1,8,0:0:0:0:
441,146,190015,1,0,0:0:0:0:
423,149,190103,1,8,0:0:0:0:
426,154,190280,1,0,0:0:0:0:
438,150,190456,1,0,0:0:0:0:
438,150,190633,1,0,0:0:0:0:
419,143,190721,1,8,0:0:0:0:
411,142,190809,1,8,0:0:0:0:
436,151,190986,1,0,0:0:0:0:
438,150,191162,1,0,0:0:0:0:
438,150,191339,1,8,0:0:0:0:
426,154,191515,1,0,0:0:0:0:
438,150,191692,1,0,0:0:0:0:
438,150,191868,1,0,0:0:0:0:
438,150,192045,1,0,0:0:0:0:
438,150,192221,1,0,0:0:0:0:
438,150,192397,1,8,0:0:0:0:
426,154,192574,1,0,0:0:0:0:
438,150,192662,1,8,0:0:0:0:
438,150,192750,1,8,0:0:0:0:
438,150,192927,1,8,0:0:0:0:
426,154,193103,1,0,0:0:0:0:
438,150,193280,1,0,0:0:0:0:
438,150,193633,1,8,0:0:0:0:
438,150,193809,1,0,0:0:0:0:
436,154,193986,1,0,0:0:0:0:
438,150,194162,1,8,0:0:0:0:
438,150,194250,1,8,0:0:0:0:
448,166,194339,1,0,0:0:0:0:
436,154,194515,1,0,0:0:0:0:
436,155,194868,1,0,0:0:0:0:
436,154,195045,1,8,0:0:0:0:
436,155,195221,1,0,0:0:0:0:
436,154,195397,1,4,0:0:0:0:
493,177,195574,1,0,0:0:0:0:
480,172,195750,1,8,0:0:0:0:
448,166,195927,1,0,0:0:0:0:
481,173,196280,1,0,0:0:0:0:
481,173,196368,1,8,0:0:0:0:
481,173,196456,1,8,0:0:0:0:
481,173,196633,1,0,0:0:0:0:
481,173,196809,1,0,0:0:0:0:
481,173,196986,1,8,0:0:0:0:
481,173,197074,1,8,0:0:0:0:
452,168,197162,1,0,0:0:0:0:
483,181,197339,1,0,0:0:0:0:
471,166,197515,1,8,0:0:0:0:
483,181,197692,1,0,0:0:0:0:
483,181,197868,1,0,0:0:0:0:
452,168,198045,1,0,0:0:0:0:
452,168,198221,1,0,0:0:0:0:
452,165,198309,1,8,0:0:0:0:
464,182,198486,1,8,0:0:0:0:
464,182,198574,1,0,0:0:0:0:
452,168,198750,1,0,0:0:0:0:
457,181,198927,1,0,0:0:0:0:
457,181,199103,1,0,0:0:0:0:
457,182,199192,1,0,0:0:0:0:
458,182,199280,1,8,0:0:0:0:
458,182,199456,1,0,0:0:0:0:
458,182,199633,1,0,0:0:0:0:
458,181,199809,1,8,0:0:0:0:
443,173,199897,1,8,0:0:0:0:
452,168,199986,1,0,0:0:0:0:
457,181,200162,1,0,0:0:0:0:
458,182,200339,1,0,0:0:0:0:
458,182,200515,1,0,0:0:0:0:
458,182,200603,1,8,0:0:0:0:
458,181,200692,1,8,0:0:0:0:
458,181,200868,1,0,0:0:0:0:
452,168,201045,1,0,0:0:0:0:
457,181,201221,1,8,0:0:0:0:
458,182,201309,1,8,0:0:0:0:
458,182,201397,1,8,0:0:0:0:
452,168,201574,1,0,0:0:0:0:
458,181,201750,1,0,0:0:0:0:
459,180,201927,1,0,0:0:0:0:
440,178,202015,1,8,0:0:0:0:
457,181,202103,1,8,0:0:0:0:
458,182,202280,1,0,0:0:0:0:
458,182,202456,1,0,0:0:0:0:
443,174,202633,1,8,0:0:0:0:
452,168,202809,1,0,0:0:0:0:
443,174,202986,1,0,0:0:0:0:
443,174,203074,1,0,0:0:0:0:
443,174,203162,1,8,0:0:0:0:
443,174,203339,1,0,0:0:0:0:
443,174,203515,1,8,0:0:0:0:
443,174,203603,1,8,0:0:0:0:
443,174,203692,1,0,0:0:0:0:
452,168,203868,1,4,0:0:0:0:
443,174,204045,1,0,0:0:0:0:
443,174,204133,1,0,0:0:0:0:
443,174,204221,1,8,0:0:0:0:
460,164,204397,1,0,0:0:0:0:
452,168,204574,1,4,0:0:0:0:
460,163,204750,1,0,0:0:0:0:
460,163,204839,1,0,0:0:0:0:
460,163,204927,1,8,0:0:0:0:
460,163,205103,1,8,0:0:0:0:
452,168,205280,1,4,0:0:0:0:
460,164,205456,1,0,0:0:0:0:
460,162,205545,1,0,0:0:0:0:
460,164,205633,1,8,0:0:0:0:
460,163,205809,1,8,0:0:0:0:
468,175,205986,1,4,0:0:0:0:
157,45,206162,1,8,0:0:0:0:
468,175,206339,1,4,0:0:0:0:
468,175,206515,1,0,0:0:0:0:
468,175,206603,1,0,0:0:0:0:
481,185,206692,1,8,0:0:0:0:
481,185,206780,1,0,0:0:0:0:
477,194,206868,1,0,0:0:0:0:
482,186,206956,1,0,0:0:0:0:
477,194,207045,1,8,0:0:0:0:
482,186,207133,1,0,0:0:0:0:
482,186,207221,1,8,0:0:0:0:
473,198,207309,1,0,0:0:0:0:
473,198,207397,1,0,0:0:0:0:
473,198,207486,1,8,0:0:0:0:
473,198,207574,1,0,0:0:0:0:
473,198,207662,1,0,0:0:0:0:
473,199,207750,1,8,0:0:0:0:
473,199,207927,1,0,0:0:0:0:
473,199,208103,1,8,0:0:0:0:
473,199,208192,1,0,0:0:0:0:
473,198,208280,1,0,0:0:0:0:
473,198,208368,1,8,0:0:0:0:
460,204,208456,1,8,0:0:0:0:
465,200,208545,1,0,0:0:0:0:
465,200,208633,1,8,0:0:0:0:
460,194,208721,1,0,0:0:0:0:
465,200,208809,1,0,0:0:0:0:
465,200,208897,1,8,0:0:0:0:
465,200,208986,1,8,0:0:0:0:
465,200,209074,1,0,0:0:0:0:
465,200,209162,1,8,0:0:0:0:
466,200,209339,1,8,0:0:0:0:
465,200,209515,1,0,0:0:0:0:
465,200,209603,1,8,0:0:0:0:
465,200,209692,1,0,0:0:0:0:
465,200,209780,1,8,0:0:0:0:
465,200,209868,1,8,0:0:0:0:
465,200,210045,1,8,0:0:0:0:
465,200,210133,1,0,0:0:0:0:
466,200,210221,1,0,0:0:0:0:
466,200,210309,1,8,0:0:0:0:
465,200,210397,1,0,0:0:0:0:
465,200,210486,1,0,0:0:0:0:
465,200,210574,1,8,0:0:0:0:
465,200,210750,1,8,0:0:0:0:
465,200,210927,1,8,0:0:0:0:
465,200,211015,1,0,0:0:0:0:
465,200,211103,1,0,0:0:0:0:
465,200,211192,1,8,0:0:0:0:
466,200,211280,1,8,0:0:0:0:
465,200,211368,1,0,0:0:0:0:
465,200,211456,1,8,0:0:0:0:
465,200,211545,1,8,0:0:0:0:
465,200,211633,1,0,0:0:0:0:
465,200,211721,1,8,0:0:0:0:
465,200,211809,1,8,0:0:0:0:
465,200,211897,1,0,0:0:0:0:
465,200,211986,1,8,0:0:0:0:
454,201,212074,1,8,0:0:0:0:
465,200,212162,1,0,0:0:0:0:
466,200,212339,1,8,0:0:0:0:
465,200,212427,1,0,0:0:0:0:
465,200,212515,1,8,0:0:0:0:
465,200,212603,1,0,0:0:0:0:
465,200,212692,1,8,0:0:0:0:
459,200,212868,1,8,0:0:0:0:
467,197,213045,1,0,0:0:0:0:
465,200,213133,1,0,0:0:0:0:
466,200,213221,1,0,0:0:0:0:
466,200,213309,1,8,0:0:0:0:
466,200,213397,1,8,0:0:0:0:
465,200,213574,1,0,0:0:0:0:
466,200,213750,1,8,0:0:0:0:
466,200,213839,1,0,0:0:0:0:
467,197,214015,1,0,0:0:0:0:
465,200,214103,1,8,0:0:0:0:
466,200,214280,1,8,0:0:0:0:
466,200,214368,1,0,0:0:0:0:
465,200,214456,1,0,0:0:0:0:
465,200,214545,1,0,0:0:0:0:
466,200,214633,1,8,0:0:0:0:
466,200,214721,1,0,0:0:0:0:
466,200,214809,1,8,0:0:0:0:
481,201,214986,1,8,0:0:0:0:
481,201,215074,1,0,0:0:0:0:
481,201,215162,1,8,0:0:0:0:
481,201,215339,1,0,0:0:0:0:
481,201,215515,1,8,0:0:0:0:
477,200,215692,1,8,0:0:0:0:
477,200,215780,1,0,0:0:0:0:
481,201,215868,1,0,0:0:0:0:
476,205,215956,1,8,0:0:0:0:
487,212,216045,1,0,0:0:0:0:
488,200,216221,1,8,0:0:0:0:
488,200,216397,1,8,0:0:0:0:
488,200,216486,1,0,0:0:0:0:
488,200,216574,1,8,0:0:0:0:
500,202,216662,1,0,0:0:0:0:
488,200,216750,1,0,0:0:0:0:
488,200,216839,1,8,0:0:0:0:
488,200,216927,1,8,0:0:0:0:
496,198,217015,1,0,0:0:0:0:
488,200,217103,1,8,0:0:0:0:
470,186,217192,1,8,0:0:0:0:
488,200,217280,1,0,0:0:0:0:
470,186,217368,1,8,0:0:0:0:
476,193,217456,1,8,0:0:0:0:
476,193,217545,1,0,0:0:0:0:
451,187,217633,1,8,0:0:0:0:
451,187,217721,1,0,0:0:0:0:
476,193,217809,1,8,0:0:0:0:
476,193,217986,1,4,0:0:0:0:
461,181,218162,1,0,0:0:0:0:
461,181,218339,1,8,0:0:0:0:
461,181,218515,1,8,0:0:0:0:
461,181,218603,1,0,0:0:0:0:
461,181,218692,1,0,0:0:0:0:
459,181,218780,1,8,0:0:0:0:
461,181,218868,1,8,0:0:0:0:
459,181,218956,1,0,0:0:0:0:
461,181,219045,1,8,0:0:0:0:
461,181,219221,1,8,0:0:0:0:
461,181,219309,1,0,0:0:0:0:
461,181,219397,1,8,0:0:0:0:
461,181,219574,1,0,0:0:0:0:
461,181,219750,1,8,0:0:0:0:
459,181,219927,1,8,0:0:0:0:
459,181,220015,1,0,0:0:0:0:
461,181,220103,1,0,0:0:0:0:
472,181,220192,1,0,0:0:0:0:
472,181,220280,1,8,0:0:0:0:
472,181,220368,1,0,0:0:0:0:
472,181,220456,1,8,0:0:0:0:
463,168,220633,1,8,0:0:0:0:
480,181,220721,1,0,0:0:0:0:
480,181,220809,1,0,0:0:0:0:
476,186,220897,1,8,0:0:0:0:
476,186,220986,1,0,0:0:0:0:
476,187,221162,1,8,0:0:0:0:
474,176,221339,1,8,0:0:0:0:
474,176,221427,1,0,0:0:0:0:
472,174,221515,1,0,0:0:0:0:
476,179,221603,1,8,0:0:0:0:
480,181,221692,1,8,0:0:0:0:
480,181,221780,1,0,0:0:0:0:
476,186,221868,1,8,0:0:0:0:
476,186,221956,1,0,0:0:0:0:
476,187,222045,1,8,0:0:0:0:
469,177,222133,1,0,0:0:0:0:
474,176,222221,1,8,0:0:0:0:
484,173,222309,1,8,0:0:0:0:
474,176,222397,1,0,0:0:0:0:
472,185,222486,1,0,0:0:0:0:
472,174,222574,1,8,0:0:0:0:
469,177,222750,1,8,0:0:0:0:
469,177,222839,1,8,0:0:0:0:
469,177,222927,1,0,0:0:0:0:
466,178,223015,1,0,0:0:0:0:
459,170,223103,1,8,0:0:0:0:
469,177,223192,1,0,0:0:0:0:
474,176,223280,1,8,0:0:0:0:
466,178,223456,1,8,0:0:0:0:
466,178,223545,1,0,0:0:0:0:
465,178,223633,1,8,0:0:0:0:
469,177,223809,1,0,0:0:0:0:
469,177,223897,1,8,0:0:0:0:
466,178,223986,1,8,0:0:0:0:
469,177,224162,1,8,0:0:0:0:
468,177,224250,1,0,0:0:0:0:
466,178,224339,1,0,0:0:0:0:
462,169,224427,1,8,0:0:0:0:
466,178,224515,1,8,0:0:0:0:
465,178,224603,1,0,0:0:0:0:
465,178,224692,1,8,0:0:0:0:
466,178,224868,1,8,0:0:0:0:
460,182,225045,1,8,0:0:0:0:
460,182,225133,1,0,0:0:0:0:
469,177,225221,1,0,0:0:0:0:
460,182,225309,1,0,0:0:0:0:
466,178,225397,1,8,0:0:0:0:
466,178,225574,1,8,0:0:0:0:
465,178,225662,1,8,0:0:0:0:
454,177,225750,1,0,0:0:0:0:
466,178,225839,1,8,0:0:0:0:
469,177,225927,1,0,0:0:0:0:
460,182,226015,1,0,0:0:0:0:
469,177,226103,1,8,0:0:0:0:
460,182,226280,1,8,0:0:0:0:
460,182,226456,1,8,0:0:0:0:
468,184,226545,1,8,0:0:0:0:
460,182,226633,1,0,0:0:0:0:
464,184,226721,1,0,0:0:0:0:
460,182,226809,1,8,0:0:0:0:
464,184,226897,1,0,0:0:0:0:
460,182,226986,1,8,0:0:0:0:
469,184,227074,1,0,0:0:0:0:
456,184,227162,1,0,0:0:0:0:
460,182,227250,1,8,0:0:0:0:
460,182,227339,1,8,0:0:0:0:
460,182,227427,1,0,0:0:0:0:
460,182,227515,1,8,0:0:0:0:
460,182,227692,1,8,0:0:0:0:
460,182,227868,1,4,0:0:0:0:
458,171,228045,1,0,0:0:0:0:
458,171,228133,1,0,0:0:0:0:
458,171,228221,1,8,0:0:0:0:
460,168,228397,1,8,0:0:0:0:
461,168,228574,1,8,0:0:0:0:
464,168,228662,1,8,0:0:0:0:
464,168,228750,1,0,0:0:0:0:
445,161,228927,1,8,0:0:0:0:
445,161,229103,1,0,0:0:0:0:
445,161,229192,1,8,0:0:0:0:
445,161,229280,1,0,0:0:0:0:
436,167,229456,1,0,0:0:0:0:
434,168,229545,1,0,0:0:0:0:
436,167,229633,1,8,0:0:0:0:
436,167,229809,1,8,0:0:0:0:
437,149,229897,1,0,0:0:0:0:
437,149,230074,1,8,0:0:0:0:
437,149,230162,1,0,0:0:0:0:
437,149,230339,1,8,0:0:0:0:
437,149,230515,1,8,0:0:0:0:
437,149,230692,1,0,0:0:0:0:
437,149,230868,1,0,0:0:0:0:
437,149,231045,1,2,0:0:0:0:
426,143,231221,1,0,0:0:0:0:
412,124,231309,1,8,0:0:0:0:
443,156,231397,1,0,0:0:0:0:
437,149,231486,1,0,0:0:0:0:
437,149,231574,1,0,0:0:0:0:
432,151,231662,1,0,0:0:0:0:
437,149,231750,1,2,0:0:0:0:
437,149,231927,1,2,0:0:0:0:
437,149,232103,1,0,0:0:0:0:
429,152,232280,1,0,0:0:0:0:
429,152,232456,1,2,0:0:0:0:
432,151,232633,1,0,0:0:0:0:
429,152,232721,1,8,0:0:0:0:
429,152,232897,1,2,0:0:0:0:
429,152,232986,1,0,0:0:0:0:
429,152,233162,1,2,0:0:0:0:
429,152,233339,1,2,0:0:0:0:
432,151,233515,1,0,0:0:0:0:
429,152,233692,1,0,0:0:0:0:
429,152,233868,1,2,0:0:0:0:
431,161,234045,1,8,0:0:0:0:
429,152,234133,1,0,0:0:0:0:
429,152,234221,1,0,0:0:0:0:
429,152,234309,1,2,0:0:0:0:
432,151,234397,1,0,0:0:0:0:
432,151,234486,1,0,0:0:0:0:
429,152,234574,1,2,0:0:0:0:
429,152,234750,1,2,0:0:0:0:
429,152,234839,1,2,0:0:0:0:
429,152,234927,1,0,0:0:0:0:
432,159,235103,1,0,0:0:0:0:
423,150,235280,1,2,0:0:0:0:
423,150,235456,1,0,0:0:0:0:
423,150,235545,1,2,0:0:0:0:
423,150,235721,1,2,0:0:0:0:
423,150,235809,1,0,0:0:0:0:
441,157,235897,1,0,0:0:0:0:
423,151,235986,1,2,0:0:0:0:
423,150,236162,1,8,0:0:0:0:
423,150,236339,1,0,0:0:0:0:
423,150,236515,1,0,0:0:0:0:
423,150,236692,1,2,0:0:0:0:
423,151,236868,1,0,0:0:0:0:
427,153,236956,1,2,0:0:0:0:
423,150,237045,1,2,0:0:0:0:
427,153,237133,1,2,0:0:0:0:
427,153,237221,1,0,0:0:0:0:
438,155,237397,1,2,0:0:0:0:
438,154,237574,1,2,0:0:0:0:
438,154,237750,1,0,0:0:0:0:
437,154,237927,1,0,0:0:0:0:
437,154,238103,1,2,0:0:0:0:
430,163,238280,1,0,0:0:0:0:
430,163,238368,1,2,0:0:0:0:
428,163,238545,1,2,0:0:0:0:
428,163,238633,1,0,0:0:0:0:
428,163,238809,1,2,0:0:0:0:
428,163,238986,1,8,0:0:0:0:
430,163,239162,1,0,0:0:0:0:
430,163,239339,1,0,0:0:0:0:
428,163,239515,1,2,0:0:0:0:
428,163,239692,1,2,0:0:0:0:
428,163,239780,1,2,0:0:0:0:
428,163,239868,1,0,0:0:0:0:
428,163,239956,1,2,0:0:0:0:
428,163,240045,1,0,0:0:0:0:
430,163,240133,1,0,0:0:0:0:
430,163,240221,1,2,0:0:0:0:
430,163,240309,1,0,0:0:0:0:
430,163,240397,1,8,0:0:0:0:
428,163,240486,1,2,0:0:0:0:
428,163,240574,1,0,0:0:0:0:
414,162,240750,1,0,0:0:0:0:
414,162,240927,1,2,0:0:0:0:
414,163,241103,1,0,0:0:0:0:
414,163,241192,1,8,0:0:0:0:
414,163,241368,1,8,0:0:0:0:
414,163,241456,1,0,0:0:0:0:
414,162,241633,1,2,0:0:0:0:
407,160,241809,1,8,0:0:0:0:
407,160,241986,1,0,0:0:0:0:
407,160,242162,1,0,0:0:0:0:
407,160,242339,1,2,0:0:0:0:
407,160,242515,1,0,0:0:0:0:
410,166,242603,1,2,0:0:0:0:
407,160,242692,1,0,0:0:0:0:
409,164,242780,1,2,0:0:0:0:
409,164,242868,1,0,0:0:0:0:
409,164,243045,1,2,0:0:0:0:
409,164,243221,1,2,0:0:0:0:
409,164,243309,1,8,0:0:0:0:
409,164,243397,1,0,0:0:0:0:
410,166,243574,1,0,0:0:0:0:
409,164,243750,1,2,0:0:0:0:
409,164,243927,1,0,0:0:0:0:
409,164,244015,1,2,0:0:0:0:
409,164,244192,1,2,0:0:0:0:
409,164,244280,1,0,0:0:0:0:
409,164,244456,1,2,0:0:0:0:
410,166,244633,1,2,0:0:0:0:
409,164,244721,1,2,0:0:0:0:
409,164,244809,1,0,0:0:0:0:
409,164,244986,1,0,0:0:0:0:
409,164,245162,1,2,0:0:0:0:
409,164,245339,1,0,0:0:0:0:
409,164,245427,1,2,0:0:0:0:
410,166,245515,1,0,0:0:0:0:
410,166,245603,1,2,0:0:0:0:
409,164,245692,1,0,0:0:0:0:
409,164,245868,1,2,0:0:0:0:
409,164,246045,1,0,0:0:0:0:
409,164,246133,1,2,0:0:0:0:
409,164,246221,1,0,0:0:0:0:
394,163,246397,1,0,0:0:0:0:
394,163,246574,1,2,0:0:0:0:
409,164,246750,1,0,0:0:0:0:
409,164,246839,1,2,0:0:0:0:
409,164,247015,1,2,0:0:0:0:
409,164,247103,1,0,0:0:0:0:
409,164,247192,1,0,0:0:0:0:
410,163,247280,1,2,0:0:0:0:
410,163,247456,1,0,0:0:0:0:
410,163,247633,1,0,0:0:0:0:
409,164,247809,1,0,0:0:0:0:
409,164,247897,1,2,0:0:0:0:
409,164,247986,1,2,0:0:0:0:
409,164,248074,1,0,0:0:0:0:
410,163,248162,1,2,0:0:0:0:
410,163,248250,1,2,0:0:0:0:
410,163,248339,1,0,0:0:0:0:
410,163,248515,1,2,0:0:0:0:
410,163,248603,1,0,0:0:0:0:
409,164,248692,1,2,0:0:0:0:
409,164,248868,1,0,0:0:0:0:
409,164,249045,1,0,0:0:0:0:
410,163,249221,1,0,0:0:0:0:
410,163,249397,1,2,0:0:0:0:
410,163,249574,1,0,0:0:0:0:
409,164,249750,1,0,0:0:0:0:
409,164,249927,1,0,0:0:0:0:
409,164,250103,1,4,0:0:0:0:
410,163,250280,1,12,0:0:0:0:
388,153,251162,1,8,0:0:0:0:
