osu file format v14

[General]
AudioFilename: audio.mp3
AudioLeadIn: 0
PreviewTime: -1
Countdown: 0
SampleSet: None
StackLeniency: 0.7
Mode: 3
LetterboxInBreaks: 0
SpecialStyle: 0
WidescreenStoryboard: 0

[Editor]
DistanceSpacing: 0.8
BeatDivisor: 8
GridSize: 32
TimelineZoom: 1

[Metadata]
Title:Moonlight
TitleUnicode:Moonlight
Artist:Kokosei
ArtistUnicode:Kokosei
Creator:KR_EPIC
Version:[8:00pm]
Source:
Tags:
BeatmapID:4514671
BeatmapSetID:2144188

[Difficulty]
HPDrainRate:4
CircleSize:4
OverallDifficulty:4
ApproachRate:5
SliderMultiplier:1.4
SliderTickRate:1

[Events]
//Background and Video events
0,0,"Moonlight.jpg",0,0
//Break Periods
//Storyboard Layer 0 (Background)
//Storyboard Layer 1 (Fail)
//Storyboard Layer 2 (Pass)
//Storyboard Layer 3 (Foreground)
//Storyboard Layer 4 (Overlay)
//Storyboard Sound Samples

[TimingPoints]
2327,379.746835443038,4,1,0,100,1,0

[HitObjects]
64,192,2327,5,0,0:0:0:0:
448,192,2706,1,0,0:0:0:0:
320,192,2801,1,0,0:0:0:0:
192,192,2896,1,0,0:0:0:0:
64,192,2991,1,0,0:0:0:0:
448,192,3086,1,0,0:0:0:0:
192,192,3371,1,0,0:0:0:0:
64,192,3656,1,0,0:0:0:0:
320,192,3845,1,0,0:0:0:0:
192,192,3940,1,0,0:0:0:0:
64,192,4035,1,0,0:0:0:0:
192,192,4130,1,0,0:0:0:0:
320,192,4225,1,0,0:0:0:0:
448,192,4320,1,0,0:0:0:0:
192,192,4415,1,0,0:0:0:0:
64,192,4510,1,0,0:0:0:0:
192,192,4605,1,0,0:0:0:0:
320,192,4700,1,0,0:0:0:0:
448,192,4795,1,0,0:0:0:0:
320,192,4890,1,0,0:0:0:0:
192,192,4985,1,0,0:0:0:0:
64,192,5080,1,0,0:0:0:0:
320,192,5175,1,0,0:0:0:0:
448,192,5270,1,0,0:0:0:0:
192,192,5364,1,0,0:0:0:0:
64,192,5459,1,0,0:0:0:0:
448,192,5554,1,0,0:0:0:0:
64,192,5649,1,0,0:0:0:0:
448,192,5744,1,0,0:0:0:0:
320,192,5839,1,0,0:0:0:0:
192,192,5934,1,0,0:0:0:0:
64,192,6029,1,0,0:0:0:0:
448,192,6124,1,0,0:0:0:0:
64,192,6219,1,0,0:0:0:0:
448,192,6314,1,0,0:0:0:0:
192,192,6409,1,0,0:0:0:0:
320,192,6504,1,0,0:0:0:0:
192,192,6599,1,0,0:0:0:0:
448,192,6694,1,0,0:0:0:0:
320,192,6789,1,0,0:0:0:0:
192,192,6883,1,0,0:0:0:0:
320,192,6978,1,0,0:0:0:0:
448,192,7073,1,0,0:0:0:0:
320,192,7168,1,0,0:0:0:0:
448,192,7263,1,0,0:0:0:0:
320,192,7358,1,0,0:0:0:0:
192,192,7453,1,0,0:0:0:0:
64,192,7548,1,0,0:0:0:0:
192,192,7643,1,0,0:0:0:0:
320,192,7738,1,0,0:0:0:0:
448,192,7833,1,0,0:0:0:0:
320,192,7928,1,0,0:0:0:0:
192,192,8023,1,0,0:0:0:0:
320,192,8118,1,0,0:0:0:0:
448,192,8213,1,0,0:0:0:0:
192,192,8308,1,0,0:0:0:0:
64,192,8308,1,0,0:0:0:0:
448,192,8402,1,0,0:0:0:0:
64,192,8497,1,0,0:0:0:0:
64,192,8592,1,0,0:0:0:0:
448,192,8687,1,0,0:0:0:0:
64,192,8782,1,0,0:0:0:0:
320,192,8877,1,0,0:0:0:0:
192,192,8972,1,0,0:0:0:0:
64,192,9067,1,0,0:0:0:0:
320,192,9162,1,0,0:0:0:0:
448,192,9257,1,0,0:0:0:0:
192,192,9352,1,0,0:0:0:0:
64,192,9447,1,0,0:0:0:0:
448,192,9542,1,0,0:0:0:0:
64,192,9637,1,0,0:0:0:0:
448,192,9732,1,0,0:0:0:0:
192,192,9827,1,0,0:0:0:0:
64,192,9827,1,0,0:0:0:0:
448,192,9921,1,0,0:0:0:0:
320,192,10016,1,0,0:0:0:0:
192,192,10111,1,0,0:0:0:0:
64,192,10206,1,0,0:0:0:0:
192,192,10301,1,0,0:0:0:0:
320,192,10396,1,0,0:0:0:0:
448,192,10491,1,0,0:0:0:0:
192,192,10586,1,0,0:0:0:0:
64,192,10681,1,0,0:0:0:0:
448,192,10776,1,0,0:0:0:0:
64,192,10871,1,0,0:0:0:0:
448,192,10966,1,0,0:0:0:0:
64,192,11061,1,0,0:0:0:0:
64,192,11156,1,0,0:0:0:0:
448,192,11251,1,0,0:0:0:0:
64,192,11345,1,0,0:0:0:0:
320,192,11440,1,0,0:0:0:0:
448,192,11440,1,0,0:0:0:0:
192,192,11535,1,0,0:0:0:0:
192,192,11630,1,0,0:0:0:0:
320,192,11725,1,0,0:0:0:0:
320,192,11820,1,0,0:0:0:0:
192,192,11915,1,0,0:0:0:0:
64,192,12010,1,0,0:0:0:0:
320,192,12105,1,0,0:0:0:0:
448,192,12200,1,0,0:0:0:0:
192,192,12295,1,0,0:0:0:0:
320,192,12390,1,0,0:0:0:0:
448,192,12485,1,0,0:0:0:0:
64,192,12580,1,0,0:0:0:0:
448,192,12675,1,0,0:0:0:0:
192,192,12770,1,0,0:0:0:0:
64,192,12770,1,0,0:0:0:0:
448,192,12864,1,0,0:0:0:0:
192,192,12959,1,0,0:0:0:0:
320,192,13054,1,0,0:0:0:0:
448,192,13149,1,0,0:0:0:0:
192,192,13244,1,0,0:0:0:0:
448,192,13339,1,0,0:0:0:0:
192,192,13434,1,0,0:0:0:0:
64,192,13529,1,0,0:0:0:0:
320,192,13624,1,0,0:0:0:0:
448,192,13719,1,0,0:0:0:0:
192,192,13814,1,0,0:0:0:0:
320,192,13909,1,0,0:0:0:0:
448,192,14004,1,0,0:0:0:0:
192,192,14099,1,0,0:0:0:0:
64,192,14194,1,0,0:0:0:0:
320,192,14289,1,0,0:0:0:0:
448,192,14383,1,0,0:0:0:0:
192,192,14478,1,0,0:0:0:0:
64,192,14478,1,0,0:0:0:0:
448,192,14573,1,0,0:0:0:0:
448,192,14668,1,0,0:0:0:0:
64,192,14858,128,0,15048:0:0:0:0:
192,192,14858,128,0,15048:0:0:0:0:
448,192,14858,1,0,0:0:0:0:
448,192,15048,1,0,0:0:0:0:
448,192,15238,128,0,15428:0:0:0:0:
320,192,15238,128,0,15428:0:0:0:0:
64,192,15238,1,0,0:0:0:0:
64,192,15428,1,0,0:0:0:0:
192,192,15618,128,0,15808:0:0:0:0:
448,192,15618,1,0,0:0:0:0:
64,192,15618,128,0,15808:0:0:0:0:
448,192,15808,1,0,0:0:0:0:
320,192,15902,1,0,0:0:0:0:
64,192,15997,1,0,0:0:0:0:
320,192,16092,1,0,0:0:0:0:
448,192,16187,1,0,0:0:0:0:
192,192,16282,1,0,0:0:0:0:
64,192,16377,1,0,0:0:0:0:
448,192,16377,1,0,0:0:0:0:
448,192,16472,1,0,0:0:0:0:
64,192,16567,1,0,0:0:0:0:
448,192,16662,1,0,0:0:0:0:
192,192,16757,1,0,0:0:0:0:
320,192,16852,1,0,0:0:0:0:
192,192,16947,1,0,0:0:0:0:
192,192,17042,1,0,0:0:0:0:
448,192,17137,1,0,0:0:0:0:
64,192,17232,1,0,0:0:0:0:
320,192,17327,1,0,0:0:0:0:
192,192,17421,1,0,0:0:0:0:
448,192,17516,128,0,17706:0:0:0:0:
64,192,17516,1,0,0:0:0:0:
320,192,17516,128,0,17706:0:0:0:0:
64,192,17706,1,0,0:0:0:0:
448,192,17896,1,0,0:0:0:0:
64,192,17896,128,0,18086:0:0:0:0:
192,192,17896,128,0,18086:0:0:0:0:
448,192,18086,1,0,0:0:0:0:
448,192,18276,128,0,18466:0:0:0:0:
320,192,18276,128,0,18466:0:0:0:0:
64,192,18276,1,0,0:0:0:0:
64,192,18466,1,0,0:0:0:0:
64,192,18656,128,0,18845:0:0:0:0:
192,192,18656,128,0,18845:0:0:0:0:
448,192,18656,1,0,0:0:0:0:
448,192,18845,1,0,0:0:0:0:
320,192,18940,1,0,0:0:0:0:
64,192,19035,1,0,0:0:0:0:
448,192,19130,1,0,0:0:0:0:
320,192,19225,1,0,0:0:0:0:
192,192,19320,1,0,0:0:0:0:
64,192,19415,1,0,0:0:0:0:
320,192,19415,128,0,19605:0:0:0:0:
448,192,19415,128,0,19605:0:0:0:0:
64,192,19605,1,0,0:0:0:0:
448,192,19795,1,0,0:0:0:0:
192,192,19795,128,0,19985:0:0:0:0:
64,192,19795,128,0,19985:0:0:0:0:
448,192,19985,1,0,0:0:0:0:
320,192,20080,1,0,0:0:0:0:
192,192,20175,1,0,0:0:0:0:
64,192,20270,1,0,0:0:0:0:
448,192,20364,1,0,0:0:0:0:
320,192,20459,1,0,0:0:0:0:
192,192,20554,128,0,20744:0:0:0:0:
448,192,20554,1,0,0:0:0:0:
64,192,20554,128,0,20744:0:0:0:0:
448,192,20744,1,0,0:0:0:0:
448,192,20934,128,0,21124:0:0:0:0:
64,192,20934,1,0,0:0:0:0:
320,192,20934,128,0,21124:0:0:0:0:
64,192,21124,1,0,0:0:0:0:
192,192,21219,1,0,0:0:0:0:
320,192,21314,1,0,0:0:0:0:
192,192,21409,128,0,21599:0:0:0:0:
448,192,21409,1,0,0:0:0:0:
64,192,21409,128,0,21599:0:0:0:0:
448,192,21599,1,0,0:0:0:0:
448,192,21789,128,0,21978:0:0:0:0:
64,192,21789,1,0,0:0:0:0:
320,192,21789,128,0,21978:0:0:0:0:
64,192,21978,1,0,0:0:0:0:
192,192,22073,1,0,0:0:0:0:
320,192,22168,1,0,0:0:0:0:
448,192,22263,1,0,0:0:0:0:
320,192,22358,1,0,0:0:0:0:
192,192,22453,1,0,0:0:0:0:
64,192,22548,1,0,0:0:0:0:
448,192,22643,1,0,0:0:0:0:
320,192,22738,1,0,0:0:0:0:
448,192,22833,1,0,0:0:0:0:
320,192,22928,1,0,0:0:0:0:
192,192,23023,1,0,0:0:0:0:
64,192,23118,1,0,0:0:0:0:
320,192,23213,1,0,0:0:0:0:
448,192,23308,1,0,0:0:0:0:
192,192,23402,1,0,0:0:0:0:
320,192,23497,1,0,0:0:0:0:
64,192,23592,128,0,23782:0:0:0:0:
448,192,23592,1,0,0:0:0:0:
192,192,23592,128,0,23782:0:0:0:0:
448,192,23782,1,0,0:0:0:0:
448,192,23877,1,0,0:0:0:0:
64,192,23972,1,0,0:0:0:0:
192,192,24067,1,0,0:0:0:0:
448,192,24162,1,0,0:0:0:0:
64,192,24257,1,0,0:0:0:0:
448,192,24352,1,0,0:0:0:0:
320,192,24447,1,0,0:0:0:0:
320,192,24542,1,0,0:0:0:0:
64,192,24637,1,0,0:0:0:0:
192,192,24732,1,0,0:0:0:0:
448,192,24827,1,0,0:0:0:0:
320,192,24921,1,0,0:0:0:0:
192,192,24969,1,0,0:0:0:0:
64,192,25016,1,0,0:0:0:0:
320,192,25111,128,0,25301:0:0:0:0:
448,192,25111,128,0,25301:0:0:0:0:
64,192,25396,128,0,25586:0:0:0:0:
192,192,25396,128,0,25586:0:0:0:0:
448,192,25633,128,0,25823:0:0:0:0:
320,192,25633,128,0,25776:0:0:0:0:
64,192,26251,1,0,0:0:0:0:
192,192,26345,1,0,0:0:0:0:
320,192,26440,1,0,0:0:0:0:
448,192,26535,1,0,0:0:0:0:
64,192,26630,1,0,0:0:0:0:
448,192,26725,1,0,0:0:0:0:
64,192,26820,1,0,0:0:0:0:
320,192,26915,1,0,0:0:0:0:
192,192,27010,1,0,0:0:0:0:
320,192,27105,1,0,0:0:0:0:
64,192,27200,1,0,0:0:0:0:
64,192,27295,1,0,0:0:0:0:
448,192,27390,1,0,0:0:0:0:
320,192,27485,1,0,0:0:0:0:
448,192,27580,1,0,0:0:0:0:
320,192,27675,1,0,0:0:0:0:
64,192,27770,1,0,0:0:0:0:
192,192,27864,1,0,0:0:0:0:
320,192,27959,1,0,0:0:0:0:
448,192,28054,1,0,0:0:0:0:
64,192,28149,1,0,0:0:0:0:
320,192,28244,1,0,0:0:0:0:
448,192,28339,1,0,0:0:0:0:
192,192,28434,1,0,0:0:0:0:
64,192,28529,1,0,0:0:0:0:
448,192,28624,1,0,0:0:0:0:
320,192,28719,1,0,0:0:0:0:
64,192,28814,1,0,0:0:0:0:
64,192,28909,1,0,0:0:0:0:
448,192,29004,1,0,0:0:0:0:
320,192,29099,1,0,0:0:0:0:
448,192,29194,128,0,29573:0:0:0:0:
192,192,29289,1,0,0:0:0:0:
64,192,29383,1,0,0:0:0:0:
320,192,29478,1,0,0:0:0:0:
192,192,29573,1,0,0:0:0:0:
64,192,29668,1,0,0:0:0:0:
192,192,29763,1,0,0:0:0:0:
320,192,29858,1,0,0:0:0:0:
448,192,29953,1,0,0:0:0:0:
64,192,30048,1,0,0:0:0:0:
320,192,30143,1,0,0:0:0:0:
448,192,30238,1,0,0:0:0:0:
192,192,30333,1,0,0:0:0:0:
64,192,30428,1,0,0:0:0:0:
192,192,30523,1,0,0:0:0:0:
320,192,30618,1,0,0:0:0:0:
320,192,30713,1,0,0:0:0:0:
64,192,30808,1,0,0:0:0:0:
192,192,30902,1,0,0:0:0:0:
448,192,30997,1,0,0:0:0:0:
320,192,31092,1,0,0:0:0:0:
192,192,31187,1,0,0:0:0:0:
64,192,31282,1,0,0:0:0:0:
192,192,31377,1,0,0:0:0:0:
192,192,31472,1,0,0:0:0:0:
320,192,31567,1,0,0:0:0:0:
448,192,31662,1,0,0:0:0:0:
320,192,31757,1,0,0:0:0:0:
320,192,31852,1,0,0:0:0:0:
64,192,31947,128,0,32137:0:0:0:0:
192,192,31947,128,0,32137:0:0:0:0:
448,192,32327,1,0,0:0:0:0:
320,192,32421,1,0,0:0:0:0:
192,192,32516,1,0,0:0:0:0:
64,192,32611,1,0,0:0:0:0:
320,192,32706,1,0,0:0:0:0:
448,192,32801,1,0,0:0:0:0:
192,192,32896,1,0,0:0:0:0:
64,192,32991,1,0,0:0:0:0:
192,192,33086,1,0,0:0:0:0:
320,192,33181,1,0,0:0:0:0:
448,192,33276,1,0,0:0:0:0:
320,192,33371,1,0,0:0:0:0:
192,192,33466,1,0,0:0:0:0:
64,192,33561,1,0,0:0:0:0:
320,192,33656,1,0,0:0:0:0:
448,192,33751,1,0,0:0:0:0:
192,192,33845,1,0,0:0:0:0:
64,192,33940,1,0,0:0:0:0:
192,192,34035,1,0,0:0:0:0:
320,192,34130,1,0,0:0:0:0:
192,192,34225,1,0,0:0:0:0:
320,192,34320,1,0,0:0:0:0:
448,192,34415,1,0,0:0:0:0:
192,192,34510,1,0,0:0:0:0:
64,192,34605,1,0,0:0:0:0:
192,192,34700,1,0,0:0:0:0:
448,192,34795,1,0,0:0:0:0:
320,192,34890,1,0,0:0:0:0:
64,192,34985,1,0,0:0:0:0:
192,192,35080,1,0,0:0:0:0:
448,192,35175,1,0,0:0:0:0:
320,192,35270,1,0,0:0:0:0:
192,192,35364,1,0,0:0:0:0:
448,192,35459,1,0,0:0:0:0:
64,192,35554,1,0,0:0:0:0:
192,192,35649,1,0,0:0:0:0:
320,192,35744,1,0,0:0:0:0:
192,192,35839,1,0,0:0:0:0:
448,192,35934,1,0,0:0:0:0:
320,192,36029,1,0,0:0:0:0:
192,192,36124,1,0,0:0:0:0:
64,192,36219,1,0,0:0:0:0:
320,192,36314,1,0,0:0:0:0:
448,192,36409,1,0,0:0:0:0:
192,192,36504,1,0,0:0:0:0:
64,192,36599,1,0,0:0:0:0:
320,192,36694,1,0,0:0:0:0:
448,192,36789,1,0,0:0:0:0:
320,192,36883,1,0,0:0:0:0:
192,192,36978,1,0,0:0:0:0:
64,192,37073,1,0,0:0:0:0:
320,192,37168,1,0,0:0:0:0:
192,192,37263,1,0,0:0:0:0:
64,192,37358,1,0,0:0:0:0:
320,192,37453,1,0,0:0:0:0:
448,192,37548,1,0,0:0:0:0:
192,192,37643,1,0,0:0:0:0:
64,192,37785,1,0,0:0:0:0:
320,192,37833,1,0,0:0:0:0:
320,192,37928,1,0,0:0:0:0:
448,192,38023,1,0,0:0:0:0:
448,192,38118,1,0,0:0:0:0:
192,192,38213,1,0,0:0:0:0:
64,192,38308,1,0,0:0:0:0:
192,192,38402,1,0,0:0:0:0:
320,192,38497,1,0,0:0:0:0:
448,192,38592,1,0,0:0:0:0:
192,192,38687,1,0,0:0:0:0:
64,192,38782,1,0,0:0:0:0:
192,192,38877,1,0,0:0:0:0:
448,192,38972,1,0,0:0:0:0:
192,192,39067,1,0,0:0:0:0:
320,192,39162,1,0,0:0:0:0:
64,192,39257,1,0,0:0:0:0:
320,192,39352,1,0,0:0:0:0:
448,192,39447,1,0,0:0:0:0:
64,192,39542,128,0,40301:0:0:0:0:
320,192,39921,1,0,0:0:0:0:
448,192,39921,1,0,0:0:0:0:
448,192,40301,1,0,0:0:0:0:
320,192,40396,1,0,0:0:0:0:
192,192,40491,1,0,0:0:0:0:
320,192,40586,1,0,0:0:0:0:
448,192,40681,128,0,41061:0:0:0:0:
192,192,40871,1,0,0:0:0:0:
64,192,40871,1,0,0:0:0:0:
64,192,41061,128,0,41440:0:0:0:0:
320,192,41251,1,0,0:0:0:0:
448,192,41251,1,0,0:0:0:0:
320,192,41440,128,0,41820:0:0:0:0:
192,192,41630,1,0,0:0:0:0:
64,192,41630,1,0,0:0:0:0:
64,192,41820,1,0,0:0:0:0:
192,192,41915,1,0,0:0:0:0:
320,192,42010,1,0,0:0:0:0:
192,192,42105,1,0,0:0:0:0:
448,192,42200,1,0,0:0:0:0:
320,192,42295,1,0,0:0:0:0:
192,192,42390,1,0,0:0:0:0:
64,192,42485,1,0,0:0:0:0:
320,192,42580,1,0,0:0:0:0:
448,192,42675,1,0,0:0:0:0:
192,192,42770,1,0,0:0:0:0:
64,192,42864,1,0,0:0:0:0:
320,192,42959,1,0,0:0:0:0:
448,192,43054,1,0,0:0:0:0:
320,192,43149,1,0,0:0:0:0:
448,192,43244,1,0,0:0:0:0:
320,192,43339,128,0,43529:0:0:0:0:
64,192,43339,1,0,0:0:0:0:
448,192,43339,128,0,43529:0:0:0:0:
64,192,43529,1,0,0:0:0:0:
192,192,43719,128,0,43909:0:0:0:0:
64,192,43719,128,0,43909:0:0:0:0:
448,192,43719,1,0,0:0:0:0:
448,192,43909,1,0,0:0:0:0:
448,192,44099,128,0,44289:0:0:0:0:
64,192,44099,1,0,0:0:0:0:
320,192,44099,128,0,44289:0:0:0:0:
64,192,44289,1,0,0:0:0:0:
64,192,44478,1,0,0:0:0:0:
192,192,44478,1,0,0:0:0:0:
448,192,44573,1,0,0:0:0:0:
320,192,44668,1,0,0:0:0:0:
192,192,44763,1,0,0:0:0:0:
448,192,44858,1,0,0:0:0:0:
320,192,44953,1,0,0:0:0:0:
448,192,45048,1,0,0:0:0:0:
192,192,45143,1,0,0:0:0:0:
64,192,45238,1,0,0:0:0:0:
192,192,45333,1,0,0:0:0:0:
320,192,45428,1,0,0:0:0:0:
448,192,45523,1,0,0:0:0:0:
192,192,45618,1,0,0:0:0:0:
64,192,45713,1,0,0:0:0:0:
192,192,45808,1,0,0:0:0:0:
320,192,45902,1,0,0:0:0:0:
448,192,45997,1,0,0:0:0:0:
192,192,46092,1,0,0:0:0:0:
64,192,46187,1,0,0:0:0:0:
192,192,46282,1,0,0:0:0:0:
448,192,46377,1,0,0:0:0:0:
320,192,46472,1,0,0:0:0:0:
64,192,46662,1,0,0:0:0:0:
192,192,46852,1,0,0:0:0:0:
320,192,47042,1,0,0:0:0:0:
448,192,47137,1,0,0:0:0:0:
192,192,47232,1,0,0:0:0:0:
64,192,47421,1,0,0:0:0:0:
192,192,47516,1,0,0:0:0:0:
448,192,47611,1,0,0:0:0:0:
320,192,47706,1,0,0:0:0:0:
192,192,47801,1,0,0:0:0:0:
64,192,47896,1,0,0:0:0:0:
320,192,47991,1,0,0:0:0:0:
448,192,48086,1,0,0:0:0:0:
320,192,48181,1,0,0:0:0:0:
192,192,48276,1,0,0:0:0:0:
64,192,48371,1,0,0:0:0:0:
320,192,48466,1,0,0:0:0:0:
448,192,48561,1,0,0:0:0:0:
192,192,48656,1,0,0:0:0:0:
320,192,48751,1,0,0:0:0:0:
64,192,48845,1,0,0:0:0:0:
192,192,48940,1,0,0:0:0:0:
448,192,49035,1,0,0:0:0:0:
320,192,49130,1,0,0:0:0:0:
192,192,49225,1,0,0:0:0:0:
320,192,49320,1,0,0:0:0:0:
448,192,49415,1,0,0:0:0:0:
320,192,49510,1,0,0:0:0:0:
192,192,49700,1,0,0:0:0:0:
64,192,49890,1,0,0:0:0:0:
448,192,50080,1,0,0:0:0:0:
64,192,50175,1,0,0:0:0:0:
448,192,50270,1,0,0:0:0:0:
320,192,50459,1,0,0:0:0:0:
64,192,50554,1,0,0:0:0:0:
448,192,50744,1,0,0:0:0:0:
448,192,50934,1,0,0:0:0:0:
320,192,51029,1,0,0:0:0:0:
192,192,51124,1,0,0:0:0:0:
64,192,51219,1,0,0:0:0:0:
192,192,51314,1,0,0:0:0:0:
320,192,51409,1,0,0:0:0:0:
448,192,51504,1,0,0:0:0:0:
192,192,51599,1,0,0:0:0:0:
64,192,51694,1,0,0:0:0:0:
192,192,51789,1,0,0:0:0:0:
320,192,51883,1,0,0:0:0:0:
64,192,51978,1,0,0:0:0:0:
192,192,52073,1,0,0:0:0:0:
448,192,52168,1,0,0:0:0:0:
320,192,52263,1,0,0:0:0:0:
64,192,52358,1,0,0:0:0:0:
192,192,52453,1,0,0:0:0:0:
320,192,52548,1,0,0:0:0:0:
448,192,52738,1,0,0:0:0:0:
192,192,52928,1,0,0:0:0:0:
64,192,53118,1,0,0:0:0:0:
192,192,53308,1,0,0:0:0:0:
320,192,53402,1,0,0:0:0:0:
448,192,53592,1,0,0:0:0:0:
192,192,53782,1,0,0:0:0:0:
64,192,53877,128,0,55491:0:0:0:0:
