osu file format v14

[General]
AudioFilename: audio.mp3
AudioLeadIn: 0
PreviewTime: 51980
Countdown: 0
SampleSet: Soft
StackLeniency: 0.7
Mode: 0
LetterboxInBreaks: 0
WidescreenStoryboard: 1

[Editor]
DistanceSpacing: 0.8
BeatDivisor: 4
GridSize: 32
TimelineZoom: 1

[Metadata]
Title:Darling (TV Size)
TitleUnicode:ダーリン (TV Size)
Artist:Kokoro (CV: Hayami Saori)
ArtistUnicode:ココロ (CV: 早見沙織)
Creator:xHappy-
Version:Normal
Source:ダーリン・イン・ザ・フランキス
Tags:anime japanese pop jpop j-pop Darling in the FranXX XX:me ed ending p_kung
BeatmapID:3135941
BeatmapSetID:1533460

[Difficulty]
HPDrainRate:4
CircleSize:3
OverallDifficulty:4
ApproachRate:5
SliderMultiplier:1.1
SliderTickRate:1

[Events]
//Background and Video events
0,0,"bg.jpg",0,0
//Break Periods
//Storyboard Layer 0 (Background)
//Storyboard Layer 1 (Fail)
//Storyboard Layer 2 (Pass)
//Storyboard Layer 3 (Foreground)
//Storyboard Layer 4 (Overlay)
//Storyboard Sound Samples

[TimingPoints]
-4855,346.820809248555,4,2,1,40,1,0
347,-111.111111111111,4,2,1,40,0,0
1734,-111.111111111111,4,2,1,30,0,0
2775,-111.111111111111,4,2,1,30,0,0
3121,-111.111111111111,4,2,1,50,0,0
5896,-111.111111111111,4,2,1,60,0,0
6243,-100,4,2,1,70,0,0
14567,346.820809248555,4,2,1,50,1,0
14567,-111.111111111111,4,2,1,50,0,0
25665,-111.111111111111,4,2,1,60,0,0
33988,-100,4,2,1,70,0,0
36763,-95.2380952380952,4,2,1,80,0,0
45087,-105.263157894737,4,2,1,65,0,0
50636,-100,4,2,1,40,0,0
51330,-100,4,2,1,60,0,0
51676,-100,4,2,1,70,0,0
52023,346.820809248555,4,2,1,80,1,1
52023,-90.9090909090909,4,2,1,80,0,1
63121,-90.9090909090909,4,2,1,65,0,0
63468,-90.9090909090909,4,2,1,80,0,1
79768,-100,4,2,1,70,0,0
82543,-100,4,2,1,60,0,0
83930,-100,4,2,1,50,0,0
89479,-100,4,2,1,30,0,0
89826,-100,4,2,1,20,0,0
90173,-100,4,2,1,10,0,0
90520,-100,4,2,1,5,0,0

[Colours]
Combo1 : 136,181,168
Combo2 : 235,233,192
Combo3 : 2,122,242
Combo4 : 232,43,47

[HitObjects]
359,327,694,6,0,P|326:285|339:192,2,148.49999546814,2|2|2,0:0|0:0|0:0,0:0:0:0:
493,181,2428,1,0,0:0:0:0:
411,123,2775,2,0,L|419:22,1,98.9999969787598,2|4,0:0|3:0,0:0:0:0:
321,6,3468,6,0,P|274:61|202:62,1,148.49999546814,2|2,0:0|0:0,0:0:0:0:
65,5,4509,2,0,L|84:174,1,148.49999546814,2|8,0:0|0:0,0:0:0:0:
91,201,5202,1,0,1:0:0:0:
23,273,5549,2,0,P|0:314|4:363,1,98.9999969787598,8|10,0:0|0:0,0:0:0:0:
114,369,6243,6,0,L|227:358,1,110,6|2,1:2|1:2,0:0:0:0:
269,327,6763,1,10,0:0:0:0:
374,358,7110,1,2,1:2:0:0:
374,358,7283,2,0,P|380:311|350:253,1,110,14|0,0:0|1:0,0:0:0:0:
303,230,7804,2,0,L|308:115,1,110,14|2,0:0|1:2,0:0:0:0:
278,73,8324,1,14,0:0:0:0:
366,7,8671,2,0,L|423:14,1,55,10|2,0:0|0:0,0:0:0:0:
475,19,9017,6,0,P|449:66|454:120,1,110,6|8,1:2|0:0,0:0:0:0:
491,224,9711,2,0,P|517:271|512:325,1,110,0|10,1:0|0:0,0:0:0:0:
469,360,10231,2,0,L|359:349,1,110,2|10,0:0|0:0,0:0:0:0:
304,342,10752,2,0,P|294:316|295:289,1,55,10|10,0:0|0:0,0:0:0:0:
322,241,11098,1,10,0:0:0:0:
252,155,11445,2,0,L|189:162,1,55,4|4,3:0|3:0,0:0:0:0:
149,130,11792,6,0,P|96:128|52:159,1,110,6|0,1:2|1:0,0:0:0:0:
18,265,12486,2,0,P|61:296|115:293,1,110,0|8,1:0|0:0,0:0:0:0:
159,260,13006,1,10,0:0:0:0:
159,260,13179,2,0,L|222:267,1,55,10|10,0:0|0:0,0:0:0:0:
262,291,13526,2,0,L|316:284,1,55,10|10,0:0|0:0,0:0:0:0:
371,279,13873,2,0,P|402:235|399:181,1,110,12|10,0:0|0:0,0:0:0:0:
340,101,14567,6,0,L|142:89,1,197.99999395752,6|0,1:2|1:0,0:0:0:0:
51,50,15607,2,0,P|42:73|41:97,1,49.4999984893799,0|0,1:0|0:0,0:0:0:0:
69,139,15954,2,0,L|64:255,1,98.9999969787598,2|0,1:2|1:0,0:0:0:0:
123,325,16648,1,0,1:0:0:0:
123,325,16821,2,0,L|187:330,1,49.4999984893799,0|0,0:0|1:0,0:0:0:0:
221,330,17168,6,0,P|205:291|214:235,1,98.9999969787599
232,192,17688,1,0,1:0:0:0:
232,192,17861,1,0,0:0:0:0:
327,234,18208,1,0,0:0:0:0:
327,234,18382,2,0,L|395:226,1,49.4999984893799,0|0,1:0|0:0,0:0:0:0:
417,254,18728,2,0,P|465:247|500:214,1,98.9999969787599,2|0,1:2|1:0,0:0:0:0:
512,119,19422,1,0,1:0:0:0:
512,119,19596,2,0,L|509:65,1,49.4999984893799,0|0,0:0|1:0,0:0:0:0:
475,33,19942,6,0,P|431:32|376:71,1,98.9999969787599
363,106,20463,1,0,1:0:0:0:
363,106,20636,1,0,0:0:0:0:
272,81,20983,1,0,0:0:0:0:
272,81,21156,2,0,L|221:77,1,49.4999984893799,0|0,1:0|0:0,0:0:0:0:
173,81,21503,2,0,P|165:129|183:174,1,98.9999969787599,2|0,1:2|1:0,0:0:0:0:
269,223,22197,1,0,1:0:0:0:
347,163,22543,1,0,1:0:0:0:
430,215,22890,6,0,L|414:318,1,98.9999969787599,2|0,1:2|1:0,0:0:0:0:
402,361,23411,2,0,P|353:367|310:344,1,98.9999969787599,0|8,0:0|3:0,0:0:0:0:
256,269,24104,1,4,3:0:0:0:
256,269,24278,2,0,P|218:239|169:237,1,98.9999969787599,2|0,1:2|1:0,0:0:0:0:
139,276,24798,2,0,L|133:165,1,98.9999969787599,0|8,0:0|0:0,0:0:0:0:
136,127,25318,1,0,1:0:0:0:
62,60,25665,6,0,P|159:68|246:22,1,197.99999395752,6|0,1:2|1:0,0:0:0:0:
344,16,26705,2,0,L|340:79,1,49.4999984893799,0|0,1:0|0:0,0:0:0:0:
357,112,27052,2,0,L|364:212,1,98.9999969787599,2|0,1:2|1:0,0:0:0:0:
331,304,27746,1,0,1:0:0:0:
331,304,27919,2,0,L|281:297,1,49.4999984893799,0|0,3:0|1:0,0:0:0:0:
232,294,28266,6,0,P|217:247|227:199,1,98.9999969787599
261,164,28786,1,0,1:0:0:0:
261,164,28960,2,0,L|257:60,1,98.9999969787599,0|0,0:0|0:0,0:0:0:0:
234,20,29480,2,0,P|212:10|188:6,1,49.4999984893799,0|0,1:0|0:0,0:0:0:0:
146,34,29827,2,0,L|46:25,1,98.9999969787599,2|0,1:2|1:0,0:0:0:0:
0,112,30520,2,0,L|9:160,1,49.4999984893799,0|8,1:0|0:0,0:0:0:0:
44,195,30867,2,0,L|34:243,1,49.4999984893799,0|0,1:0|1:0,0:0:0:0:
27,292,31214,6,0,P|64:323|112:320,1,98.9999969787599,4|0,1:2|1:0,0:0:0:0:
161,315,31734,2,0,L|177:206,1,98.9999969787599
123,138,32428,1,0,0:0:0:0:
123,138,32601,2,0,P|168:121|216:129,1,98.9999969787599,2|0,1:2|1:0,0:0:0:0:
255,169,33122,1,0,0:0:0:0:
255,169,33295,2,0,P|300:186|348:178,1,98.9999969787599,0|0,1:0|1:0,0:0:0:0:
421,260,33989,6,0,P|458:191|436:112,1,165,14|12,0:2|0:0,0:0:0:0:
339,69,34856,1,8,3:0:0:0:
339,69,35029,2,0,L|273:77,1,55,4|4,3:0|3:0,0:0:0:0:
229,81,35376,2,0,P|186:46|132:44,1,110,2|0,1:2|1:2,0:0:0:0:
83,58,35896,1,8,0:0:0:0:
83,58,36070,2,0,L|93:125,1,55,0|8,1:0|0:0,0:0:0:0:
106,164,36416,1,0,1:0:0:0:
85,277,36763,6,0,P|127:242|186:241,1,115.49999647522,6|8,1:2|0:0,0:0:0:0:
247,252,37283,1,2,0:0:0:0:
247,252,37457,2,0,L|363:270,1,115.49999647522,10|8,0:0|0:0,0:0:0:0:
470,307,38150,2,0,L|480:251,1,57.7499982376099,10|2,0:2|0:2,0:0:0:0:
439,208,38497,2,0,L|429:152,1,57.7499982376099,10|2,0:2|0:2,0:0:0:0:
428,93,38844,2,0,P|385:127|327:129,1,115.49999647522,10|8,0:0|0:0,0:0:0:0:
280,93,39364,6,0,P|223:93|178:128,1,115.49999647522,2|2,1:2|0:2,0:0:0:0:
145,177,39885,2,0,L|79:173,1,57.7499982376099,10|2,0:2|0:2,0:0:0:0:
29,171,40231,1,10,0:0:0:0:
1,58,40578,1,10,0:0:0:0:
103,4,40925,2,0,L|218:12,1,115.49999647522,10|8,0:0|0:0,0:0:0:0:
261,50,41445,1,2,0:0:0:0:
261,50,41619,2,0,L|318:46,1,57.7499982376099,10|0,0:0|1:0,0:0:0:0:
376,41,41965,1,8,0:0:0:0:
476,98,42312,6,0,P|499:150|494:207,1,115.49999647522,14|8,0:2|0:0,0:0:0:0:
449,241,42833,1,2,0:0:0:0:
449,241,43006,2,0,L|334:232,1,115.49999647522,10|8,0:0|0:0,0:0:0:0:
237,167,43700,2,0,P|216:216|227:281,1,115.49999647522,10|10,0:2|0:2,0:0:0:0:
260,321,44220,1,2,0:2:0:0:
260,321,44393,2,0,L|317:317,2,57.7499982376099,10|2|14,0:2|1:2|0:0,0:0:0:0:
162,364,45087,6,0,P|111:361|72:327,1,104.499997209549,6|0,1:2|0:2,0:0:0:0:
54,278,45607,1,2,1:2:0:0:
54,278,45780,1,8,0:0:0:0:
128,204,46127,1,0,0:0:0:0:
43,140,46474,2,0,P|29:91|44:42,1,104.499997209549,2|2,1:2|0:0,0:0:0:0:
87,13,46994,1,0,1:0:0:0:
87,13,47168,1,8,1:2:0:0:
181,56,47515,2,0,L|248:48,1,52.2499986047745,0|10,0:0|0:0,0:0:0:0:
284,45,47861,6,0,P|333:59|382:44,1,104.499997209549,2|0,1:2|0:0,0:0:0:0:
428,18,48382,1,2,1:2:0:0:
428,18,48555,1,8,0:0:0:0:
511,80,48902,2,0,P|496:102|477:119,1,52.2499986047745,0|0,0:0|1:0,0:0:0:0:
449,164,49249,2,0,L|446:268,1,104.499997209549,0|2,0:0|0:0,0:0:0:0:
363,332,49942,1,10,0:0:0:0:
289,275,50289,1,8,0:0:0:0:
289,275,50463,1,8,0:0:0:0:
289,275,50636,5,6,1:2:0:0:
115,310,51330,1,6,1:2:0:0:
13,147,52023,6,0,L|22:80,1,60.5000018463135,6|2,1:2|0:0,0:0:0:0:
28,26,52370,2,0,P|86:18|135:52,1,121.000003692627,8|2,0:0|1:2,0:0:0:0:
162,106,52890,1,2,1:2:0:0:
162,106,53064,1,8,0:0:0:0:
103,211,53411,2,0,L|111:271,1,60.5000018463135,2|2,1:2|1:2,0:0:0:0:
122,330,53757,2,0,P|180:337|229:303,1,121.000003692627,8|2,0:0|1:2,0:0:0:0:
256,250,54277,1,2,1:2:0:0:
256,250,54451,1,8,0:0:0:0:
366,200,54798,6,0,L|427:206,1,60.5000018463135,2|2,1:2|1:2,0:0:0:0:
486,209,55145,2,0,P|520:160|512:101,1,121.000003692627,8|2,0:0|1:2,0:0:0:0:
469,59,55665,1,2,1:2:0:0:
469,59,55838,1,8,0:0:0:0:
348,73,56185,2,0,L|223:85,1,121.000003692627,2|8,1:2|0:0,0:0:0:0:
117,33,56879,1,0,1:2:0:0:
117,33,57052,1,0,1:0:0:0:
117,33,57226,2,0,L|114:93,1,60.5000018463135,8|8,0:0|0:0,0:0:0:0:
113,153,57572,5,6,1:2:0:0:
28,240,57919,2,0,P|73:277|132:273,1,121.000003692627,10|0,0:0|1:0,0:0:0:0:
183,241,58439,1,0,1:0:0:0:
183,241,58613,2,0,L|197:323,1,60.5000018463135,8|2,0:0|0:0,0:0:0:0:
207,359,58960,2,0,P|252:321|311:325,1,121.000003692627,2|10,1:2|0:0,0:0:0:0:
363,356,59480,2,0,L|385:235,1,121.000003692627,2|2,0:0|1:2,0:0:0:0:
394,177,60000,1,8,0:0:0:0:
278,141,60347,5,2,1:2:0:0:
248,23,60694,1,10,0:0:0:0:
132,60,61041,2,0,L|65:56,2,60.5000018463135,2|0|10,1:2|1:0|0:0,0:0:0:0:
248,23,61734,2,0,L|308:19,1,60.5000018463135,6|2,1:2|0:0,0:0:0:0:
368,14,62081,1,10,0:0:0:0:
368,14,62254,2,0,P|407:59|409:118,1,121.000003692627,6|8,1:2|0:0,0:0:0:0:
378,169,62775,2,0,L|392:239,1,60.5000018463135,8|4,0:0|3:0,0:0:0:0:
404,287,63122,5,6,1:2:0:0:
302,351,63468,2,0,P|249:323|191:335,1,121.000003692627,12|2,0:0|1:2,0:0:0:0:
143,370,63989,1,2,1:2:0:0:
143,370,64162,1,8,0:0:0:0:
52,289,64509,2,0,L|63:229,1,60.5000018463135,2|2,1:2|0:0,0:0:0:0:
74,169,64856,2,0,P|30:129|30:70,1,121.000003692627,8|2,0:0|1:2,0:0:0:0:
66,21,65376,1,2,1:2:0:0:
66,21,65549,1,8,0:0:0:0:
180,58,65896,6,0,L|244:53,1,60.5000018463135,2|2,1:2|0:0,0:0:0:0:
298,34,66243,2,0,P|341:73|341:132,1,121.000003692627,8|2,0:0|1:2,0:0:0:0:
309,184,66763,1,2,1:2:0:0:
309,184,66937,1,8,0:0:0:0:
192,152,67283,2,0,L|181:272,1,121.000003692627,2|8,1:2|0:0,0:0:0:0:
280,361,67977,1,0,1:2:0:0:
280,361,68150,1,0,1:0:0:0:
280,361,68324,2,0,L|345:354,1,60.5000018463135,8|8,0:0|0:0,0:0:0:0:
400,350,68671,5,6,1:2:0:0:
505,292,69017,2,0,P|472:244|414:232,1,121.000003692627,10|0,0:0|1:2,0:0:0:0:
357,256,69538,1,0,1:2:0:0:
357,256,69711,2,0,L|347:180,1,60.5000018463135,8|2,0:0|0:0,0:0:0:0:
342,135,70058,2,0,P|399:123|433:74,1,121.000003692627,2|10,1:2|0:0,0:0:0:0:
424,13,70578,2,0,L|292:27,1,121.000003692627,2|2,0:0|1:2,0:0:0:0:
243,30,71098,1,8,0:0:0:0:
165,122,71445,5,2,1:2:0:0:
81,34,71792,1,10,0:2:0:0:
5,128,72139,2,0,L|-1:67,2,60.5000018463135,2|0|10,1:2|1:0|0:0,0:0:0:0:
79,223,72833,2,0,L|73:283,1,60.5000018463135,6|2,1:2|0:0,0:0:0:0:
76,347,73179,1,10,0:0:0:0:
76,347,73353,2,0,P|135:347|179:308,1,121.000003692627,6|8,1:2|0:0,0:0:0:0:
198,249,73873,2,0,L|268:254,1,60.5000018463135,8|8,0:0|0:0,0:0:0:0:
319,255,74220,5,6,1:2:0:0:
421,329,74567,1,10,0:0:0:0:
421,329,74740,2,0,L|431:193,1,121.000003692627,6|2,1:2|1:2,0:0:0:0:
435,147,75260,2,0,P|410:129|380:125,1,60.5000018463135,10|2,0:0|1:2,0:0:0:0:
321,138,75607,1,4,1:2:0:0:
235,63,75954,1,10,0:0:0:0:
235,63,76127,2,0,P|211:117|217:177,1,121.000003692627,6|2,1:2|1:2,0:0:0:0:
264,216,76648,2,0,L|259:278,1,60.5000018463135,8|4,0:0|3:0,0:0:0:0:
254,336,76994,5,6,1:2:0:0:
135,359,77341,2,0,P|77:372|27:341,1,121.000003692627,14|2,0:0|1:2,0:0:0:0:
4,291,77861,1,0,1:0:0:0:
4,291,78035,1,10,0:0:0:0:
48,178,78382,2,0,L|59:43,1,121.000003692627,2|8,1:2|0:0,0:0:0:0:
174,26,79075,2,0,L|239:22,1,60.5000018463135,0|10,1:2|0:0,0:0:0:0:
283,58,79422,2,0,L|348:54,1,60.5000018463135,8|10,0:0|0:0,0:0:0:0:
384,19,79769,6,0,P|438:21|475:61,1,110,6|2,1:2|0:2,0:0:0:0:
409,150,80463,1,10,0:0:0:0:
409,150,80636,2,0,L|277:160,1,110,2|0,0:0|1:2,0:0:0:0:
248,165,81156,1,2,0:0:0:0:
248,165,81330,2,0,P|220:212|223:267,1,110,2|0,1:2|1:0,0:0:0:0:
251,312,81850,1,10,0:0:0:0:
251,312,82023,2,0,L|383:322,1,110,2|8,0:0|0:0,0:0:0:0:
415,324,82543,5,6,1:2:0:0:
511,126,83237,1,6,1:2:0:0:
297,72,83931,1,6,1:2:0:0:
256,192,84104,12,0,90520,0:0:0:0:
