osu file format v14

[General]
AudioFilename: audio.mp3
AudioLeadIn: 0
PreviewTime: 51980
Countdown: 0
SampleSet: Soft
StackLeniency: 0.5
Mode: 0
LetterboxInBreaks: 0
WidescreenStoryboard: 0

[Editor]
DistanceSpacing: 1
BeatDivisor: 4
GridSize: 32
TimelineZoom: 1

[Metadata]
Title:Darling (TV Size)
TitleUnicode:ダーリン (TV Size)
Artist:Kokoro (CV: Hayami Saori)
ArtistUnicode:ココロ (CV: 早見沙織)
Creator:xHappy-
Version:Insane
Source:ダーリン・イン・ザ・フランキス
Tags:anime japanese pop jpop j-pop Darling in the FranXX XX:me ed ending p_kung
BeatmapID:3135940
BeatmapSetID:1533460

[Difficulty]
HPDrainRate:6
CircleSize:4
OverallDifficulty:8
ApproachRate:9
SliderMultiplier:1.8
SliderTickRate:1

[Events]
//Background and Video events
0,0,"bg.jpg",0,0
//Break Periods
//Storyboard Layer 0 (Background)
//Storyboard Layer 1 (Fail)
//Storyboard Layer 2 (Pass)
//Storyboard Layer 3 (Foreground)
//Storyboard Layer 4 (Overlay)
//Storyboard Sound Samples

[TimingPoints]
-4855,346.820809248555,4,2,1,40,1,0
347,-166.666666666667,4,2,1,40,0,0
1734,-200,4,2,1,30,0,0
2775,-142.857142857143,4,2,1,30,0,0
3121,-117.647058823529,4,2,1,50,0,0
5896,-100,4,2,1,60,0,0
6243,-100,4,2,1,70,0,0
14567,346.820809248555,4,2,1,50,1,0
14567,-113.636363636364,4,2,1,50,0,0
25665,-108.695652173913,4,2,1,60,0,0
33988,-100,4,2,1,70,0,0
36763,-90.9090909090909,4,2,1,80,0,0
45087,-111.111111111111,4,2,1,65,0,0
50636,-161.290322580645,4,2,1,40,0,0
51330,-121.951219512195,4,2,1,60,0,0
51676,-90.9090909090909,4,2,1,70,0,0
52023,346.820809248555,4,2,1,80,1,1
52023,-90.9090909090909,4,2,1,80,0,1
63121,-181.818181818182,4,2,1,65,0,0
63468,-90.9090909090909,4,2,1,80,0,1
79768,-111.111111111111,4,2,1,70,0,0
82543,-125,4,2,1,60,0,0
83930,-142.857142857143,4,2,1,50,0,0
89479,-142.857142857143,4,2,1,30,0,0
89826,-142.857142857143,4,2,1,20,0,0
90173,-142.857142857143,4,2,1,10,0,0
90520,-142.857142857143,4,2,1,5,0,0

[Colours]
Combo1 : 136,181,168
Combo2 : 235,233,192
Combo3 : 2,122,242
Combo4 : 232,43,47

[HitObjects]
467,74,347,6,0,L|463:141,1,53.9999983520508,2|2,0:0|0:0,0:0:0:0:
423,192,694,6,0,P|369:185|315:181,1,107.999996704102,2|0,0:0|0:0,0:0:0:0:
244,277,1214,2,0,P|297:273|351:266,1,107.999996704102,2|0,0:0|0:0,0:0:0:0:
175,211,1734,6,0,P|149:293|201:362,1,180,2|0,0:0|0:0,0:0:0:0:
202,363,2775,2,0,P|196:331|191:300,1,62.9999980773926,2|0,0:0|0:0,0:0:0:0:
288,264,3122,1,4,3:0:0:0:
205,191,3295,1,0,3:0:0:0:
200,180,3382,1,0,3:0:0:0:
194,169,3468,6,0,P|206:94|216:18,1,153.000002918243,2|0,0:0|0:0,0:0:0:0:
49,241,3989,2,0,P|36:165|26:89,1,153.000002918243,2|0,0:0|0:0,0:0:0:0:
147,286,4509,6,0,P|103:346|29:352,1,153.000002918243,2|0,0:0|0:0,0:0:0:0:
124,206,5029,1,8,0:0:0:0:
226,307,5202,2,0,P|263:300|301:297,1,76.5000014591217,0|0,1:0|1:0,0:0:0:0:
438,377,5549,2,0,P|413:348|391:317,1,76.5000014591217,8|0,0:0|1:0,0:0:0:0:
395,166,5896,1,10,0:0:0:0:
389,184,5983,1,8,0:0:0:0:
382,202,6070,1,10,0:0:0:0:
374,219,6156,1,8,0:0:0:0:
365,236,6243,6,0,P|354:146|342:57,1,180,6|2,1:2|1:2,0:0:0:0:
164,154,6763,2,0,P|207:166|259:178,1,90,10|0,0:0|1:0,0:0:0:0:
191,34,7110,1,2,1:2:0:0:
81,230,7283,2,0,P|51:183|93:63,1,180,14|0,0:0|1:0,0:0:0:0:
180,253,7804,2,0,B|92:244|92:244|10:284,1,180,14|2,0:0|1:2,0:0:0:0:
176,371,8324,2,0,P|231:365|273:325,1,90,14|0,0:0|1:0,0:0:0:0:
368,232,8671,1,10,0:0:0:0:
201,167,8844,1,2,0:0:0:0:
391,334,9017,6,0,P|461:282|464:195,1,180,6|8,1:2|0:0,0:0:0:0:
361,88,9538,1,0,0:0:0:0:
201,167,9711,2,0,L|190:77,1,90,0|2,1:0|0:0,0:0:0:0:
329,162,10058,1,10,0:0:0:0:
182,218,10231,6,0,L|161:29,1,180,2|10,0:0|0:0,0:0:0:0:
158,16,10665,1,8,0:0:0:0:
158,16,10752,1,10,0:0:0:0:
65,149,10925,1,10,0:0:0:0:
270,108,11098,2,0,L|281:38,1,45,10|8,0:0|3:0,0:0:0:0:
182,218,11272,2,0,L|188:262,1,45,4|4,3:0|3:0,0:0:0:0:
380,250,11445,1,4,3:0:0:0:
369,220,11532,1,4,3:0:0:0:
347,198,11619,1,4,3:0:0:0:
317,189,11705,1,4,3:0:0:0:
286,195,11792,5,6,1:2:0:0:
286,195,12139,1,0,1:0:0:0:
188,262,12312,1,0,1:0:0:0:
261,116,12486,1,0,1:0:0:0:
369,220,12659,1,8,0:0:0:0:
169,132,12833,1,8,0:0:0:0:
370,56,13006,1,10,0:0:0:0:
145,117,13179,5,10,0:0:0:0:
342,127,13353,1,10,0:0:0:0:
120,208,13526,1,10,0:0:0:0:
253,38,13700,1,10,0:0:0:0:
294,276,13873,1,12,0:0:0:0:
125,127,14046,1,10,0:0:0:0:
145,117,14133,1,8,0:0:0:0:
167,113,14220,1,10,0:0:0:0:
189,114,14307,1,8,0:0:0:0:
211,120,14393,1,10,0:0:0:0:
231,130,14480,1,8,0:0:0:0:
248,145,14567,6,0,L|234:305,1,158.400004833984,6|0,1:2|1:0,0:0:0:0:
170,378,15087,1,0,0:0:0:0:
84,342,15260,2,0,P|63:308|61:269,1,79.2000024169922,0|0,1:0|0:0,0:0:0:0:
77,175,15607,1,0,1:0:0:0:
158,223,15780,1,0,0:0:0:0:
272,147,15954,6,0,B|302:133|359:148|333:170|390:184|422:170,1,158.400004833984,2|0,1:2|1:0,0:0:0:0:
497,98,16474,2,0,P|494:58|472:26,1,79.2000024169922,0|0,0:0|1:0,0:0:0:0:
383,87,16821,5,0,0:0:0:0:
301,25,16994,1,0,1:0:0:0:
383,87,17168,2,0,L|390:-1,1,79.2000024169922,0|2,0:0|1:2,0:0:0:0:
190,85,17515,5,0,0:0:0:0:
272,147,17688,1,0,1:0:0:0:
190,85,17861,2,0,L|183:173,1,79.2000024169922,0|0,0:0|1:2,0:0:0:0:
145,357,18208,5,0,0:0:0:0:
131,254,18382,1,0,1:0:0:0:
28,262,18555,1,0,0:0:0:0:
42,365,18728,2,0,B|75:315|75:315|68:216,1,158.400004833984,2|0,1:2|1:0,0:0:0:0:
0,65,19249,2,0,B|0:106|0:106|19:142,1,79.2000024169922,0|0,0:0|1:0,0:0:0:0:
176,21,19596,5,0,0:0:0:0:
117,105,19769,1,0,1:0:0:0:
176,21,19942,2,0,L|92:6,1,79.2000024169922,0|2,0:0|1:2,0:0:0:0:
255,81,20289,5,0,0:0:0:0:
314,165,20463,1,0,1:0:0:0:
255,81,20636,2,0,L|339:66,1,79.2000024169922,0|0,0:0|1:2,0:0:0:0:
147,224,20983,5,0,0:0:0:0:
123,323,21156,1,0,1:0:0:0:
225,337,21330,1,0,0:0:0:0:
249,238,21503,2,0,B|190:194|190:194|101:212,1,158.400004833984,2|0,1:2|1:0,0:0:0:0:
29,274,22023,1,0,0:0:0:0:
29,274,22197,2,0,L|15:179,1,79.2000024169922,0|0,1:0|0:0,0:0:0:0:
90,51,22543,2,0,L|78:129,1,79.2000024169922,0|0,1:0|0:0,0:0:0:0:
125,221,22890,5,2,1:2:0:0:
195,145,23064,2,0,L|189:103,2,39.6000012084961,0|0|0,3:0|3:0|1:0,0:0:0:0:
265,218,23411,2,0,P|304:219|336:196,1,79.2000024169922,0|0,0:0|1:0,0:0:0:0:
385,110,23757,1,8,3:0:0:0:
385,110,23844,1,8,3:0:0:0:
385,110,23931,1,4,3:0:0:0:
292,48,24104,1,4,3:0:0:0:
482,0,24278,6,0,L|469:78,1,79.2000024169922,2|0,1:2|3:0,0:0:0:0:
473,101,24538,1,0,3:0:0:0:
473,101,24624,1,0,1:0:0:0:
292,48,24798,2,0,L|304:126,1,79.2000024169922,0|0,0:0|1:0,0:0:0:0:
405,226,25145,1,8,0:0:0:0:
391,211,25231,1,8,0:0:0:0:
374,201,25318,1,0,1:0:0:0:
355,195,25405,1,0,1:0:0:0:
336,196,25491,1,0,1:0:0:0:
172,303,25665,6,0,P|253:289|336:280,1,165.599994440918,6|0,1:2|1:0,0:0:0:0:
419,348,26185,1,0,0:0:0:0:
496,272,26359,2,0,P|513:235|510:194,1,82.7999972204591,0|0,1:0|0:0,0:0:0:0:
450,104,26705,1,0,1:0:0:0:
375,181,26879,1,0,0:0:0:0:
267,113,27052,6,0,P|217:103|155:208,1,165.599994440918,2|0,1:2|1:0,0:0:0:0:
194,280,27572,2,0,L|275:268,1,82.7999972204591,0|0,0:0|1:0,0:0:0:0:
131,354,27919,6,0,L|74:348,2,41.3999986102295,0|0|0,3:0|3:0|1:0,0:0:0:0:
58,273,28266,2,0,P|23:293|6:331,1,82.7999972204591,0|2,0:0|1:2,0:0:0:0:
194,280,28613,5,0,0:0:0:0:
147,183,28786,1,0,1:0:0:0:
194,280,28960,2,0,L|275:268,1,82.7999972204591,0|0,0:0|1:0,0:0:0:0:
454,148,29307,5,0,0:0:0:0:
347,162,29480,1,0,1:0:0:0:
363,268,29653,1,0,0:0:0:0:
470,254,29827,2,0,B|504:200|504:200|465:96,1,165.599994440918,2|0,1:2|1:0,0:0:0:0:
371,70,30347,2,0,L|288:78,1,82.7999972204591,0|0,0:0|1:0,0:0:0:0:
201,214,30694,1,8,0:0:0:0:
332,158,30867,1,0,1:0:0:0:
213,33,31041,1,0,1:0:0:0:
65,175,31214,6,0,B|106:183|156:154|124:141|173:116|215:126,1,165.599994440918,4|0,1:2|1:0,0:0:0:0:
196,310,31734,2,0,L|173:230,1,82.7999972204591,0|0,0:0|1:0,0:0:0:0:
332,158,32081,2,0,L|309:237,1,82.7999972204591,0|0,0:0|1:0,0:0:0:0:
215,126,32428,1,0,0:0:0:0:
337,30,32601,6,0,P|412:57|441:132,1,165.599994440918,2|0,1:2|1:0,0:0:0:0:
391,242,33122,1,0,0:0:0:0:
481,334,33295,2,0,P|507:305|510:252,1,82.7999972204591,0|0,1:0|3:0,0:0:0:0:
505,243,33555,1,0,3:0:0:0:
505,243,33642,1,0,1:0:0:0:
381,344,33815,1,0,3:0:0:0:
381,344,33902,1,0,3:0:0:0:
381,344,33989,6,0,L|291:335,1,90,14|8,0:2|3:0,0:0:0:0:
179,220,34335,1,0,1:0:0:0:
72,323,34509,1,14,0:0:0:0:
72,323,34596,1,0,3:0:0:0:
72,323,34682,2,0,L|64:375,1,45,0|0,3:2|0:0,0:0:0:0:
185,264,34856,2,0,L|177:212,1,45,8|0,3:0|0:0,0:0:0:0:
12,101,35029,1,4,3:0:0:0:
94,237,35202,1,4,3:0:0:0:
225,97,35376,5,2,1:2:0:0:
266,112,35462,1,0,3:0:0:0:
309,101,35549,1,0,3:0:0:0:
338,68,35636,1,0,3:0:0:0:
343,24,35722,1,0,1:0:0:0:
371,152,35896,1,8,0:0:0:0:
262,22,36070,1,0,1:0:0:0:
427,82,36243,1,8,0:0:0:0:
225,97,36416,2,0,L|119:106,1,90,0|0,1:0|1:0,0:0:0:0:
0,242,36763,6,0,B|44:223|110:239|73:266|141:286|188:267,1,198.000006042481,6|8,1:2|0:0,0:0:0:0:
247,191,37283,1,2,0:0:0:0:
356,310,37457,2,0,P|324:346|276:351,1,99.0000030212403,10|0,0:0|1:2,0:0:0:0:
153,186,37803,1,8,0:0:0:0:
288,277,37977,1,2,1:2:0:0:
262,108,38150,5,10,0:2:0:0:
187,267,38324,1,2,0:2:0:0:
331,194,38497,1,10,0:2:0:0:
173,104,38671,1,2,0:2:0:0:
364,15,38844,2,0,P|357:64|349:112,1,99.0000030212403,10|0,0:0|1:0,0:0:0:0:
290,277,39191,1,8,0:0:0:0:
146,97,39364,6,0,P|99:114|74:167,1,99.0000030212403,2|8,1:2|0:0,0:0:0:0:
71,323,39711,1,2,0:2:0:0:
178,198,39885,1,10,0:2:0:0:
6,236,40058,1,2,0:2:0:0:
172,293,40231,2,0,L|270:282,1,99.0000030212403,10|0,0:0|1:0,0:0:0:0:
422,373,40578,2,0,L|323:362,1,99.0000030212403,10|0,0:0|1:0,0:0:0:0:
386,249,40925,6,0,P|479:245|502:156,1,198.000006042481,10|8,0:0|0:0,0:0:0:0:
424,61,41445,1,2,0:0:0:0:
321,174,41619,2,0,P|272:163|223:160,1,99.0000030212403,10|0,0:0|1:0,0:0:0:0:
130,327,41965,2,0,P|163:290|190:249,1,99.0000030212403,8|0,0:0|1:0,0:0:0:0:
123,24,42312,6,0,B|78:62|78:62|105:198,1,198.000006042481,14|8,0:2|0:0,0:0:0:0:
190,248,42833,1,2,0:0:0:0:
321,174,43006,2,0,P|369:177|407:207,1,99.0000030212403,10|0,0:0|1:0,0:0:0:0:
450,293,43353,1,8,0:0:0:0:
339,249,43526,1,2,1:2:0:0:
238,364,43700,5,10,0:2:0:0:
450,293,43873,1,2,0:2:0:0:
259,218,44046,1,10,0:2:0:0:
335,377,44220,1,2,0:2:0:0:
407,207,44393,1,10,0:2:0:0:
227,290,44567,1,2,1:2:0:0:
425,384,44740,2,0,P|451:343|450:293,1,99.0000030212403,14|0,0:0|1:0,0:0:0:0:
437,114,45087,6,0,B|385:87|303:113|340:140|257:166|206:143,1,242.999992584229,6|2,1:2|1:2,0:0:0:0:
134,105,45780,1,8,0:0:0:0:
81,167,45954,2,0,P|51:95|95:31,1,161.999995056153,2|0,0:2|1:2,0:0:0:0:
206,143,46474,6,0,P|199:183|195:223,1,80.9999975280763,2|0,0:0|1:0,0:0:0:0:
241,289,46821,1,2,0:0:0:0:
184,346,46994,2,0,P|140:339|102:339,1,80.9999975280763,2|8,1:2|0:0,0:0:0:0:
241,289,47341,2,0,P|285:282|323:282,1,80.9999975280763,2|0,0:0|0:0,0:0:0:0:
482,320,47688,1,10,0:0:0:0:
482,320,47775,1,2,1:2:0:0:
482,320,47861,5,2,1:2:0:0:
386,381,48035,2,0,L|408:220,1,161.999995056153,8|2,0:0|1:2,0:0:0:0:
364,152,48555,1,8,0:0:0:0:
420,93,48728,2,0,P|459:101|485:131,1,80.9999975280763,2|0,0:0|0:0,0:0:0:0:
327,225,49075,6,0,P|283:160|311:87,1,161.999995056153,2|8,1:2|0:0,0:3:0:0:
157,181,49596,2,0,P|205:206|219:244,1,80.9999975280763,2|0,0:0|1:0,0:0:0:0:
224,69,49942,2,0,P|193:95|154:99,1,80.9999975280763,10|0,0:0|0:3,0:0:0:0:
17,38,50289,1,10,0:0:0:0:
19,58,50375,1,8,0:0:0:0:
21,78,50462,1,10,0:0:0:0:
24,98,50549,1,8,0:0:0:0:
26,118,50636,6,0,L|22:173,1,55.799997786255,6|2,1:2|0:0,0:0:0:0:
66,237,50983,2,0,L|72:297,1,55.799997786255,2|2,3:2|0:0,0:0:0:0:
151,136,51330,6,0,L|154:89,3,36.9000005630493,6|0|0|0,1:2|3:0|3:0|3:0,0:0:0:0:
163,162,51676,1,0,3:0:0:0:
185,188,51762,1,0,3:0:0:0:
218,197,51849,1,0,3:0:0:0:
251,188,51936,1,0,3:0:0:0:
276,165,52022,5,6,1:2:0:0:
496,199,52197,1,2,0:0:0:0:
370,276,52370,2,0,L|399:80,1,198.000006042481,8|2,0:0|1:2,0:0:0:0:
238,6,52890,1,2,1:2:0:0:
398,80,53064,2,0,P|451:73|478:34,1,99.0000030212403,8|0,0:0|0:0,0:0:0:0:
238,6,53411,5,2,1:2:0:0:
182,174,53584,1,2,1:2:0:0:
23,107,53757,2,0,P|0:66|7:18,1,99.0000030212403,8|0,0:0|0:0,0:0:0:0:
113,129,54104,1,2,1:2:0:0:
0,274,54278,1,2,1:2:0:0:
113,128,54451,2,0,P|149:96|197:92,1,99.0000030212403,8|0,0:0|0:0,0:0:0:0:
370,253,54798,5,2,1:2:0:0:
287,64,54971,1,2,1:2:0:0:
201,190,55145,2,0,B|248:209|316:189|279:162|345:146|389:165,1,198.000006042481,8|2,0:0|1:2,0:0:0:0:
258,48,55665,1,2,1:2:0:0:
198,270,55838,2,0,P|151:258|125:217,1,99.0000030212403,8|0,0:0|0:0,0:0:0:0:
140,69,56185,6,0,B|191:34|191:34|326:46,1,198.000006042481,2|8,1:2|0:0,0:0:0:0:
388,164,56705,1,0,0:0:0:0:
325,271,56879,2,0,P|276:278|231:259,1,99.0000030212403,0|0,1:2|1:0,0:0:0:0:
122,176,57226,1,8,0:0:0:0:
291,198,57399,1,8,0:0:0:0:
291,198,57486,1,8,0:0:0:0:
291,198,57572,5,6,1:2:0:0:
157,312,57746,1,2,0:0:0:0:
43,165,57919,2,0,P|107:98|193:139,1,198.000006042481,10|0,0:0|1:0,0:0:0:0:
231,259,58439,1,0,1:0:0:0:
301,75,58613,1,8,0:0:0:0:
122,176,58786,1,2,0:0:0:0:
364,234,58960,6,0,B|406:186|406:186|374:53,1,198.000006042481,2|10,1:2|0:0,0:0:0:0:
192,137,59480,2,0,L|295:158,1,99.0000030212403,2|0,0:0|1:0,0:0:0:0:
178,23,59827,2,0,P|129:28|98:64,1,99.0000030212403,2|8,1:2|0:0,0:0:0:0:
46,154,60174,1,2,0:0:0:0:
148,292,60347,6,0,L|131:189,1,99.0000030212403,2|0,1:2|0:0,0:0:0:0:
364,292,60694,2,0,L|381:189,1,99.0000030212403,10|0,0:0|0:0,0:0:0:0:
208,104,61041,2,0,L|224:201,1,99.0000030212403,2|0,1:2|1:0,0:0:0:0:
406,68,61387,2,0,P|370:36|322:31,1,99.0000030212403,10|0,0:0|0:0,0:0:0:0:
224,201,61734,5,6,1:2:0:0:
337,110,61908,1,2,0:0:0:0:
131,194,62081,1,10,0:0:0:0:
262,341,62254,2,0,B|307:360|375:340|338:313|404:297|450:317,1,198.000006042481,6|8,1:2|0:0,0:0:0:0:
345,204,62775,1,8,0:0:0:0:
318,182,62861,1,8,3:0:0:0:
285,173,62948,1,4,3:0:0:0:
251,180,63035,1,4,3:0:0:0:
224,201,63122,6,0,L|217:136,1,49.5000015106202,6|0,1:2|0:0,0:0:0:0:
110,236,63468,6,0,L|122:34,1,198.000006042481,12|2,0:0|1:2,0:0:0:0:
218,151,63989,1,2,1:2:0:0:
369,51,64162,2,0,P|337:15|289:11,1,99.0000030212403,8|0,0:0|0:0,0:0:0:0:
90,124,64509,5,2,1:2:0:0:
202,246,64682,1,2,0:0:0:0:
90,124,64856,2,0,P|41:125|4:156,1,99.0000030212403,8|0,0:0|0:0,0:0:0:0:
144,188,65202,1,2,1:2:0:0:
302,85,65376,1,2,1:2:0:0:
144,188,65549,2,0,P|120:230|129:278,1,99.0000030212403,8|0,0:0|0:0,0:0:0:0:
285,369,65896,5,2,1:2:0:0:
280,167,66070,1,2,0:0:0:0:
128,277,66243,2,0,B|165:304|165:304|329:274,1,198.000006042481,8|2,0:0|1:2,0:0:0:0:
402,132,66763,1,2,1:2:0:0:
510,304,66937,2,0,P|518:256|499:211,1,99.0000030212403,8|0,0:0|0:0,0:0:0:0:
314,276,67283,6,0,B|270:257|204:273|241:300|173:320|126:301,1,198.000006042481,2|8,1:2|0:0,0:0:0:0:
219,187,67804,1,0,0:0:0:0:
310,356,67977,2,0,P|357:345|386:306,1,99.0000030212403,0|0,1:2|1:0,0:0:0:0:
238,166,68324,1,8,0:0:0:0:
126,301,68497,1,8,0:0:0:0:
126,301,68584,1,8,0:0:0:0:
126,301,68671,5,6,1:2:0:0:
116,114,68844,1,2,0:0:0:0:
232,258,69017,2,0,P|316:217|315:123,1,198.000006042481,10|0,0:0|1:2,0:0:0:0:
137,37,69538,1,0,1:2:0:0:
238,166,69711,1,8,0:0:0:0:
317,0,69885,1,2,0:0:0:0:
60,11,70058,6,0,B|19:46|19:46|53:190,1,198.000006042481,2|10,1:2|0:0,0:0:0:0:
232,265,70578,2,0,L|238:167,1,99.0000030212403,2|0,0:0|1:0,0:0:0:0:
125,315,70925,2,0,P|79:337|30:334,1,99.0000030212403,2|8,1:2|0:0,0:0:0:0:
143,172,71272,1,2,0:0:0:0:
282,338,71445,6,0,L|400:367,1,99.0000030212403,2|0,1:2|0:0,0:0:0:0:
512,231,71792,2,0,L|394:260,1,99.0000030212403,10|0,0:2|0:0,0:0:0:0:
305,131,72139,2,0,L|187:102,1,99.0000030212403,2|0,1:2|1:0,0:0:0:0:
346,202,72486,2,0,P|381:168|385:120,1,99.0000030212403,10|0,0:0|0:0,0:0:0:0:
257,27,72833,5,6,1:2:0:0:
210,244,73006,1,2,0:0:0:0:
104,43,73179,1,10,0:0:0:0:
305,131,73353,2,0,B|261:112|195:128|232:155|164:175|117:156,1,198.000006042481,6|8,1:2|0:0,0:0:0:0:
77,134,73786,1,8,0:0:0:0:
77,134,73873,2,0,L|85:208,1,49.5000015106202,8|8,0:0|0:0,0:0:0:0:
206,287,74046,2,0,L|211:237,1,49.5000015106202,8|8,0:0|0:0,0:0:0:0:
137,57,74220,5,6,1:2:0:0:
108,268,74393,1,2,0:0:0:0:
288,124,74567,1,10,0:0:0:0:
383,317,74740,2,0,P|456:322|511:223,1,198.000006042481,6|2,1:2|1:2,0:0:0:0:
420,71,75260,1,10,0:0:0:0:
324,226,75434,1,2,1:2:0:0:
324,226,75520,1,0,1:0:0:0:
324,226,75607,5,4,1:2:0:0:
420,71,75780,1,2,0:0:0:0:
205,38,75954,1,10,0:0:0:0:
410,176,76127,2,0,B|366:157|300:173|337:200|269:220|222:201,1,198.000006042481,6|2,1:2|1:2,0:0:0:0:
14,94,76648,1,8,0:0:0:0:
45,80,76734,1,8,3:0:0:0:
80,82,76821,1,4,3:0:0:0:
110,98,76908,1,4,3:0:0:0:
131,126,76994,5,6,1:2:0:0:
131,126,77341,2,0,L|110:330,1,198.000006042481,14|2,0:2|1:2,0:0:0:0:
253,249,77861,1,0,1:0:0:0:
110,322,78035,2,0,P|61:331|16:313,1,99.0000030212403,10|0,0:0|0:0,0:0:0:0:
253,249,78382,6,0,B|300:268|368:248|331:221|397:205|441:224,1,198.000006042481,2|8,1:2|0:0,0:0:0:0:
347,337,78902,1,0,0:0:0:0:
247,142,79075,1,0,1:2:0:0:
158,337,79249,1,10,0:0:0:0:
131,314,79335,1,8,0:0:0:0:
114,284,79422,1,8,0:0:0:0:
106,251,79509,1,8,0:0:0:0:
108,216,79595,1,10,0:0:0:0:
122,184,79682,1,8,0:0:0:0:
144,158,79769,6,0,L|135:71,1,80.9999975280763,6|0,1:2|1:0,0:0:0:0:
247,142,80116,2,0,L|237:54,1,80.9999975280763,2|0,0:2|1:0,0:0:0:0:
209,217,80463,1,10,0:0:0:0:
336,184,80636,2,0,L|354:15,1,161.999995056153,2|0,0:0|1:0,0:0:0:0:
475,66,81156,5,2,0:0:0:0:
475,66,81330,2,0,L|486:153,1,80.9999975280763,2|0,1:2|1:0,0:0:0:0:
450,233,81676,1,0,1:0:0:0:
336,184,81850,1,10,0:0:0:0:
336,184,82023,2,0,L|318:353,1,161.999995056153,2|8,0:0|0:0,0:0:0:0:
193,225,82543,5,6,1:2:0:0:
193,225,82717,2,0,P|137:184|67:195,1,144,2|0,0:0|0:0,0:0:0:0:
257,126,83237,5,6,1:2:0:0:
257,125,83411,2,0,P|295:89|383:95,1,144,2|0,0:0|0:0,0:0:0:0:
169,31,83931,5,6,1:2:0:0:
256,192,84017,12,0,90520,0:0:0:0:
