osu file format v14

[General]
AudioFilename: audio.mp3
AudioLeadIn: 0
PreviewTime: 52287
Countdown: 0
SampleSet: Normal
StackLeniency: 0.7
Mode: 1
LetterboxInBreaks: 0
WidescreenStoryboard: 1

[Editor]
DistanceSpacing: 1
BeatDivisor: 4
GridSize: 32
TimelineZoom: 1

[Metadata]
Title:Kokoro Omoi ~Kokoro Omoi~ (Short Ver.)
TitleUnicode:心想い ~ココロオモイ~ (Short Ver.)
Artist:Kokkoro (CV: Itou Miku)
ArtistUnicode:コッコロ (CV: 伊藤美来)
Creator:Consified
Version:Muzukashii
Source:プリンセスコネクト!Re:Dive
Tags:priconne princon purikone redive short version video game japanese character song Princess connect cygames プリコネ RPG faputa jacky10186 リダイブ ORIGINAL SOUNDTRACK VOL.2
BeatmapID:2427272
BeatmapSetID:1162284

[Difficulty]
HPDrainRate:7
CircleSize:5
OverallDifficulty:4
ApproachRate:5
SliderMultiplier:1.4
SliderTickRate:1

[Events]
//Background and Video events
0,0,"kkr.jpg",0,90
//Break Periods
//Storyboard Layer 0 (Background)
//Storyboard Layer 1 (Fail)
//Storyboard Layer 2 (Pass)
//Storyboard Layer 3 (Foreground)
//Storyboard Layer 4 (Overlay)
//Storyboard Sound Samples

[TimingPoints]
749,769.230769230769,4,1,0,25,1,0
13056,-100,4,1,0,30,0,0
25364,-100,4,1,0,35,0,0
53056,-90.9090909090909,4,1,0,45,0,1
77672,-100,4,1,0,20,0,0

[HitObjects]
253,198,749,5,0,0:0:0:0:
263,193,2287,1,2,0:0:0:0:
265,183,3825,1,0,0:0:0:0:
248,209,5364,1,2,0:0:0:0:
244,193,6902,1,0,0:0:0:0:
248,174,8441,1,0,0:0:0:0:
244,193,9979,1,2,0:0:0:0:
238,188,11518,1,0,0:0:0:0:
237,180,12287,1,2,0:0:0:0:
238,188,13056,1,0,0:0:0:0:
245,193,13825,1,2,0:0:0:0:
245,193,14210,1,0,0:0:0:0:
236,222,14595,1,2,0:0:0:0:
236,222,15364,1,0,0:0:0:0:
230,211,15748,1,2,0:0:0:0:
230,211,16133,1,0,0:0:0:0:
230,211,16902,1,2,0:0:0:0:
230,211,17287,1,0,0:0:0:0:
260,192,17672,1,2,0:0:0:0:
213,213,18441,1,2,0:0:0:0:
230,211,18825,1,0,0:0:0:0:
230,211,19210,1,0,0:0:0:0:
248,195,19979,1,0,0:0:0:0:
248,195,20364,1,0,0:0:0:0:
248,195,20748,1,2,0:0:0:0:
219,205,21518,1,0,0:0:0:0:
219,205,22287,1,2,0:0:0:0:
268,191,23056,1,0,0:0:0:0:
266,165,23441,1,2,0:0:0:0:
266,165,23633,1,2,0:0:0:0:
238,168,23825,1,2,0:0:0:0:
266,165,24210,1,2,0:0:0:0:
219,205,24595,1,2,0:0:0:0:
222,168,24979,1,0,0:0:0:0:
219,205,25364,1,4,0:0:0:0:
258,207,26133,1,2,0:0:0:0:
258,207,26518,1,2,0:0:0:0:
258,207,26710,1,2,0:0:0:0:
226,205,27287,1,2,0:0:0:0:
258,207,27672,1,2,0:0:0:0:
258,207,28056,1,0,0:0:0:0:
258,207,28441,1,0,0:0:0:0:
258,207,29210,1,0,0:0:0:0:
258,207,29595,1,0,0:0:0:0:
258,207,29787,1,0,0:0:0:0:
252,204,30364,1,0,0:0:0:0:
258,207,30748,1,2,0:0:0:0:
258,207,31132,1,2,0:0:0:0:
258,207,31518,1,0,0:0:0:0:
242,208,32287,1,2,0:0:0:0:
242,208,32672,1,0,0:0:0:0:
242,208,32864,1,2,0:0:0:0:
237,201,33441,1,2,0:0:0:0:
242,208,33825,1,0,0:0:0:0:
242,208,34209,1,0,0:0:0:0:
242,208,34595,1,2,0:0:0:0:
247,203,35364,1,0,0:0:0:0:
247,203,35748,1,2,0:0:0:0:
247,203,35941,1,2,0:0:0:0:
247,203,36518,1,2,0:0:0:0:
247,203,36902,1,0,0:0:0:0:
247,203,37287,1,2,0:0:0:0:
247,203,37672,1,0,0:0:0:0:
251,193,39979,1,2,0:0:0:0:
251,193,40364,1,0,0:0:0:0:
251,193,40748,1,2,0:0:0:0:
288,195,41133,1,0,0:0:0:0:
251,193,41325,1,0,0:0:0:0:
251,193,41710,1,2,0:0:0:0:
251,193,41902,1,2,0:0:0:0:
251,193,43441,1,2,0:0:0:0:
251,193,43825,1,0,0:0:0:0:
251,193,44210,1,0,0:0:0:0:
251,193,44595,1,2,0:0:0:0:
251,193,44980,1,0,0:0:0:0:
251,193,45364,1,2,0:0:0:0:
251,193,45749,1,2,0:0:0:0:
251,193,46518,1,2,0:0:0:0:
251,193,46902,1,0,0:0:0:0:
251,193,48056,1,0,0:0:0:0:
251,193,48441,1,0,0:0:0:0:
251,193,49210,1,2,0:0:0:0:
251,193,49595,1,0,0:0:0:0:
251,193,49979,1,2,0:0:0:0:
251,193,50748,1,2,0:0:0:0:
256,206,51518,1,0,0:0:0:0:
267,186,53056,5,4,0:0:0:0:
263,207,53441,1,2,0:0:0:0:
263,207,53633,1,2,0:0:0:0:
263,207,54595,1,2,0:0:0:0:
263,207,54979,1,2,0:0:0:0:
263,207,55364,1,0,0:0:0:0:
263,207,55748,1,0,0:0:0:0:
263,207,56133,1,2,0:0:0:0:
263,207,56710,1,2,0:0:0:0:
263,207,56903,1,0,0:0:0:0:
263,207,57095,1,0,0:0:0:0:
263,207,57672,1,2,0:0:0:0:
235,203,58825,1,2,0:0:0:0:
235,203,59210,1,2,0:0:0:0:
242,194,59595,1,2,0:0:0:0:
242,194,59979,1,0,0:0:0:0:
242,194,60364,1,0,0:0:0:0:
242,194,61133,1,0,0:0:0:0:
242,194,61518,1,0,0:0:0:0:
242,194,61902,1,2,0:0:0:0:
261,173,62095,1,2,0:0:0:0:
242,194,62672,1,2,0:0:0:0:
242,194,63056,1,2,0:0:0:0:
242,194,63441,1,0,0:0:0:0:
242,194,63825,1,2,0:0:0:0:
242,194,65364,1,4,0:0:0:0:
246,168,65748,1,0,0:0:0:0:
246,168,66133,1,2,0:0:0:0:
246,168,66518,1,2,0:0:0:0:
261,154,66710,1,2,0:0:0:0:
307,201,68056,1,0,0:0:0:0:
307,201,68248,1,0,0:0:0:0:
307,201,68441,1,2,0:0:0:0:
262,211,68825,1,0,0:0:0:0:
262,211,69210,1,2,0:0:0:0:
262,211,69595,1,2,0:0:0:0:
262,211,69979,1,0,0:0:0:0:
262,211,71133,1,2,0:0:0:0:
262,211,71325,1,2,0:0:0:0:
262,211,71518,1,0,0:0:0:0:
262,211,71902,1,2,0:0:0:0:
262,211,72095,1,2,0:0:0:0:
262,211,73056,1,2,0:0:0:0:
262,211,73441,1,2,0:0:0:0:
262,211,73825,1,0,0:0:0:0:
266,189,74210,1,0,0:0:0:0:
266,189,74595,1,2,0:0:0:0:
266,189,75748,1,2,0:0:0:0:
266,189,76133,1,0,0:0:0:0:
266,189,76902,1,2,0:0:0:0:
266,189,77287,1,2,0:0:0:0:
266,189,77672,1,4,0:0:0:0:
243,199,79210,1,2,0:0:0:0:
256,192,80748,12,2,82287,0:0:0:0:
