osu file format v14

[General]
AudioFilename: audio.mp3
AudioLeadIn: 0
PreviewTime: 53017
Countdown: 0
SampleSet: Soft
StackLeniency: 0.7
Mode: 0
LetterboxInBreaks: 0
WidescreenStoryboard: 1

[Editor]
DistanceSpacing: 1
BeatDivisor: 4
GridSize: 16
TimelineZoom: 3.099999

[Metadata]
Title:Kokoro Omoi
TitleUnicode:心想い ~ココロオモイ~
Artist:Kokkoro (CV: Itou Miku)
ArtistUnicode:コッコロ (CV: 伊藤美来)
Creator:Yuuma
Version:Normal
Source:プリンセスコネクト!Re:Dive
Tags:cygames priconne princess connect re dive japanese video game jpop pop j-pop ed ending
BeatmapID:2917120
BeatmapSetID:1415420

[Difficulty]
HPDrainRate:3
CircleSize:3.5
OverallDifficulty:4
ApproachRate:5
SliderMultiplier:2.2
SliderTickRate:1

[Events]
//Background and Video events
0,0,"__kokkoro_and_yuuki_princess_connect_and_1_more__a1dcbb3a21045f566a9d14681c9ad1ac.jpg",0,0
Video,0,"waaaaaaaaa.avi"
//Break Periods
2,10140,11817
2,22447,24125
2,50140,51817
//Storyboard Layer 0 (Background)
//Storyboard Layer 1 (Fail)
//Storyboard Layer 2 (Pass)
//Storyboard Layer 3 (Foreground)
//Storyboard Layer 4 (Overlay)
//Storyboard Sound Samples

[TimingPoints]
710,769.230769230769,4,2,1,50,1,0
25325,-100,4,2,1,60,0,0
53017,-100,4,2,1,70,0,1
77633,-100,4,2,1,50,0,0

[Colours]
Combo1 : 183,255,255
Combo2 : 147,255,201
Combo3 : 255,193,193

[HitObjects]
96,73,710,5,2,0:0:0:0:
165,157,1094,2,0,P|110:187|56:175,2,110,0|0|0,0:0|0:0|0:0,0:0:0:0:
244,83,2248,2,0,P|364:61|407:140,1,220,2|0,0:0|0:0,0:0:0:0:
470,340,3786,2,0,P|373:311|243:312,2,220,2|0|2,0:0|0:0|0:0,0:0:0:0:
470,340,6863,5,2,0:0:0:0:
413,246,7248,2,0,B|394:216|394:216|406:133,2,110,0|0|0,0:0|0:0|0:0,0:0:0:0:
312,289,8402,2,0,P|259:359|127:326,1,220,2|0,0:0|0:0,0:0:0:0:
54,135,9940,1,2,0:0:0:0:
480,70,13017,5,2,0:0:0:0:
382,120,13402,2,0,P|316:101|268:101,2,110,0|2|0,0:0|0:0|0:0,0:0:0:0:
473,182,14556,2,0,B|409:271|409:271|364:236|284:242,1,220,2|0,0:0|0:0,0:0:0:0:
203,277,15709,1,0,0:0:0:0:
116,347,16094,2,0,P|96:253|92:115,2,220,2|2|2,0:0|0:0|0:0,0:0:0:0:
378,157,18786,1,0,0:0:0:0:
337,59,19171,6,0,P|267:60|224:94,1,110,2|0,0:0|0:0,0:0:0:0:
171,165,19940,2,0,P|123:190|69:186,1,110,2|2,0:0|0:0,0:0:0:0:
102,81,20709,2,0,B|121:194|121:194|87:294,2,220,2|2|2,0:0|0:0|0:0,0:0:0:0:
440,299,25325,6,0,P|454:222|426:178,1,110,6|0,0:0|0:0,0:0:0:0:
360,122,26094,2,0,L|246:138,1,110,10|2,0:0|0:0,0:0:0:0:
208,239,26863,2,0,L|99:223,1,110,2|2,0:0|0:0,0:0:0:0:
43,127,27633,1,10,0:0:0:0:
149,95,28017,1,2,0:0:0:0:
251,137,28402,6,0,P|290:247|400:236,1,220,2|10,0:0|0:0,0:0:0:0:
453,170,29556,1,2,0:0:0:0:
421,66,29940,2,0,P|377:52|306:46,1,110,2|2,0:0|0:0,0:0:0:0:
251,137,30709,2,0,P|207:151|136:157,1,110,10|2,0:0|0:0,0:0:0:0:
52,93,31479,1,2,0:0:0:0:
46,314,32248,6,0,P|139:289|162:290,1,110,10|2,0:0|0:0,0:0:0:0:
252,330,33017,2,0,P|308:347|370:341,1,110,2|2,0:0|0:0,0:0:0:0:
458,299,33786,1,10,0:0:0:0:
389,216,34171,1,2,0:0:0:0:
468,137,34556,1,2,0:0:0:0:
268,44,35325,6,0,P|190:41|137:109,1,165,10|2,0:0|0:0,0:0:0:0:
170,149,36094,2,0,P|277:160|298:168,1,110,2|2,0:0|0:0,0:0:0:0:
369,228,36863,2,0,P|432:209|485:210,1,110,10|2,0:0|0:0,0:0:0:0:
463,317,37633,6,0,P|403:348|287:255,1,220,6|10,0:0|0:0,0:0:0:0:
278,160,38786,1,2,0:0:0:0:
200,85,39171,2,0,P|99:56|26:131,1,220,2|10,0:0|0:0,0:0:0:0:
12,237,40325,1,2,0:0:0:0:
112,285,40709,6,0,L|240:264,1,110,2|0,0:0|0:0,0:0:0:0:
271,292,41286,1,2,0:0:0:0:
319,321,41479,2,0,L|447:300,1,110,10|2,0:0|0:0,0:0:0:0:
469,204,42248,2,0,P|485:135|354:80,1,220,2|10,0:0|0:0,0:0:0:0:
164,144,43786,5,2,0:0:0:0:
366,226,44556,1,10,0:0:0:0:
184,354,45325,2,0,L|174:234,1,110,2|2,0:0|0:0,0:0:0:0:
76,190,46094,2,0,L|86:70,1,110,10|2,0:0|0:0,0:0:0:0:
188,44,46863,6,0,B|303:26|270:131|412:105,1,220,2|8,0:0|0:0,0:0:0:0:
453,197,48017,1,2,0:0:0:0:
395,289,48402,2,0,B|280:271|313:376|171:350,2,220,2|8|6,0:0|0:0|0:0,0:0:0:0:
100,68,53017,6,0,P|63:112|70:185,1,110,6|2,0:0|0:0,0:0:0:0:
82,214,53594,1,2,0:0:0:0:
82,214,53786,2,0,L|208:195,1,110,10|2,0:0|0:0,0:0:0:0:
284,138,54556,2,0,P|347:133|396:170,1,110,2|2,0:0|0:0,0:0:0:0:
455,242,55325,1,10,0:0:0:0:
377,317,55709,1,2,0:0:0:0:
315,226,56094,6,0,L|300:46,1,165,2|2,0:0|0:0,0:0:0:0:
255,31,56863,1,10,0:0:0:0:
255,31,57056,2,0,B|172:14|192:103|82:70,1,165,2|2,0:0|0:0,0:0:0:0:
18,144,58017,1,2,0:0:0:0:
111,204,58402,2,0,P|138:250|125:316,1,110,10|2,0:0|0:0,0:0:0:0:
237,345,59171,6,0,P|318:326|357:327,1,110,2|0,0:0|0:0,0:0:0:0:
417,245,59940,2,0,P|336:226|297:227,1,110,10|2,0:0|0:0,0:0:0:0:
220,161,60709,2,0,B|214:116|214:116|218:97|218:97|210:52,2,110,2|0|8,0:0|0:0|0:0,0:0:0:0:
143,239,61863,1,0,0:0:0:0:
143,239,62056,2,0,P|79:218|97:131,1,165,2|2,0:0|0:0,0:0:0:0:
179,69,63017,1,10,0:0:0:0:
279,118,63402,1,2,0:0:0:0:
372,59,63786,2,0,L|487:47,1,110,2|2,0:0|0:0,0:0:0:0:
501,156,64556,2,0,L|485:269,1,110,10|2,0:0|0:0,0:0:0:0:
404,341,65325,5,6,0:0:0:0:
316,275,65709,2,0,P|276:247|211:247,1,110,2|10,0:0|0:0,0:0:0:0:
143,328,66479,2,0,P|106:346|82:349,1,55,2|2,0:0|0:0,0:0:0:0:
40,335,66863,2,0,B|-27:229|85:239|20:107,1,220,2|8,0:0|0:0,0:0:0:0:
121,67,68017,2,0,P|158:89|186:92,1,55,2|2,0:0|0:0,0:0:0:0:
221,77,68402,5,2,0:0:0:0:
326,48,68786,1,2,0:0:0:0:
423,102,69171,2,0,P|446:177|448:219,1,110,10|2,0:0|0:0,0:0:0:0:
373,288,69940,2,0,B|254:320|288:211|160:232,1,220,2|8,0:0|0:0,0:0:0:0:
86,296,71094,2,0,P|100:319|126:326,1,55,2|2,0:0|0:0,0:0:0:0:
179,340,71479,6,0,L|171:216,1,110,2|2,0:0|0:0,0:0:0:0:
214,196,72056,1,2,0:0:0:0:
214,196,72248,2,0,L|206:72,1,110,10|0,0:0|0:0,0:0:0:0:
117,24,73017,1,2,0:0:0:0:
32,95,73402,1,2,0:0:0:0:
75,196,73786,2,0,L|200:182,1,110,10|2,0:0|0:0,0:0:0:0:
283,239,74556,6,0,P|383:164|356:72,1,220,2|8,0:0|0:0,0:0:0:0:
265,129,75709,1,0,0:0:0:0:
283,239,76094,2,0,L|302:363,1,110,2|2,0:0|0:0,0:0:0:0:
351,364,76671,1,2,0:0:0:0:
351,364,76863,2,0,P|449:348|464:328,1,110,10|2,0:0|0:0,0:0:0:0:
489,241,77633,5,6,0:0:0:0:
257,31,79171,1,2,0:0:0:0:
75,300,80709,2,0,P|252:318|161:165,1,440,2|2,0:0|0:0,0:0:0:0:
