osu file format v14

[General]
AudioFilename: audio.mp3
AudioLeadIn: 0
PreviewTime: 53017
Countdown: 0
SampleSet: Soft
StackLeniency: 0.7
Mode: 0
LetterboxInBreaks: 0
WidescreenStoryboard: 1

[Editor]
DistanceSpacing: 1
BeatDivisor: 2
GridSize: 16
TimelineZoom: 3.099999

[Metadata]
Title:Kokoro Omoi
TitleUnicode:心想い ~ココロオモイ~
Artist:Kokkoro (CV: Itou Miku)
ArtistUnicode:コッコロ (CV: 伊藤美来)
Creator:Yuuma
Version:Easy
Source:プリンセスコネクト!Re:Dive
Tags:cygames priconne princess connect re dive japanese video game jpop pop j-pop ed ending
BeatmapID:2917119
BeatmapSetID:1415420

[Difficulty]
HPDrainRate:2
CircleSize:2.5
OverallDifficulty:2
ApproachRate:3
SliderMultiplier:1.8
SliderTickRate:1

[Events]
//Background and Video events
0,0,"__kokkoro_and_yuuki_princess_connect_and_1_more__2c2777ecce1dd38d41d0f1bc684a0058.jpg",0,0
Video,0,"waaaaaaaaa.avi"
//Break Periods
2,10140,11577
2,22448,23885
//Storyboard Layer 0 (Background)
//Storyboard Layer 1 (Fail)
//Storyboard Layer 2 (Pass)
//Storyboard Layer 3 (Foreground)
//Storyboard Layer 4 (Overlay)
//Storyboard Sound Samples

[TimingPoints]
710,769.230769230769,4,2,1,50,1,0
25325,-100,4,2,1,60,0,0
53017,-100,4,2,1,70,0,1
77633,-100,4,2,1,50,0,0

[Colours]
Combo1 : 183,255,255
Combo2 : 147,255,201
Combo3 : 255,193,193

[HitObjects]
71,159,710,5,2,0:0:0:0:
418,125,2248,1,2,0:0:0:0:
90,265,3786,2,0,P|211:330|239:158,2,360,2|2|2,0:0|0:0|0:0,0:0:0:0:
90,265,8402,5,2,0:0:0:0:
438,173,9940,1,2,0:0:0:0:
110,50,13017,6,0,P|65:123|98:203,2,180,2|2|2,0:0|0:0|0:0,0:0:0:0:
470,60,16094,1,2,0:0:0:0:
340,186,16863,1,2,0:0:0:0:
486,292,17633,2,0,P|317:314|267:331,1,180,2|2,0:0|0:0,0:0:0:0:
135,366,19171,6,0,P|-9:252|43:177,1,270,2|2,0:0|0:0,0:0:0:0:
64,139,20709,1,2,0:0:0:0:
233,202,21479,1,2,0:0:0:0:
371,89,22248,1,2,0:0:0:0:
85,276,25325,5,6,0:0:0:0:
85,276,26094,2,0,P|198:250|262:253,1,180,10|2,0:0|0:0,0:0:0:0:
428,319,27633,1,10,0:0:0:0:
478,147,28402,1,2,0:0:0:0:
478,147,29171,6,0,P|392:113|287:110,1,180,10|2,0:0|0:0,0:0:0:0:
220,137,30325,1,2,0:0:0:0:
220,137,30709,2,0,P|81:182|41:178,1,180,10|2,0:0|0:0,0:0:0:0:
166,36,32248,6,0,P|191:181|199:241,1,180,10|2,0:0|0:0,0:0:0:0:
321,344,33786,1,10,0:0:0:0:
141,325,34556,1,2,0:0:0:0:
78,155,35325,6,0,P|167:101|253:112,1,180,10|2,0:0|0:0,0:0:0:0:
321,161,36479,1,2,0:0:0:0:
321,161,36863,2,0,P|439:191|458:187,2,90,10|2|6,0:0|0:0|0:0,0:0:0:0:
473,53,38402,2,0,P|484:126|481:152,1,90,10|2,0:0|0:0,0:0:0:0:
487,232,39171,2,0,P|356:307|308:286,1,180,2|10,0:0|0:0,0:0:0:0:
211,182,40709,6,0,P|142:121|40:160,1,180,2|10,0:0|0:0,0:0:0:0:
36,226,41863,1,2,0:0:0:0:
36,226,42248,2,0,P|105:287|207:248,1,180,2|10,0:0|0:0,0:0:0:0:
306,138,43786,5,2,0:0:0:0:
465,228,44556,1,10,0:0:0:0:
303,300,45325,1,2,0:0:0:0:
303,300,45709,2,0,B|256:303|222:337|222:337|189:295|112:285,1,180,2|2,0:0|0:0,0:0:0:0:
74,239,46863,6,0,B|28:203|41:151|41:151|85:87|205:84,1,270,2|2,0:0|0:0,0:0:0:0:
253,152,48402,2,0,P|379:215|426:40,1,360,2|6,0:0|0:0,0:0:0:0:
61,284,53017,6,0,B|158:250|144:355|238:314,1,180,6|10,0:0|0:0,0:0:0:0:
397,272,54556,2,0,P|419:177|417:73,2,180,2|10|2,0:0|0:0|0:0,0:0:0:0:
259,160,56863,1,10,0:0:0:0:
80,187,57633,2,0,P|79:283|97:368,1,180,2|10,0:0|0:0,0:0:0:0:
274,349,59171,6,0,P|359:348|396:271,1,180,2|10,0:0|0:0,0:0:0:0:
375,95,60709,1,2,0:0:0:0:
201,51,61479,2,0,P|103:69|80:69,2,90,8|0|2,0:0|0:0|0:0,0:0:0:0:
375,95,63017,2,0,P|473:77|496:77,2,90,10|2|2,0:0|0:0|0:0,0:0:0:0:
228,203,64556,1,10,0:0:0:0:
396,271,65325,5,6,0:0:0:0:
347,347,65709,2,0,P|425:363|461:378,2,90,2|10|2,0:0|0:0|0:0,0:0:0:0:
257,353,66863,2,0,P|158:328|153:214,1,180,2|8,0:0|0:0,0:0:0:0:
159,80,68402,5,2,0:0:0:0:
316,174,69171,1,10,0:0:0:0:
440,43,69940,2,0,B|480:133|480:133|457:235,1,180,2|8,0:0|0:0,0:0:0:0:
346,350,71479,6,0,B|255:370|263:286|161:297,1,180,2|10,0:0|0:0,0:0:0:0:
54,171,73017,2,0,P|138:110|231:129,2,180,2|10|2,0:0|0:0|0:0,0:0:0:0:
180,296,75325,1,8,0:0:0:0:
329,194,76094,2,0,P|342:117|341:86,2,90,2|2|10,0:0|0:0|0:0,0:0:0:0:
157,207,77633,5,6,0:0:0:0:
495,306,79171,1,2,0:0:0:0:
290,13,80709,2,0,B|258:101|272:228|272:228|202:194|115:195,1,360,2|2,0:0|0:0,0:0:0:0:
