osu file format v14

[General]
AudioFilename: audio.mp3
AudioLeadIn: 0
PreviewTime: 63427
Countdown: 0
SampleSet: Soft
StackLeniency: 0.5
Mode: 0
LetterboxInBreaks: 0
WidescreenStoryboard: 0

[Editor]
Bookmarks: 11983
DistanceSpacing: 2
BeatDivisor: 4
GridSize: 4
TimelineZoom: 2.3

[Metadata]
Title:re-fly
TitleUnicode:re-fly
Artist:Koji Wada
ArtistUnicode:和田光司
Creator:kanor
Version:Insane
Source:
Tags:Digimon Adventure monster refly Kouji Gyro Zeppeli [_Abhor_] Kencho デジモンアドベンチャー tri.
BeatmapID:1063903
BeatmapSetID:499976

[Difficulty]
HPDrainRate:6
CircleSize:3.8
OverallDifficulty:7.4
ApproachRate:9
SliderMultiplier:1.5
SliderTickRate:1

[Events]
//Background and Video events
0,0,"re-fly.jpg",0,0
//Break Periods
//Storyboard Layer 0 (Background)
//Storyboard Layer 1 (Fail)
//Storyboard Layer 2 (Pass)
//Storyboard Layer 3 (Foreground)
//Storyboard Sound Samples

[TimingPoints]
443,361.44578313253,4,2,1,20,1,0
6226,-100,4,2,1,40,0,0
9117,-111.111111111111,4,2,1,50,0,0
10563,355.029585798817,4,2,1,65,1,0
11983,392.156862745098,4,2,1,65,1,0
11983,-83.3333333333333,4,2,1,65,0,0
12375,361.44578313253,4,2,1,65,1,0
12375,-83.3333333333333,4,2,1,65,0,0
13459,361.44578313253,4,2,1,65,1,0
13459,-83.3333333333333,4,2,1,65,0,0
20687,-83.3333333333333,4,2,1,50,0,0
23579,-100,4,2,1,60,0,0
35145,-90.9090909090909,4,2,1,65,0,0
45119,361.44578313253,4,2,1,65,1,0
46745,357.142857142857,4,2,1,50,1,0
46745,-90.9090909090909,4,2,1,50,0,0
49602,361.44578313253,4,2,1,50,1,0
49602,-90.9090909090909,4,2,1,50,0,0
55385,-90.9090909090909,4,2,1,60,0,0
61168,-100,4,2,1,50,0,0
62975,-125,4,2,1,50,0,0
63336,-76.9230769230769,4,2,1,50,0,0
63879,-76.9230769230769,4,2,1,80,0,1
75355,-76.9230769230769,4,2,1,80,0,0
75445,-76.9230769230769,4,2,1,80,0,1
83758,-76.9230769230769,4,2,1,84,0,1
83939,-76.9230769230769,4,2,1,88,0,1
84120,-76.9230769230769,4,2,1,92,0,1
84210,-76.9230769230769,4,2,1,75,0,0
84300,-76.9230769230769,4,2,1,75,0,1
92975,-83.3333333333333,4,2,1,65,0,0
107433,-217.391304347826,4,2,1,40,0,0
116108,-200,4,2,1,12,0,0

[Colours]
Combo1 : 255,128,0
Combo2 : 19,255,19
Combo3 : 45,139,255

[HitObjects]
256,192,6226,12,0,8756,3:0:0:0:
240,52,9117,6,0,P|308:36|372:80,1,134.999995880127,0|0,3:0|0:0,0:0:0:0:
292,120,9659,1,0,0:0:0:0:
292,120,9750,1,0,0:0:0:0:
292,120,9840,2,0,L|300:200,1,67.4999979400635,0|0,3:0|0:0,0:0:0:0:
164,244,10202,2,0,L|170:176,1,67.4999979400635,0|0,0:0|3:0,0:0:0:0:
72,48,10563,5,10,0:0:0:0:
68,140,10740,5,2,3:0:0:0:
64,176,10829,1,2,0:0:0:0:
60,212,10918,1,8,0:0:0:0:
160,184,11095,5,2,0:0:0:0:
156,220,11184,1,2,0:0:0:0:
152,256,11273,1,8,0:0:0:0:
256,224,11450,5,2,3:0:0:0:
252,260,11539,1,2,0:0:0:0:
248,296,11628,1,8,3:0:0:0:
376,223,11805,5,2,3:0:0:0:
376,223,11894,1,2,0:0:0:0:
376,223,11983,2,0,P|302:198|252:227,1,134.999995880127,4|0,3:2|0:0,0:0:0:0:
255,223,12375,2,0,P|231:185|265:116,1,89.9999972534181,8|0,3:0|0:0,0:0:0:0:
339,261,12736,2,0,P|318:301|241:305,1,89.9999972534181,2|2,3:0|0:0,0:0:0:0:
332,168,13097,2,0,P|377:166|419:231,1,89.9999972534181,8|0,3:0|0:0,0:0:0:0:
279,317,13459,5,0,3:0:0:0:
172,188,13639,1,0,0:0:0:0:
148,348,13820,2,0,P|112:304|124:244,1,89.9999972534181,8|0,3:0|0:0,0:0:0:0:
164,148,14181,1,2,3:0:0:0:
110,272,14362,1,2,0:0:0:0:
66,118,14543,1,8,3:0:0:0:
120,242,14724,1,0,0:0:0:0:
192,68,14904,6,0,B|240:60|240:60|296:76|296:76|360:68,1,134.999995880127,2|0,3:0|0:0,0:0:0:0:
388,28,15266,2,0,P|428:16|492:40,1,89.9999972534181,8|0,0:0|0:0,0:0:0:0:
509,169,15627,1,2,3:0:0:0:
400,232,15808,1,2,3:0:0:0:
400,106,15989,1,8,3:0:0:0:
508,308,16169,6,0,B|472:316|472:316|440:308|440:308|356:336|324:256,1,179.999994506836,4|0,3:2|0:0,0:0:0:0:
296,132,16712,2,0,P|312:188|296:236,1,89.9999972534181,8|0,0:0|0:0,0:0:0:0:
132,256,17073,1,2,3:0:0:0:
236,184,17254,1,2,3:0:0:0:
244,308,17434,1,8,3:0:0:0:
244,308,17525,1,2,0:0:0:0:
244,308,17615,1,2,3:0:0:0:
63,303,17796,6,0,P|48:262|54:218,1,89.9999972534181,4|0,0:0|0:0,0:0:0:0:
140,336,18157,1,8,0:0:0:0:
60,136,18338,2,0,P|108:152|128:196,1,89.9999972534181,0|2,3:0|0:0,0:0:0:0:
200,76,18699,2,0,P|222:121|205:166,1,89.9999972534181,2|8,3:0|0:0,0:0:0:0:
320,184,19061,6,0,P|304:232|184:236,1,179.999994506836,4|0,3:2|0:0,0:0:0:0:
320,184,19603,2,0,L|416:184,1,89.9999972534181,8|0,3:0|0:0,0:0:0:0:
368,272,19965,1,2,3:0:0:0:
276,108,20145,1,2,3:0:0:0:
264,88,20236,1,2,0:0:0:0:
252,68,20326,1,8,3:0:0:0:
112,120,20507,1,2,3:0:0:0:
100,140,20597,1,2,0:0:0:0:
88,160,20687,5,4,0:0:0:0:
88,160,21049,1,2,0:0:0:0:
88,160,21410,1,2,0:0:0:0:
172,220,21591,1,0,0:0:0:0:
228,140,21772,1,2,0:0:0:0:
300,248,21952,1,8,0:0:0:0:
372,136,22133,5,2,0:0:0:0:
372,136,22495,1,2,0:0:0:0:
372,136,22856,1,2,0:0:0:0:
372,306,23037,1,2,3:0:0:0:
272,168,23218,1,2,3:0:0:0:
433,221,23398,1,2,3:0:0:0:
272,273,23579,1,2,0:0:0:0:
271,272,23940,6,0,P|244:300|206:306,1,75,2|0,3:0|0:0,0:0:0:0:
120,348,24302,2,0,P|109:310|123:274,1,75,2|0,3:0|3:0,0:0:0:0:
192,92,24663,1,2,0:0:0:0:
188,216,24844,1,0,3:0:0:0:
53,220,25025,6,0,P|114:190|196:224,1,150,2|2,3:0|3:0,0:0:0:0:
278,282,25567,1,0,0:0:0:0:
278,282,25928,1,0,3:0:0:0:
288,172,26109,1,2,3:0:0:0:
379,236,26290,1,0,3:0:0:0:
187,215,26471,6,0,P|168:137|212:56,1,150,2|2,3:0|3:0,0:0:0:0:
36,43,27013,1,0,0:0:0:0:
36,43,27103,1,0,0:0:0:0:
36,43,27193,2,0,P|75:32|135:50,1,75,2|0,3:0|0:0,0:0:0:0:
136,148,27555,5,2,0:0:0:0:
136,148,27736,2,0,P|98:152|63:141,1,75,0|2,3:0|0:0,0:0:0:0:
136,248,28097,2,0,L|148:352,1,75,0|2,0:0|0:0,0:0:0:0:
288,336,28458,1,0,0:0:0:0:
288,336,28639,2,0,L|296:261,1,75,2|2,3:0|3:0,0:0:0:0:
304,152,29001,1,2,0:0:0:0:
420,220,29181,1,2,3:0:0:0:
201,283,29362,6,0,P|187:244|205:189,1,75,4|0,0:0|0:0,0:0:0:0:
106,200,29724,2,0,P|123:162|175:136,1,75,2|0,3:0|0:0,0:0:0:0:
306,34,30085,1,2,3:0:0:0:
273,165,30266,1,0,3:0:0:0:
176,68,30446,1,2,0:0:0:0:
420,128,30627,5,0,3:0:0:0:
420,128,30718,1,0,0:0:0:0:
420,128,30808,2,0,L|428:239,1,75,2|0,0:0|0:0,0:0:0:0:
267,239,31169,2,0,L|272:164,1,75,2|0,0:0|0:0,0:0:0:0:
438,282,31531,1,2,3:0:0:0:
346,199,31712,1,2,3:0:0:0:
438,282,31892,1,2,0:0:0:0:
498,155,32073,1,10,3:0:0:0:
387,348,32254,6,0,P|315:328|244:348,1,150,2|2,3:0|3:0,0:0:0:0:
106,208,32796,2,0,P|106:245|91:290,1,75,0|2,0:0|3:0,0:0:0:0:
169,315,33157,2,0,P|142:341|100:358,1,75,0|2,3:0|0:0,0:0:0:0:
63,141,33519,6,0,P|134:129|183:182,1,150,0|0,3:0|0:0,0:0:0:0:
24,221,34061,1,2,0:0:0:0:
55,61,34242,5,0,3:2:0:0:
60,55,34332,1,2,0:0:0:0:
65,48,34422,1,2,3:0:0:0:
163,103,34603,5,2,3:0:0:0:
173,89,34693,1,2,0:0:0:0:
183,75,34784,1,2,3:0:0:0:
270,154,34965,5,2,3:0:0:0:
286,124,35055,1,2,0:0:0:0:
300,100,35145,1,6,3:2:0:0:
300,100,35507,6,0,P|308:68|364:28,1,82.5000025177003,8|0,0:0|0:0,0:0:0:0:
341,203,35868,2,0,P|310:211|247:183,1,82.5000025177003,2|2,0:0|3:0,0:0:0:0:
423,127,36230,1,8,0:0:0:0:
453,217,36410,1,2,3:0:0:0:
483,306,36591,6,0,P|403:306|355:242,1,165.000005035401,2|8,0:0|3:0,0:0:0:0:
209,90,37133,2,0,P|252:82|312:114,1,82.5000025177003,0|2,0:0|3:0,0:0:0:0:
179,267,37495,1,2,3:0:0:0:
242,165,37675,1,8,0:0:0:0:
304,264,37856,1,2,3:0:0:0:
100,288,38037,6,0,P|99:247|118:211,1,82.5000025177003,2|0,3:0|0:0,0:0:0:0:
304,264,38398,1,8,3:0:0:0:
43,168,38579,2,0,P|72:139|112:128,1,82.5000025177003,0|2,0:0|0:0,0:0:0:0:
89,47,38940,2,0,P|130:47|167:66,1,82.5000025177003,2|8,3:0|0:0,0:0:0:0:
236,170,39302,1,0,3:0:0:0:
236,170,39483,6,0,B|285:171|285:171|337:143,1,82.5000025177003,2|0,0:0|0:0,0:0:0:0:
422,88,39844,2,0,P|413:137|430:175,1,82.5000025177003,8|0,3:0|0:0,0:0:0:0:
440,301,40205,1,2,3:0:0:0:
320,253,40386,1,2,3:0:0:0:
512,260,40567,1,8,0:0:0:0:
378,353,40748,1,2,3:0:0:0:
241,106,40928,6,0,P|275:128|284:174,1,82.5000025177003,4|0,3:2|0:0,0:0:0:0:
205,178,41290,1,8,0:0:0:0:
353,105,41471,2,0,P|358:203|296:264,1,165.000005035401,0|0,3:0|3:0,0:0:0:0:
205,178,42013,2,0,P|163:164|113:188,1,82.5000025177003,8|2,0:0|3:0,0:0:0:0:
138,326,42374,6,0,L|170:222,1,82.5000025177003,2|0,0:0|0:0,0:0:0:0:
237,299,42736,1,8,3:0:0:0:
24,256,42916,2,0,L|80:88,1,165.000005035401,0|2,0:0|3:0,3:0:0:0:
91,65,43368,1,2,0:0:0:0:
91,65,43458,1,8,0:0:0:0:
201,179,43639,1,2,3:0:0:0:
201,179,44001,5,2,0:0:0:0:
291,88,44181,1,8,0:0:0:0:
324,211,44362,1,2,0:0:0:0:
324,211,44452,1,2,0:0:0:0:
324,211,44543,1,2,0:0:0:0:
205,95,44724,1,2,0:0:0:0:
365,137,44904,1,8,0:0:0:0:
248,254,45085,1,4,0:0:0:0:
248,254,45480,5,0,0:0:0:0:
328,178,45661,1,8,0:0:0:0:
396,270,45841,1,2,0:0:0:0:
367,282,45932,1,2,0:0:0:0:
336,296,46022,1,2,0:0:0:0:
224,176,46203,2,0,B|216:136|216:136|224:112|224:112|216:88|216:88|224:64|224:64|226:12,1,150,4|0,0:0|0:0,0:0:0:0:
56,112,46745,1,6,0:0:0:0:
56,112,47102,6,0,P|11:141|4:187,1,82.5000025177003,8|0,0:0|0:0,0:0:0:0:
96,216,47459,2,0,P|143:240|186:223,1,82.5000025177003,2|2,0:0|0:0,0:0:0:0:
176,128,47816,1,8,0:0:0:0:
240,40,47995,1,2,0:0:0:0:
252,179,48173,6,0,P|250:220|271:256,1,82.5000025177003,2|0,0:0|0:0,0:0:0:0:
352,200,48530,1,8,0:0:0:0:
212,320,48709,2,0,P|316:332|360:264,1,165.000005035401,0|2,0:0|0:0,0:0:0:0:
440,248,49245,1,8,0:0:0:0:
468,92,49423,5,2,0:0:0:0:
468,92,49602,2,0,L|452:192,1,82.5000025177003,2|0,0:0|0:0,0:0:0:0:
352,200,49963,1,8,0:0:0:0:
344,36,50144,2,0,L|348:140,1,82.5000025177003,0|2,0:0|0:0,0:0:0:0:
252,200,50505,1,2,0:0:0:0:
160,156,50686,1,8,0:0:0:0:
204,56,50867,5,2,0:0:0:0:
204,56,51047,2,0,P|256:64|284:112,1,82.5000025177003,2|0,0:0|0:0,0:0:0:0:
160,156,51409,1,8,0:0:0:0:
344,36,51589,2,0,P|356:112|288:164,1,165.000005035401,0|2,0:0|0:0,0:0:0:0:
264,172,52041,1,0,0:0:0:0:
264,172,52132,1,8,0:0:0:0:
372,224,52312,1,2,0:0:0:0:
272,288,52493,6,0,L|264:184,1,82.5000025177003,4|0,0:0|0:0,0:0:0:0:
108,264,52855,2,0,L|101:346,1,82.5000025177003,8|0,0:0|0:0,0:0:0:0:
132,148,53216,2,0,L|138:230,1,82.5000025177003,2|2,3:0|0:0,0:0:0:0:
156,8,53577,1,8,3:0:0:0:
112,116,53758,1,2,0:0:0:0:
268,76,53939,6,0,P|315:75|360:104,1,82.5000025177003,2|0,3:0|0:0,0:0:0:0:
456,208,54300,2,0,P|409:209|364:180,1,82.5000025177003,8|0,3:0|0:0,0:0:0:0:
448,52,54662,2,0,P|449:99|420:144,1,82.5000025177003,2|2,3:0|0:0,0:0:0:0:
296,224,55023,1,8,3:0:0:0:
288,192,55114,1,2,0:0:0:0:
295,160,55204,1,2,0:0:0:0:
160,48,55385,6,0,P|216:52|260:92,1,82.5000025177003,8|2,0:0|0:0,0:0:0:0:
96,140,55746,2,0,P|40:136|-4:96,1,82.5000025177003,8|2,0:0|0:0,0:0:0:0:
212,152,56108,1,8,0:0:0:0:
200,272,56288,1,2,0:0:0:0:
212,152,56469,1,8,0:0:0:0:
68,260,56650,1,2,0:0:0:0:
304,216,56830,6,0,P|300:272|260:316,1,82.5000025177003,8|2,0:0|0:0,0:0:0:0:
212,152,57192,2,0,P|216:96|256:52,1,82.5000025177003,8|2,0:0|0:0,0:0:0:0:
424,96,57553,1,8,0:0:0:0:
296,124,57734,1,2,0:0:0:0:
424,224,57915,1,8,0:0:0:0:
296,124,58095,1,2,0:0:0:0:
330,289,58276,6,0,P|302:241|310:201,1,82.5000025177003,8|2,0:0|0:0,0:0:0:0:
296,124,58638,1,8,0:0:0:0:
388,164,58818,1,2,0:0:0:0:
164,236,58999,6,0,P|191:187|230:174,1,82.5000025177003,8|2,0:0|0:0,0:0:0:0:
296,124,59361,1,8,0:0:0:0:
303,215,59541,1,2,0:0:0:0:
140,68,59722,6,0,P|195:67|226:94,1,82.5000025177003,8|2,0:0|0:0,0:0:0:0:
296,124,60083,1,8,0:0:0:0:
214,176,60264,1,2,0:0:0:0:
325,17,60445,5,8,0:0:0:0:
476,114,60626,1,2,0:0:0:0:
296,124,60806,1,8,0:0:0:0:
436,11,60987,1,2,0:0:0:0:
390,186,61168,5,8,0:0:0:0:
385,206,61258,1,8,0:0:0:0:
381,226,61348,1,8,0:0:0:0:
377,245,61439,1,2,0:0:0:0:
373,270,61529,1,2,0:0:0:0:
224,304,61710,5,8,0:0:0:0:
204,276,61800,1,8,0:0:0:0:
196,244,61891,1,8,0:0:0:0:
196,212,61981,1,2,0:0:0:0:
208,180,62071,1,2,0:0:0:0:
161,51,62252,5,8,0:0:0:0:
203,35,62342,1,8,0:0:0:0:
249,39,62433,1,8,0:0:0:0:
286,64,62523,1,2,0:0:0:0:
302,107,62614,1,8,0:0:0:0:
316,228,62794,5,2,0:0:0:0:
316,228,62885,1,2,0:0:0:0:
316,228,62975,2,0,L|335:340,1,90,8|0,0:0|0:0,0:0:0:0:
327,365,63336,6,0,L|332:302,1,48.7499977684022,10|2,0:0|0:0,0:0:0:0:
240,156,63517,1,0,0:0:0:0:
240,156,63608,1,0,0:0:0:0:
240,156,63698,1,8,0:0:0:0:
264,292,63879,6,0,B|184:316|116:300|116:300|164:272,1,194.999991073609,4|0,0:0|0:0,0:0:0:0:
168,188,64421,2,0,P|160:141|188:97,1,97.4999955368044,8|0,3:0|0:0,0:0:0:0:
352,224,64782,1,2,3:0:0:0:
236,293,64963,1,2,3:0:0:0:
236,156,65144,1,8,0:0:0:0:
280,364,65324,6,0,P|231:378|184:359,1,97.4999955368044,0|2,3:0|0:0,0:0:0:0:
168,228,65686,1,0,0:0:0:0:
100,346,65867,1,8,3:0:0:0:
128,156,66047,6,0,P|204:152|232:188,1,97.4999955368044,0|2,0:0|3:0,0:0:0:0:
272,320,66409,1,2,3:0:0:0:
296,192,66589,1,8,0:0:0:0:
272,320,66770,6,0,P|160:348|104:292,1,194.999991073609,4|0,3:2|0:0,0:0:0:0:
172,184,67312,2,0,L|200:288,1,97.4999955368044,8|0,3:0|0:0,0:0:0:0:
92,112,67674,1,2,3:0:0:0:
92,112,67855,2,0,L|66:206,1,97.4999955368044,2|8,3:0|0:0,0:0:0:0:
12,80,68216,6,0,P|124:36|176:96,1,194.999991073609,2|0,3:0|0:0,0:0:0:0:
255,175,68758,1,8,3:0:0:0:
295,39,68939,1,0,0:0:0:0:
243,199,69120,2,0,P|291:211|343:191,1,97.4999955368044,2|2,3:0|3:0,0:0:0:0:
432,140,69481,5,8,0:0:0:0:
436,172,69571,1,2,0:0:0:0:
440,204,69662,1,2,3:0:0:0:
444,232,69752,1,2,0:0:0:0:
448,268,69842,2,0,P|408:308|360:300,1,97.4999955368044,4|0,0:0|0:0,0:0:0:0:
336,197,70204,1,8,0:0:0:0:
348,380,70385,2,0,P|299:351|294:303,1,97.4999955368044,0|2,3:0|0:0,0:0:0:0:
336,197,70746,1,2,3:0:0:0:
212,312,70927,2,0,P|226:257|272:240,1,97.4999955368044,8|0,0:0|0:0,0:0:0:0:
184,104,71288,6,0,P|229:112|267:159,1,97.4999955368044,2|0,3:0|0:0,0:0:0:0:
180,200,71650,1,8,0:0:0:0:
326,89,71830,2,0,P|347:135|336:190,1,97.4999955368044,0|2,3:0|0:0,0:0:0:0:
180,200,72192,1,2,3:0:0:0:
425,183,72373,2,0,P|414:222|372:257,1,97.4999955368044,8|0,0:0|0:0,0:0:0:0:
172,284,72734,6,0,P|124:268|100:220,1,97.4999955368044,4|0,0:0|0:0,0:0:0:0:
40,84,73095,2,0,P|88:100|112:148,1,97.4999955368044,8|0,0:0|3:0,0:0:0:0:
72,328,73457,1,2,0:0:0:0:
180,200,73638,1,2,3:0:0:0:
200,176,73728,1,2,0:0:0:0:
220,148,73818,1,8,0:0:0:0:
372,251,73999,6,0,P|361:320|251:315,1,194.999991073609,4|0,0:0|3:0,0:0:0:0:
232,305,74451,1,0,0:0:0:0:
248,302,74541,1,8,3:0:0:0:
156,232,74722,5,2,3:0:0:0:
180,224,74812,1,2,0:0:0:0:
204,216,74903,1,2,3:0:0:0:
128,128,75083,5,2,3:0:0:0:
176,128,75174,1,2,0:0:0:0:
220,128,75264,1,2,3:0:0:0:
360,64,75445,6,0,B|328:116|360:156|392:196|344:252,1,194.999991073609,4|0,0:0|0:0,0:0:0:0:
164,248,75987,1,8,3:0:0:0:
248,96,76168,1,0,0:0:0:0:
260,300,76348,1,2,3:0:0:0:
152,164,76529,1,2,0:0:0:0:
324,136,76710,1,8,3:0:0:0:
260,300,76891,6,0,P|300:344|372:320,1,97.4999955368044,0|2,3:0|0:0,0:0:0:0:
332,184,77252,1,0,0:0:0:0:
396,280,77433,2,0,P|445:264|476:212,2,97.4999955368044,8|0|2,3:0|0:0|3:0,0:0:0:0:
344,72,77975,5,2,3:0:0:0:
396,204,78156,1,8,0:0:0:0:
332,52,78336,2,0,P|236:28|148:72,1,194.999991073609,4|2,3:2|0:0,0:0:0:0:
137,229,78879,1,8,3:0:0:0:
232,360,79059,1,0,0:0:0:0:
249,153,79240,1,2,3:0:0:0:
89,161,79421,1,2,3:0:0:0:
185,293,79601,1,8,0:0:0:0:
249,153,79782,6,0,P|356:108|404:184,1,194.999991073609,2|0,3:0|0:0,0:0:0:0:
408,272,80324,1,8,3:0:0:0:
432,128,80505,1,0,0:0:0:0:
408,272,80686,5,2,3:0:0:0:
384,308,80776,1,0,0:0:0:0:
348,332,80867,1,2,3:0:0:0:
304,344,80957,1,0,0:0:0:0:
260,332,81047,1,8,0:0:0:0:
224,304,81138,1,10,0:0:0:0:
200,268,81228,1,10,3:0:0:0:
192,224,81318,1,10,0:0:0:0:
196,176,81409,6,0,P|204:128|260:96,1,97.4999955368044,4|0,0:0|0:0,0:0:0:0:
304,180,81770,1,8,0:0:0:0:
368,92,81951,2,0,P|405:122|405:187,1,97.4999955368044,0|2,3:0|0:0,0:0:0:0:
344,280,82312,2,0,P|298:297|242:264,1,97.4999955368044,2|8,3:0|0:0,0:0:0:0:
196,176,82674,1,4,0:0:0:0:
196,176,83035,5,0,0:0:0:0:
98,41,83216,1,8,3:0:0:0:
256,93,83397,1,0,3:0:0:0:
98,144,83577,1,2,3:0:0:0:
196,10,83758,1,8,3:0:0:0:
204,192,83939,1,8,3:0:0:0:
76,32,84120,1,8,3:0:0:0:
276,104,84300,6,0,L|380:104,1,97.4999955368044,4|0,0:0|0:0,0:0:0:0:
320,192,84662,1,12,0:3:0:0:
392,32,84842,2,0,P|454:102|396:176,1,194.999991073609,2|0,0:0|0:0,0:0:0:0:
340,296,85385,2,0,L|437:296,1,97.4999955368044,12|0,0:3|0:0,0:0:0:0:
264,256,85746,6,0,P|278:301|262:346,1,97.4999955368044,4|0,0:3|0:0,0:0:0:0:
224,180,86108,1,12,0:3:0:0:
192,300,86288,2,0,P|88:312|64:216,1,194.999991073609,0|2,0:0|0:0,0:0:0:0:
136,152,86830,2,0,P|150:197|134:242,1,97.4999955368044,12|0,0:3|0:0,0:0:0:0:
92,84,87192,6,0,P|137:69|182:85,1,97.4999955368044,4|0,0:3|0:0,0:0:0:0:
56,156,87553,1,12,0:3:0:0:
200,4,87734,2,0,P|242:26|216:156,1,194.999991073609,2|2,0:0|0:0,0:0:0:0:
324,160,88276,1,12,0:3:0:0:
189,238,88457,1,0,0:0:0:0:
189,82,88638,5,6,0:3:0:0:
377,243,88818,1,0,0:0:0:0:
377,87,88999,1,12,3:3:0:0:
242,165,89180,1,0,3:0:0:0:
377,243,89361,2,0,L|356:356,1,97.4999955368044,6|2,3:3|3:0,0:0:0:0:
254,261,89722,2,0,L|241:160,1,97.4999955368044,12|0,0:3|0:0,0:0:0:0:
241,8,90083,5,4,0:0:0:0:
241,164,90264,1,0,0:0:0:0:
376,86,90445,1,8,3:0:0:0:
200,84,90626,5,0,0:0:0:0:
200,240,90806,1,2,0:0:0:0:
335,162,90987,1,2,0:0:0:0:
72,160,91168,5,8,0:0:0:0:
72,160,91258,1,0,0:0:0:0:
72,160,91348,2,0,B|32:220|72:264|116:312|56:360,1,194.999991073609,4|0,0:0|0:0,0:0:0:0:
136,216,91891,2,0,P|212:212|264:288,1,146.249993305207,8|0,3:0|0:0,0:0:0:0:
280,288,92252,6,0,P|221:219|268:156,1,146.249993305207,2|2,0:0|0:0,0:0:0:0:
252,151,92614,2,0,P|313:137|344:151,1,97.4999955368044,8|2,0:0|0:0,0:0:0:0:
372,169,92885,1,2,0:0:0:0:
372,169,92975,6,0,L|368:79,1,89.9999972534181,4|0,0:0|0:0,0:0:0:0:
376,268,93336,2,0,P|416:284|472:264,1,89.9999972534181,12|0,3:3|0:0,0:0:0:0:
283,263,93698,2,0,P|292:306|354:339,1,89.9999972534181,6|2,3:3|0:0,0:0:0:0:
211,214,94059,2,0,P|194:254|214:310,1,89.9999972534181,12|0,3:3|0:0,0:0:0:0:
296,148,94421,5,6,3:3:0:0:
164,104,94601,1,0,0:0:0:0:
296,148,94782,2,0,L|420:136,1,89.9999972534181,12|0,3:3|0:0,0:0:0:0:
126,3,95144,1,6,3:3:0:0:
64,143,95324,1,2,0:0:0:0:
25,42,95505,1,14,3:3:0:0:
164,104,95686,1,0,0:0:0:0:
344,72,95867,6,0,P|396:161|376:196,1,134.999995880127,6|0,3:3|0:0,0:0:0:0:
376,200,96228,2,0,L|472:200,1,89.9999972534181,12|0,0:3|0:0,0:0:0:0:
256,344,96589,1,6,3:3:0:0:
276,224,96770,1,2,3:0:0:0:
256,368,96951,1,12,3:3:0:0:
117,172,97132,6,0,P|71:235|144:264,1,179.999994506836,4|0,3:2|0:0,0:0:0:0:
183,127,97674,2,0,P|148:100|104:96,1,89.9999972534181,12|0,0:3|0:0,0:0:0:0:
216,204,98035,1,6,3:3:0:0:
292,152,98216,1,2,3:0:0:0:
388,160,98397,5,12,3:3:0:0:
416,180,98487,1,2,0:0:0:0:
432,208,98577,1,2,3:0:0:0:
440,240,98668,1,2,0:0:0:0:
436,276,98758,2,0,P|412:324|368:336,1,89.9999972534181,4|0,3:2|0:0,0:0:0:0:
292,152,99120,1,12,0:3:0:0:
292,152,99300,2,0,L|304:48,1,89.9999972534181,0|6,3:0|0:3,0:0:0:0:
264,224,99662,2,0,L|248:128,1,89.9999972534181,2|12,3:0|0:3,0:0:0:0:
320,288,100023,6,0,P|228:300|176:216,1,179.999994506836,2|0,3:0|0:0,0:0:0:0:
178,238,100565,1,12,0:3:0:0:
64,184,100746,1,2,3:0:0:0:
64,184,100836,1,2,3:0:0:0:
64,184,100927,1,6,3:3:0:0:
92,328,101108,1,2,3:0:0:0:
80,108,101288,1,12,3:3:0:0:
52,260,101469,1,0,3:0:0:0:
192,216,101650,5,6,0:0:0:0:
248,80,101830,1,0,0:0:0:0:
248,80,102011,1,12,0:3:0:0:
208,204,102192,5,4,0:0:0:0:
357,141,102373,1,6,0:3:0:0:
357,141,102553,1,2,0:0:0:0:
228,48,102734,5,12,0:0:0:0:
309,241,102915,1,0,0:0:0:0:
309,241,103095,1,6,3:3:0:0:
328,104,103276,5,4,0:0:0:0:
248,296,103457,1,12,0:3:0:0:
464,268,103638,1,0,0:0:0:0:
300,76,103818,5,6,0:0:0:0:
145,147,103999,1,6,3:0:0:0:
148,174,104089,1,0,0:0:0:0:
152,202,104180,1,6,3:0:0:0:
156,230,104270,1,0,0:0:0:0:
160,258,104361,1,6,3:0:0:0:
164,286,104451,1,0,0:0:0:0:
166,314,104541,6,0,L|269:327,1,89.9999972534181,4|0,0:0|0:0,0:0:0:0:
360,188,104903,1,12,3:3:0:0:
360,188,105083,2,0,P|376:144|340:72,1,89.9999972534181,0|6,3:0|0:3,0:0:0:0:
280,228,105445,2,0,P|310:263|392:264,1,89.9999972534181,10|12,3:0|0:3,0:0:0:0:
274,136,105806,2,0,B|232:108|184:136|140:168|92:128,1,179.999994506836,4|0,3:2|0:0,0:0:0:0:
232,206,106348,6,0,L|256:292,1,89.9999972534181,12|0,3:3|0:0,0:0:0:0:
256,292,106620,1,0,0:0:0:0:
256,292,106710,1,6,3:3:0:0:
420,240,106891,1,2,3:0:0:0:
289,143,107071,1,12,3:3:0:0:
256,292,107252,1,2,3:0:0:0:
222,143,107433,6,0,B|192:60|56:20|56:20|24:64|64:152|64:152|64:288|172:224|172:224|80:324|132:384|228:360|256:256|256:256|284:360|380:384|432:324|340:224|340:224|448:288|448:152|448:152|488:64|456:20|456:20|320:60|289:144,1,1655.99994440918,4|0,0:0|3:0,0:0:0:0:
256,192,116198,12,0,118818,0:0:0:0:
