osu file format v14

[General]
AudioFilename: audio.mp3
AudioLeadIn: 0
PreviewTime: 63427
Countdown: 0
SampleSet: Soft
StackLeniency: 0.6
Mode: 0
LetterboxInBreaks: 0
WidescreenStoryboard: 1

[Editor]
DistanceSpacing: 1
BeatDivisor: 4
GridSize: 4
TimelineZoom: 3.699999

[Metadata]
Title:re-fly
TitleUnicode:re-fly
Artist:Koji Wada
ArtistUnicode:和田光司
Creator:kanor
Version:Easy
Source:
Tags:Digimon Adventure monster refly Kouji Gyro Zeppeli [_Abhor_] Kencho デジモンアドベンチャー tri.
BeatmapID:1063902
BeatmapSetID:499976

[Difficulty]
HPDrainRate:2
CircleSize:3
OverallDifficulty:2
ApproachRate:3
SliderMultiplier:0.9
SliderTickRate:1

[Events]
//Background and Video events
0,0,"re-fly.jpg",0,0
//Break Periods
//Storyboard Layer 0 (Background)
//Storyboard Layer 1 (Fail)
//Storyboard Layer 2 (Pass)
//Storyboard Layer 3 (Foreground)
//Storyboard Sound Samples

[TimingPoints]
443,361.44578313253,4,2,1,20,1,0
6226,-100,4,2,1,40,0,0
9117,-100,4,2,1,50,0,0
10563,355.029585798817,4,2,1,65,1,0
11983,392.156862745098,4,2,1,65,1,0
12375,361.44578313253,4,2,1,65,1,0
13459,361.44578313253,4,2,1,65,1,0
20687,-100,4,2,1,50,0,0
23579,-100,4,2,1,60,0,0
35145,-100,4,2,1,65,0,0
45119,361.44578313253,4,2,1,65,1,0
46745,357.142857142857,4,2,1,50,1,0
46745,-100,4,2,1,50,0,0
49602,361.44578313253,4,2,1,50,1,0
55385,-100,4,2,1,60,0,0
61168,-100,4,2,1,50,0,0
63879,-100,4,2,1,80,0,1
75355,-100,4,2,1,80,0,0
75445,-100,4,2,1,80,0,1
83939,-100,4,2,1,88,0,1
84120,-100,4,2,1,92,0,1
84210,-100,4,2,1,92,0,0
84300,-100,4,2,1,92,0,1
92975,-100,4,2,1,92,0,0
107433,-100,4,2,1,40,0,0
110324,-100,4,2,1,36,0,0
113216,-100,4,2,1,32,0,0
116108,-100,4,2,1,28,0,0

[Colours]
Combo1 : 255,128,0
Combo2 : 19,255,19
Combo3 : 45,139,255

[HitObjects]
256,192,6226,12,0,9117,3:0:0:0:
160,52,10563,6,0,P|208:40|260:56,2,90,10|8|8,0:0|0:0|0:0,0:0:0:0:
84,100,11628,1,8,3:0:0:0:
52,184,11983,6,0,L|60:292,1,90,4|8,3:2|3:0,0:0:0:0:
144,296,12736,2,0,L|152:188,1,90,2|8,3:0|3:0,0:0:0:0:
236,176,13459,2,0,L|244:284,2,90,0|8|2,3:0|3:0|3:0,0:0:0:0:
324,148,14543,1,8,3:0:0:0:
344,236,14904,6,0,P|392:208|412:172,1,90,2|8,3:0|0:0,0:0:0:0:
394,90,15627,2,0,P|327:57|257:87,2,135,2|4|8,3:0|3:2|0:0,0:0:0:0:
324,148,17073,2,0,L|324:244,1,90,2|8,3:0|3:0,0:0:0:0:
404,280,17796,6,0,P|368:320|320:324,1,90,4|8,0:0|0:0,0:0:0:0:
251,289,18519,2,0,P|183:277|103:293,2,135,2|4|8,0:0|3:2|3:0,0:0:0:0:
320,236,19965,1,0,3:0:0:0:
334,323,20326,1,10,3:0:0:0:
404,266,20687,6,0,P|452:280|474:331,2,90,4|2|2,0:0|0:0|0:0,0:0:0:0:
320,236,21772,1,2,0:0:0:0:
384,172,22133,2,0,P|432:157|454:106,2,90,2|2|2,0:0|0:0|0:0,0:0:0:0:
319,109,23218,1,2,3:0:0:0:
228,112,23579,5,2,0:0:0:0:
140,136,23940,2,0,L|104:48,2,90,2|2|2,3:0|3:0|0:0,0:0:0:0:
152,224,25025,2,0,P|140:288|72:320,2,135,2|0|2,3:0|0:0|3:0,0:0:0:0:
228,176,26471,6,0,P|244:212|240:264,1,90,2|2,3:0|3:0,0:0:0:0:
327,285,27193,2,0,P|355:245|404:226,1,90,2|2,3:0|0:0,0:0:0:0:
376,140,27916,2,0,P|328:140|292:96,2,90,2|2|2,0:0|0:0|3:0,0:0:0:0:
364,52,29001,1,2,0:0:0:0:
276,28,29362,6,0,P|228:16|176:32,1,90,4|2,0:0|3:0,0:0:0:0:
140,100,30085,2,0,P|188:112|240:96,1,90,2|2,3:0|0:0,0:0:0:0:
316,112,30808,2,0,P|304:160|320:212,1,90,2|2,0:0|0:0,0:0:0:0:
392,244,31531,2,0,P|404:196|388:144,1,90,2|2,3:0|0:0,0:0:0:0:
312,199,32254,6,0,L|208:197,1,90,2|2,3:0|3:0,0:0:0:0:
140,156,32977,2,0,P|131:199|143:242,1,90,2|2,3:0|0:0,0:0:0:0:
222,286,33699,2,0,L|333:289,1,90,2|2,3:0|0:0,0:0:0:0:
392,328,34422,2,0,P|404:283|381:238,1,90,2|2,3:0|3:0,0:0:0:0:
310,202,35145,5,4,3:2:0:0:
388,158,35507,2,0,P|438:158|478:186,2,90,8|2|8,0:0|0:0|0:0,0:0:0:0:
310,111,36591,2,0,P|363:64|441:71,2,135,2|0|8,0:0|0:0|0:0,0:0:0:0:
223,135,38037,6,0,P|221:83|251:42,1,90,2|8,3:0|3:0,0:0:0:0:
160,12,38760,2,0,P|116:37|68:32,1,90,2|8,0:0|0:0,0:0:0:0:
72,124,39483,2,0,P|120:146|136:194,2,90,2|8|2,0:0|3:0|3:0,0:0:0:0:
32,204,40567,1,8,0:0:0:0:
49,292,40928,6,0,P|84:327|132:335,1,90,4|8,3:2|0:0,0:0:0:0:
128,245,41651,2,0,P|176:257|222:241,1,90,2|8,0:0|0:0,0:0:0:0:
227,157,42374,2,0,P|275:177|299:221,1,90,2|8,0:0|3:0,0:0:0:0:
354,139,43097,2,0,P|379:176|348:269,2,135,2|2|8,3:0|3:0|0:0,0:0:0:0:
275,94,44543,5,0,0:0:0:0:
275,237,45119,1,4,0:0:0:0:
176,145,45661,2,0,P|102:143|72:88,1,135,0|4,0:0|0:0,0:0:0:0:
79,233,46745,1,4,0:0:0:0:
167,248,47102,6,0,P|208:266|274:242,1,90,8|2,0:0|0:0,0:0:0:0:
333,222,47816,1,8,0:0:0:0:
416,188,48173,2,0,P|424:232|415:290,2,90,2|8|2,0:0|0:0|0:0,0:0:0:0:
343,133,49245,1,8,0:0:0:0:
270,80,49602,6,0,B|223:67|223:67|105:66,2,135,2|0|8,0:0|0:0|0:0,0:0:0:0:
259,169,51047,2,0,B|212:156|212:156|94:155,2,135,2|0|8,0:0|0:0|0:0,0:0:0:0:
343,133,52493,5,4,0:0:0:0:
415,186,52855,2,0,P|447:228|435:276,1,90,8|2,0:0|3:0,0:0:0:0:
353,255,53577,1,8,3:0:0:0:
388,337,53939,2,0,P|418:368|462:377,2,90,2|8|2,3:0|3:0|3:0,0:0:0:0:
353,255,55023,1,8,3:0:0:0:
299,182,55385,6,0,P|252:175|205:197,1,90,8|8,0:0|0:0,0:0:0:0:
167,267,56108,2,0,P|184:311|226:340,1,90,8|8,0:0|0:0,0:0:0:0:
306,347,56830,2,0,P|335:309|340:258,1,90,8|8,0:0|0:0,0:0:0:0:
430,283,57553,2,0,P|430:238|406:201,1,90,8|8,0:0|0:0,0:0:0:0:
480,149,58276,6,0,P|449:117|405:108,1,90,8|8,0:0|0:0,0:0:0:0:
428,20,58999,2,0,P|381:16|340:36,1,90,8|8,0:0|0:0,0:0:0:0:
253,37,59722,2,0,P|263:79|295:109,1,90,8|8,0:0|0:0,0:0:0:0:
238,178,60445,2,0,P|275:200|319:197,1,90,8|8,0:0|0:0,0:0:0:0:
324,287,61168,6,0,P|393:255|405:172,2,135,8|8|8,0:0|0:0|0:0,0:0:0:0:
233,288,62614,2,0,P|184:278|134:299,1,90,8|8,0:0|0:0,0:0:0:0:
149,68,63879,6,0,P|201:36|297:61,1,135,4|8,0:0|3:0,0:0:0:0:
226,121,64782,2,0,L|220:227,1,90,2|8,3:0|0:0,0:0:0:0:
164,281,65505,2,0,P|207:302|270:287,2,90,2|8|2,0:0|3:0|3:0,0:0:0:0:
72,181,66770,6,0,B|102:168|136:197|136:197|205:171,1,135,4|8,3:2|3:0,0:0:0:0:
271,122,67674,2,0,P|320:112|390:151,1,90,2|8,3:0|0:0,0:0:0:0:
399,202,68397,2,0,P|355:210|311:198,2,90,2|8|2,0:0|3:0|3:0,0:0:0:0:
448,126,69481,1,8,0:0:0:0:
488,206,69842,6,0,P|496:249|484:293,2,90,4|8|2,0:0|0:0|0:0,0:0:0:0:
448,126,70927,1,8,0:0:0:0:
411,43,71288,2,0,P|454:34|498:46,2,90,2|8|2,0:0|0:0|0:0,0:0:0:0:
358,116,72373,1,8,0:0:0:0:
314,37,72734,6,0,P|259:29|205:49,1,90,4|8,0:0|0:0,0:0:0:0:
267,117,73457,2,0,P|202:128|145:75,2,135,2|4|8,0:0|0:0|3:0,0:0:0:0:
358,116,74903,2,0,L|374:232,1,90,2|2,3:0|3:0,0:0:0:0:
381,248,75445,6,0,P|311:232|234:262,1,135,4|8,0:0|3:0,0:0:0:0:
245,159,76348,2,0,P|184:197|173:245,1,90,2|8,3:0|0:0,0:0:0:0:
103,159,77071,2,0,P|87:229|112:270,2,90,2|8|2,0:0|3:0|3:0,0:0:0:0:
201,66,78336,6,0,B|268:45|268:45|331:70,1,135,4|8,3:2|3:0,0:0:0:0:
414,42,79240,2,0,L|436:152,1,90,2|8,3:0|0:0,0:0:0:0:
344,151,79963,2,0,L|322:261,2,90,2|8|2,0:0|3:0|3:0,0:0:0:0:
431,130,81047,1,8,0:0:0:0:
426,219,81409,6,0,L|404:332,1,90,4|8,0:0|0:0,0:0:0:0:
321,330,82132,2,0,P|261:337|205:309,1,90,2|8,0:0|0:0,0:0:0:0:
143,325,82855,2,0,P|166:269|219:235,2,90,0|8|2,0:0|3:0|3:0,0:0:0:0:
233,329,83939,1,8,3:0:0:0:
277,250,84300,6,0,P|321:239|378:259,2,90,4|12|6,0:0|0:3|0:3,0:0:0:0:
188,250,85385,1,12,0:3:0:0:
233,172,85746,2,0,P|256:133|310:106,2,90,4|12|6,0:3|0:3|0:3,0:0:0:0:
188,250,86830,1,12,0:3:0:0:
98,250,87192,6,0,P|59:226|32:172,2,90,4|12|6,0:3|0:3|0:3,0:0:0:0:
188,250,88276,1,12,0:3:0:0:
148,169,88638,2,0,P|136:125|157:68,1,90,6|12,0:3|3:3,0:0:0:0:
225,38,89361,2,0,P|236:82|216:139,1,90,6|12,3:3|0:3,0:0:0:0:
313,143,90083,6,0,P|296:186|242:208,1,90,4|8,0:0|3:0,0:0:0:0:
180,250,90806,2,0,P|213:286|327:275,2,135,2|4|8,0:0|0:0|3:0,0:0:0:0:
105,300,92252,2,0,P|87:251|96:205,1,90,2|8,0:0|0:0,0:0:0:0:
51,134,92975,6,0,L|57:44,1,90,4|12,0:0|3:3,0:0:0:0:
147,43,93698,2,0,L|153:132,1,90,6|12,3:3|3:3,0:0:0:0:
243,135,94421,2,0,L|249:45,2,90,6|12|6,3:3|3:3|3:3,0:0:0:0:
243,225,95505,1,12,3:3:0:0:
304,300,95867,6,0,P|350:276|362:236,1,90,6|12,3:3|0:3,0:0:0:0:
444,208,96589,2,0,P|401:165|313:173,2,135,6|4|12,3:3|3:2|0:3,0:0:0:0:
488,288,98035,2,0,P|480:339|443:368,1,90,6|12,3:3|3:3,0:0:0:0:
397,292,98758,6,0,P|353:272|293:280,1,90,4|12,3:2|0:3,0:0:0:0:
301,183,99481,2,0,P|255:199|218:248,1,90,6|12,0:3|0:3,0:0:0:0:
161,166,100204,2,0,P|141:210|148:270,2,90,0|12|6,0:0|0:3|3:3,0:0:0:0:
212,92,101288,1,12,3:3:0:0:
296,62,101650,6,0,B|346:54|346:54|389:62|389:62|446:52,2,135,6|0|12,0:3|3:0|0:3,0:0:0:0:
326,147,103095,2,0,P|336:194|319:250,1,90,6|12,3:3|0:3,0:0:0:0:
248,190,103818,2,0,P|237:233|246:277,1,90,6|12,3:3|0:3,0:0:0:0:
159,299,104541,6,0,P|186:346|279:363,1,135,4|0,3:2|3:0,0:0:0:0:
334,317,105445,1,10,3:0:0:0:
370,234,105806,2,0,B|393:187|370:160|348:126|365:92,1,135,4|12,3:2|3:3,0:0:0:0:
394,19,106710,2,0,P|346:13|298:38,1,90,6|12,3:3|3:3,0:0:0:0:
236,80,107433,6,0,P|180:88|132:60,1,90,4|0,0:0|0:0,0:0:0:0:
84,16,108156,2,0,L|100:180,2,135,2|0|0,3:0|3:0|0:0,0:0:0:0:
4,56,109601,2,0,L|16:168,1,90,0|0,3:0|3:0,0:0:0:0:
59,223,110324,6,0,P|102:232|143:217,1,90,0|0,3:0|0:0,0:0:0:0:
211,157,111047,2,0,L|195:321,2,135,2|0|0,3:0|3:0|0:0,0:0:0:0:
294,191,112493,2,0,L|282:303,1,90,0|0,3:0|3:0,0:0:0:0:
369,310,113216,6,0,P|417:326|485:294,1,90,0|0,3:0|3:0,0:0:0:0:
416,236,113939,2,0,L|432:72,2,135,2|0|0,3:0|3:0|0:0,0:0:0:0:
334,198,115385,2,0,L|346:86,1,90,0|0,3:0|3:0,0:0:0:0:
256,192,116108,12,0,118818,3:0:0:0:
