osu file format v14

[General]
AudioFilename: audio.ogg
AudioLeadIn: 0
PreviewTime: 19920
Countdown: 0
SampleSet: None
StackLeniency: 0.7
Mode: 3
LetterboxInBreaks: 0
SpecialStyle: 0
WidescreenStoryboard: 1

[Editor]
DistanceSpacing: 0.8
BeatDivisor: 4
GridSize: 32
TimelineZoom: 1.4

[Metadata]
Title:Zelda-hime no Thema
TitleUnicode:ゼルダ姫のテーマ
Artist:Koji Kondo
ArtistUnicode:近藤浩治
Creator:Shiro_122
Version:4K | Relaxing
Source:ゼルダの伝説 風のタクト
Tags:Princess Zelda's Theme Video Game Instrumental original soundtrack sound track ost flute plucked pizzicato The Legend of Zelda: The Wind Waker Windwaker Zelda's Lullaby Disc 2 SCDC-00251 17 2-17 Nintendo simple LN long note
BeatmapID:4488333
BeatmapSetID:2133548

[Difficulty]
HPDrainRate:7
CircleSize:4
OverallDifficulty:6.5
ApproachRate:5
SliderMultiplier:1.4
SliderTickRate:1

[Events]
//Background and Video events
0,0,"windwakerhd.png",0,0
//Break Periods
//Storyboard Layer 0 (Background)
//Storyboard Layer 1 (Fail)
//Storyboard Layer 2 (Pass)
//Storyboard Layer 3 (Foreground)
//Storyboard Layer 4 (Overlay)
//Storyboard Sound Samples

[TimingPoints]
200,491.803278688525,3,2,1,15,1,0
200,-109.9099099,3,2,1,15,0,0
1675,491.803278688525,3,2,1,15,1,8
1675,-109.9099099,3,2,1,15,0,0
1737,535.714285714286,3,2,1,15,1,0
1737,-100.9009009,3,2,1,15,0,0
3344,535.714285714286,3,2,1,15,1,8
3344,-100.9009009,3,2,1,15,0,0
3378,538.116591928252,3,2,1,15,1,0
3378,-100.4504505,3,2,1,15,0,0
4992,535.714285714287,3,2,1,15,1,8
4992,-100.9009009,3,2,1,15,0,0
5011,540.540540540541,3,2,1,15,1,0
5011,-100,3,2,1,15,0,0
6632,540.540540540541,3,2,1,15,1,8
6632,-100,3,2,1,15,0,0
6669,526.315789473685,3,2,1,15,1,0
6669,-102.7027027,3,2,1,15,0,0
7772,521.739130434783,3,2,1,15,1,8
7772,-103.6036036,3,2,1,15,0,0
8293,521.739130434783,3,2,1,15,1,0
8293,-103.6036036,3,2,1,15,0,0
9409,512.820512820513,3,2,1,15,1,8
9409,-105.4054054,3,2,1,15,0,0
9921,521.739130434783,3,2,1,15,1,0
9921,-103.6036036,3,2,1,15,0,0
11027,521.739130434783,3,2,1,15,1,8
11027,-103.6036036,3,2,1,15,0,0
11548,521.739130434783,3,2,1,15,1,0
11548,-103.6036036,3,2,1,15,0,0
13113,521.739130434783,3,2,1,15,1,8
13113,-103.6036036,3,2,1,15,0,0
13191,521.739130434783,3,2,1,15,1,0
13191,-103.6036036,3,2,1,15,0,0
14318,519.48051948052,3,2,1,15,1,8
14318,-104.0540541,3,2,1,15,0,0
14837,522.875816993464,3,2,1,15,1,0
14837,-103.3783784,3,2,1,15,0,0
15938,528.63436123348,3,2,1,15,1,8
15938,-102.2522523,3,2,1,15,0,0
16466,534.521158129176,3,2,1,15,1,0
16466,-101.1261261,3,2,1,15,0,0
17572,576.923076923078,3,2,1,15,1,8
17572,-93.69369369,3,2,1,15,0,0
18114,545.454545454546,3,2,1,15,1,0
18114,-99.0990991,3,2,1,15,0,0
19750,545.454545454546,3,2,1,15,1,8
19750,-99.0990991,3,2,1,15,0,0
19920,526.315789473685,3,2,1,15,1,0
19920,-102.7027027,3,2,1,15,0,0
21039,512.820512820514,3,2,1,15,1,8
21039,-105.4054054,3,2,1,15,0,0
21551,545.454545454547,3,2,1,15,1,0
21551,-99.0990991,3,2,1,15,0,0
22647,571.428571428574,3,2,1,15,1,8
22647,-94.59459459,3,2,1,15,0,0
23195,524.01746724891,3,2,1,15,1,0
23195,-103.1531532,3,2,1,15,0,0
24313,517.241379310347,3,2,1,15,1,8
24313,-104.5045045,3,2,1,15,0,0
24830,530.973451327436,3,2,1,15,1,0
24830,-101.8018018,3,2,1,15,0,0
26422,530.973451327436,3,2,1,15,1,8
26422,-101.8018018,3,2,1,15,0,0
26462,528.634361233483,3,2,1,15,1,0
26462,-102.2522523,3,2,1,15,0,0
27592,504.201680672271,3,2,1,15,1,8
27592,-107.2072072,3,2,1,15,0,0
28096,526.315789473686,3,2,1,15,1,0
28096,-102.7027027,3,2,1,15,0,0
29209,524.01746724891,3,2,1,15,1,8
29209,-103.1531532,3,2,1,15,0,0
29733,560.747663551404,3,2,1,15,1,0
29733,-96.3963964,3,2,1,15,0,0
31415,560.747663551404,3,2,1,15,1,8
31415,-96.3963964,3,2,1,15,0,0
31539,618.556701030928,3,2,1,15,1,0
31539,-87.38738739,3,2,1,15,0,0
33394,618.556701030928,3,2,1,15,1,8
33394,-87.38738739,3,2,1,15,0,0
33437,530.973451327434,3,2,1,15,1,0
33437,-101.8018018,3,2,1,15,0,0
34511,555.555555555556,3,2,1,15,1,8
34511,-97.2972973,3,2,1,15,0,0
35066,540.540540540541,3,2,1,15,1,0
35066,-100,3,2,1,15,0,0
36687,540.540540540541,3,2,1,15,1,8
36687,-100,3,2,1,15,0,0
36711,535.714285714286,3,2,1,15,1,0
36711,-100.9009009,3,2,1,15,0,0
38322,535.714285714286,3,2,1,15,1,8
38322,-100.9009009,3,2,1,15,0,0
38340,540.540540540541,3,2,1,15,1,0
38340,-100,3,2,1,15,0,0
39961,540.540540540541,3,2,1,15,1,8
39961,-100,3,2,1,15,0,0
39980,542.986425339367,3,2,1,15,1,0
39980,-99.54954955,3,2,1,15,0,0
40522,530.973451327434,3,2,1,15,1,8
40522,-101.8018018,3,2,1,15,0,0
41062,555.555555555556,3,2,1,15,1,8
41062,-97.2972973,3,2,1,15,0,0
41617,540.540540540541,3,2,1,15,1,0
41617,-100,3,2,1,15,0,0
43238,540.540540540541,3,2,1,15,1,8
43238,-100,3,2,1,15,0,0
43255,545.454545454546,3,2,1,15,1,0
43255,-99.0990991,3,2,1,15,0,0
43824,550.458715596331,3,2,1,15,1,0
43824,-98.1981982,3,2,1,15,0,0
44422,612.244897959184,3,2,1,15,1,0
44422,-88.28828829,3,2,1,15,0,0
45066,480.000000000001,3,2,1,15,1,0
45066,-112.6126126,3,2,1,15,0,0
45500,425.531914893618,3,2,1,15,1,0
45500,-127.027027,3,2,1,15,0,0
45922,458.015267175574,3,2,1,15,1,0
45922,-118.018018,3,2,1,15,0,0
46384,375.000000000001,3,2,1,15,1,0
46384,-144.1441441,3,2,1,15,0,0
46755,359.28143712575,3,2,1,15,1,0
46755,-150.4504505,3,2,1,15,0,0

[HitObjects]
153,192,200,128,0,445:0:0:0:0:
51,192,200,128,0,691:0:0:0:0:
256,192,445,128,0,691:0:0:0:0:
448,192,691,128,0,1183:0:0:0:0:
256,192,1737,128,0,2004:0:0:0:0:
51,192,1737,128,0,2272:0:0:0:0:
192,192,2004,128,0,2272:0:0:0:0:
460,192,2272,128,0,2808:0:0:0:0:
448,192,3378,128,0,3916:0:0:0:0:
51,192,3378,128,0,3647:0:0:0:0:
153,192,3647,128,0,3916:0:0:0:0:
256,192,3916,128,0,4454:0:0:0:0:
256,192,5011,128,0,5281:0:0:0:0:
51,192,5011,128,0,5551:0:0:0:0:
192,192,5281,128,0,5551:0:0:0:0:
460,192,5551,128,0,6092:0:0:0:0:
153,192,6669,128,0,6932:0:0:0:0:
51,192,6669,128,0,7772:0:0:0:0:
256,192,6932,128,0,7195:0:0:0:0:
448,192,7195,128,0,7772:0:0:0:0:
320,192,7772,128,0,8293:0:0:0:0:
51,192,8293,128,0,8553:0:0:0:0:
153,192,8293,128,0,9409:0:0:0:0:
256,192,8553,128,0,8814:0:0:0:0:
448,192,8814,128,0,9409:0:0:0:0:
64,192,9409,128,0,9665:0:0:0:0:
153,192,9665,128,0,9921:0:0:0:0:
256,192,9921,128,0,11027:0:0:0:0:
460,192,9921,128,0,10181:0:0:0:0:
51,192,10181,128,0,10442:0:0:0:0:
153,192,10442,128,0,11027:0:0:0:0:
460,192,11027,128,0,11548:0:0:0:0:
256,192,11548,128,0,11808:0:0:0:0:
153,192,11548,128,0,12852:0:0:0:0:
64,192,11808,128,0,12069:0:0:0:0:
460,192,12069,128,0,12852:0:0:0:0:
256,192,13191,128,0,14318:0:0:0:0:
51,192,13191,128,0,13451:0:0:0:0:
153,192,13451,128,0,13712:0:0:0:0:
448,192,13712,128,0,14318:0:0:0:0:
153,192,14318,128,0,14707:0:0:0:0:
256,192,14837,128,0,15098:0:0:0:0:
460,192,14837,128,0,15938:0:0:0:0:
153,192,15098,128,0,15359:0:0:0:0:
51,192,15359,128,0,15938:0:0:0:0:
358,192,15938,128,0,16466:0:0:0:0:
64,192,16466,128,0,16733:0:0:0:0:
153,192,16466,128,0,17572:0:0:0:0:
358,192,16733,128,0,17000:0:0:0:0:
460,192,17000,128,0,17572:0:0:0:0:
256,192,17572,128,0,17860:0:0:0:0:
153,192,17860,128,0,18114:0:0:0:0:
358,192,18114,128,0,18386:0:0:0:0:
51,192,18114,128,0,19477:0:0:0:0:
192,192,18386,128,0,18659:0:0:0:0:
460,192,18659,128,0,19477:0:0:0:0:
153,192,19920,128,0,20183:0:0:0:0:
51,192,19920,128,0,21039:0:0:0:0:
256,192,20183,128,0,20446:0:0:0:0:
448,192,20446,128,0,21039:0:0:0:0:
320,192,21039,128,0,21551:0:0:0:0:
51,192,21551,128,0,21823:0:0:0:0:
153,192,21551,128,0,22647:0:0:0:0:
256,192,21823,128,0,22096:0:0:0:0:
448,192,22096,128,0,22647:0:0:0:0:
64,192,22647,128,0,22932:0:0:0:0:
153,192,22932,128,0,23195:0:0:0:0:
460,192,23195,128,0,23457:0:0:0:0:
256,192,23195,128,0,24313:0:0:0:0:
51,192,23457,128,0,23719:0:0:0:0:
153,192,23719,128,0,24313:0:0:0:0:
460,192,24313,128,0,24830:0:0:0:0:
64,192,24830,128,0,25095:0:0:0:0:
153,192,24830,128,0,26157:0:0:0:0:
358,192,25095,128,0,25360:0:0:0:0:
460,192,25360,128,0,26157:0:0:0:0:
51,192,26462,128,0,26726:0:0:0:0:
256,192,26462,128,0,27592:0:0:0:0:
153,192,26726,128,0,26990:0:0:0:0:
448,192,26990,128,0,27592:0:0:0:0:
153,192,27592,128,0,28096:0:0:0:0:
256,192,28096,128,0,28359:0:0:0:0:
460,192,28096,128,0,29209:0:0:0:0:
153,192,28359,128,0,28622:0:0:0:0:
51,192,28622,128,0,29209:0:0:0:0:
358,192,29209,128,0,29733:0:0:0:0:
64,192,29733,128,0,30013:0:0:0:0:
153,192,29733,128,0,33085:0:0:0:0:
358,192,30013,128,0,30293:0:0:0:0:
460,192,30293,128,0,30854:0:0:0:0:
256,192,31539,128,0,31848:0:0:0:0:
64,192,31848,128,0,32157:0:0:0:0:
448,192,32157,128,0,33085:0:0:0:0:
358,192,33437,128,0,34511:0:0:0:0:
51,192,33437,128,0,33702:0:0:0:0:
153,192,33702,128,0,33967:0:0:0:0:
64,192,33967,128,0,34233:0:0:0:0:
460,192,34233,128,0,34511:0:0:0:0:
51,192,34511,128,0,34649:0:0:0:0:
153,192,34511,1,0,0:0:0:0:
358,192,34788,128,0,34927:0:0:0:0:
460,192,34788,1,0,0:0:0:0:
153,192,35066,128,0,35201:0:0:0:0:
64,192,35066,1,0,0:0:0:0:
358,192,35336,1,0,0:0:0:0:
448,192,35336,128,0,35471:0:0:0:0:
64,192,35606,128,0,35876:0:0:0:0:
192,192,35606,128,0,36417:0:0:0:0:
320,192,35876,128,0,36147:0:0:0:0:
51,192,36147,128,0,36417:0:0:0:0:
358,192,36417,128,0,36711:0:0:0:0:
51,192,36711,128,0,36978:0:0:0:0:
460,192,36711,128,0,37782:0:0:0:0:
153,192,36978,128,0,37246:0:0:0:0:
64,192,37246,128,0,37514:0:0:0:0:
320,192,37514,128,0,37782:0:0:0:0:
192,192,37782,1,0,0:0:0:0:
64,192,37782,128,0,37916:0:0:0:0:
320,192,38050,128,0,38184:0:0:0:0:
448,192,38050,1,0,0:0:0:0:
192,192,38340,128,0,38475:0:0:0:0:
64,192,38340,1,0,0:0:0:0:
320,192,38610,1,0,0:0:0:0:
448,192,38610,128,0,38745:0:0:0:0:
64,192,38880,128,0,39150:0:0:0:0:
192,192,38880,128,0,39691:0:0:0:0:
448,192,39150,128,0,39421:0:0:0:0:
320,192,39421,128,0,39691:0:0:0:0:
448,192,39691,128,0,39980:0:0:0:0:
358,192,39980,128,0,41062:0:0:0:0:
51,192,39980,128,0,40251:0:0:0:0:
153,192,40251,128,0,40522:0:0:0:0:
64,192,40522,128,0,40787:0:0:0:0:
460,192,40787,128,0,41062:0:0:0:0:
51,192,41062,1,0,0:0:0:0:
153,192,41062,128,0,41200:0:0:0:0:
320,192,41339,128,0,41478:0:0:0:0:
460,192,41339,1,0,0:0:0:0:
192,192,41617,1,0,0:0:0:0:
64,192,41617,128,0,41752:0:0:0:0:
358,192,41887,1,0,0:0:0:0:
460,192,41887,128,0,42022:0:0:0:0:
51,192,42157,128,0,42427:0:0:0:0:
192,192,42157,128,0,42968:0:0:0:0:
448,192,42427,128,0,42698:0:0:0:0:
320,192,42698,1,0,0:0:0:0:
51,192,42698,128,0,42968:0:0:0:0:
448,192,42968,128,0,43255:0:0:0:0:
320,192,43255,128,0,45066:0:0:0:0:
64,192,43255,128,0,43527:0:0:0:0:
192,192,43527,128,0,43824:0:0:0:0:
448,192,43824,128,0,44099:0:0:0:0:
51,192,44099,128,0,44422:0:0:0:0:
448,192,44422,128,0,44728:0:0:0:0:
192,192,44728,128,0,45066:0:0:0:0:
64,192,45066,128,0,45306:0:0:0:0:
448,192,45066,1,0,0:0:0:0:
153,192,45306,128,0,45500:0:0:0:0:
256,192,45500,128,0,45712:0:0:0:0:
153,192,45712,128,0,45922:0:0:0:0:
256,192,45922,128,0,46151:0:0:0:0:
448,192,46151,128,0,46384:0:0:0:0:
192,192,46384,1,0,0:0:0:0:
51,192,46384,128,0,46571:0:0:0:0:
320,192,46571,128,0,46755:0:0:0:0:
192,192,46755,128,0,47024:0:0:0:0:
448,192,46934,128,0,47024:0:0:0:0:
