osu file format v14

[General]
AudioFilename: Super Mario 64 Staff Roll.mp3
AudioLeadIn: 1000
PreviewTime: 72946
Countdown: 0
SampleSet: Normal
StackLeniency: 0.7
Mode: 0
LetterboxInBreaks: 1
WidescreenStoryboard: 1

[Editor]
Bookmarks: 5147,18700,36771,54858,72946,91025,109095,127174,145261,163335,181421,200733
DistanceSpacing: 1.2
BeatDivisor: 4
GridSize: 4
TimelineZoom: 1.5

[Metadata]
Title:Super Mario 64 Staff Roll
TitleUnicode:Super Mario 64 Staff Roll
Artist:Koji Kondo
ArtistUnicode:近藤 浩治
Creator:Chupalika
Version:Normal
Source:Super Mario 64
Tags:nintendo ending credits bowser toad peach cake
BeatmapID:293902
BeatmapSetID:91396

[Difficulty]
HPDrainRate:4
CircleSize:3.5
OverallDifficulty:4
ApproachRate:5
SliderMultiplier:1.5
SliderTickRate:1

[Events]
//Background and Video events
0,0,"background.jpg",0,0
Video,0,"Super Mario 64 Staff Roll.avi"
//Break Periods
2,55058,69485
2,127374,141800
//Storyboard Layer 0 (Background)
//Storyboard Layer 1 (Fail)
//Storyboard Layer 2 (Pass)
//Storyboard Layer 3 (Foreground)
//Storyboard Sound Samples
Sample,201804,3,"Thank you so much a-for-to playing my game.mp3",100

[TimingPoints]
630,564.705882352941,4,1,1,20,1,0
630,-100,4,1,1,20,0,0
17571,-100,4,1,1,25,0,0
18700,-100,4,1,1,30,0,0
26041,-100,4,1,1,20,0,0
27735,-100,4,1,1,30,0,0
35641,-100,4,1,1,20,0,0
36771,565.237870937353,4,1,1,30,1,0
44684,-100,4,1,1,20,0,0
45814,-100,4,1,1,30,0,0
72946,564.971751412429,4,1,1,40,1,1
91025,564.705882352941,4,1,1,30,1,0
98930,-100,4,1,1,20,0,0
100060,-100,4,1,1,30,0,0
107119,-100,4,1,1,15,0,0
107966,-100,4,1,1,20,0,0
108530,-100,4,1,1,25,0,0
109095,564.971751412429,4,1,1,30,1,0
109095,-100,4,1,1,30,0,0
117004,-100,4,1,1,20,0,0
118134,-100,4,1,1,30,0,0
127174,565.237870937353,4,1,1,50,1,0
145261,564.971751412429,4,1,1,40,1,1
161080,563.90977443609,4,1,1,40,1,0
162771,-100,4,1,1,30,0,0
163335,565.184626978146,4,1,1,40,1,1
163335,-100,4,1,1,40,0,1
169552,-100,4,1,1,40,0,1
172377,-100,4,1,1,40,0,1
181420,568.720379146919,4,1,1,40,1,0
181420,-100,4,1,1,40,0,0
182835,-100,4,1,1,30,0,0
183684,571.428571428571,4,1,1,30,1,0
183684,-100,4,1,1,30,0,0
185969,560.747663551402,4,1,1,30,1,0
185969,-100,4,1,1,30,0,0
187370,-100,4,1,1,25,0,0
188211,582.52427184466,4,1,1,25,1,0
188211,-100,4,1,1,25,0,0
190541,618.556701030928,4,1,1,25,1,0
192087,-100,4,1,1,20,0,0
193015,705.882352941176,4,1,1,20,1,0
193015,-100,4,1,1,20,0,0
194426,952.380952380952,4,1,1,20,1,0
196330,1100.91743119266,4,1,1,100,1,0

[Colours]
Combo1 : 0,0,255
Combo2 : 255,0,0
Combo3 : 255,255,0
Combo4 : 0,255,0

[HitObjects]
256,192,5147,5,0,0:0:0:0:
64,192,6559,5,0,0:0:0:0:
112,136,6841,2,0,P|124:124|144:112,1,37.5
248,80,7406,1,0,0:0:0:0:
448,192,8818,5,0,0:0:0:0:
400,248,9100,2,0,P|388:260|368:272,1,37.5
264,304,9665,1,0,0:0:0:0:
64,192,11077,5,0,0:0:0:0:
136,192,11359,2,0,L|176:192,1,37.5
288,192,11924,1,0,0:0:0:0:
256,32,13335,5,0,0:0:0:0:
256,32,13618,2,0,L|296:32,1,37.5
352,192,14182,1,0,0:0:0:0:
135,243,15594,5,0,0:0:0:0:
88,184,15877,2,0,P|80:168|80:144,1,37.5000014305115
152,64,16441,1,0,0:0:0:0:
424,192,17571,5,2,0:2:0:0:
424,192,17853,2,0,L|312:192,1,112.5,2|2,0:2|0:2,0:0:0:0:
224,296,18700,5,4,0:2:0:0:
224,296,19265,2,0,P|192:272|176:240,1,75,2|0,0:2|0:0,0:0:0:0:
100,192,19829,2,0,B|116:144|156:144|140:160|204:160|220:112,1,150,0|2,0:0|0:2,0:0:0:0:
256,40,20677,1,0,0:0:0:0:
304,116,20959,2,0,B|318:159|382:159|366:143|406:143|422:191,1,150,0|2,0:0|0:2,0:0:0:0:
416,280,21806,1,0,0:0:0:0:
344,332,22088,2,0,P|276:364|200:364,1,150,0|2,0:0|0:2,0:0:0:0:
32,304,23218,6,0,B|56:280|56:280|80:304|80:304|120:280|160:288,1,150,0|2,0:0|0:2,0:0:0:0:
204,208,24065,1,0,0:0:0:0:
204,208,24347,2,0,B|228:184|228:184|252:208|252:208|292:184|332:192,1,150,0|2,0:0|0:2,0:0:0:0:
416,224,25194,1,0,0:2:0:0:
464,300,25477,2,0,P|404:316|340:264,2,150,0|2|0,0:0|0:2|0:0,0:0:0:0:
372,144,27171,1,2,0:2:0:0:
208,72,27735,6,0,P|152:120|144:192,1,150,0|2,0:2|0:2,0:2:0:0:
188,272,28582,1,0,0:2:0:0:
188,272,28865,2,0,P|252:300|324:272,1,150,0|2,0:2|0:2,0:2:0:0:
367,192,29712,1,0,0:0:0:0:
367,192,29994,2,0,P|359:119|304:72,2,150,0|2|0,0:2|0:2|0:2,0:2:0:0:
248,324,31688,6,0,B|212:340|176:324,1,75,2|0,0:2|0:2,0:2:0:0:
92,292,32253,2,0,P|64:228|92:156,1,150,0|2,0:2|0:2,0:2:0:0:
160,100,33100,1,0,0:0:0:0:
208,176,33382,2,0,P|244:188|280:176,1,75
248,92,33947,2,0,P|283:81|318:93,1,75,2|0,0:2|0:0,0:0:0:0:
392,144,34512,6,0,B|440:176|440:176|392:208|392:208|440:240|440:240|392:272|392:272|440:304|440:304|440:320,1,300
264,352,36206,1,2,0:2:0:0:
104,272,36771,6,0,P|56:224|56:144,1,150,4|2,0:2|0:2,0:0:0:0:
112,76,37618,1,0,0:0:0:0:
196,108,37901,2,0,B|232:124|256:152|256:152|280:124|316:108,1,150,0|2,0:0|0:2,0:0:0:0:
400,140,38749,1,0,0:0:0:0:
456,212,39031,6,0,P|484:276|452:344,1,150,0|2,0:2|0:2,0:2:0:0:
396,276,39879,1,0,0:0:0:0:
336,344,40162,2,0,P|308:280|340:212,1,150,0|2,0:2|0:2,0:2:0:0:
460,84,41292,6,0,B|412:116|412:116|372:84|324:100,1,150,0|2,0:0|0:2,0:0:0:0:
276,172,42140,1,0,0:0:0:0:
276,172,42423,2,0,B|228:204|228:204|188:172|140:188,1,150,0|2,0:0|0:2,0:0:0:0:
60,224,43271,1,0,0:2:0:0:
96,304,43553,6,0,B|128:368|208:352|208:352|192:288|256:256|320:288|304:352|304:352|384:368|416:304,1,450,0|2,0:0|0:2,0:0:0:0:
352,160,45814,6,0,B|352:120|368:88|368:88|328:96|292:80,1,150,0|2,0:0|0:2,0:2:0:0:
204,80,46662,1,0,0:2:0:0:
204,80,46945,2,0,B|169:95|129:87|129:87|145:119|145:159,1,150,0|2,0:0|0:2,0:2:0:0:
120,336,48075,6,0,B|160:352|192:320|224:288|272:304,2,150,0|2|0,0:0|0:2|0:0,0:0:0:0:
228,192,49771,6,0,P|264:192|300:180,1,75,2|0,0:2|0:2,0:2:0:0:
376,132,50336,1,2,0:2:0:0:
232,24,50901,1,2,0:2:0:0:
412,48,51467,1,2,0:2:0:0:
444,316,52315,1,2,0:2:0:0:
444,316,52597,1,2,0:2:0:0:
256,192,53162,12,4,54858,0:2:0:0:
256,192,70685,12,0,72380,0:2:0:0:
48,192,72946,22,0,L|104:128,1,75,4|0,0:2|0:0,0:0:0:0:
120,224,73510,2,0,L|169:167,1,75,2|0,0:2|0:0,0:0:0:0:
224,96,74075,2,0,B|296:136|368:96,1,150,0|2,0:0|0:2,0:0:0:0:
432,160,74923,5,0,0:2:0:0:
432,160,75205,2,0,B|392:232|432:304,1,150,0|2,0:0|0:2,0:0:0:0:
360,352,76053,1,0,0:0:0:0:
360,352,76335,1,0,0:0:0:0:
184,320,76900,5,2,0:2:0:0:
120,256,77183,1,0,0:0:0:0:
88,176,77465,2,0,P|80:136|88:104,1,75
168,144,78030,2,0,P|176:104|168:72,1,75,2|0,0:2|0:0,0:0:0:0:
256,96,78595,2,0,P|320:120|400:120,1,150,0|2,0:0|0:2,0:0:0:0:
456,192,79443,5,0,0:0:0:0:
456,192,79725,2,0,B|424:224|424:224|384:200|320:200,1,150,0|2,0:0|0:2,0:0:0:0:
264,264,80573,1,0,0:0:0:0:
328,328,80855,2,0,B|389:329|429:305|429:305|461:337,1,150,0|2,0:0|0:2,0:0:0:0:
360,192,81985,6,0,P|336:168|328:128,1,75,4|0,0:2|0:0,0:0:0:0:
256,72,82550,1,2,0:2:0:0:
256,72,82833,1,0,0:0:0:0:
192,136,83115,2,0,B|168:220|76:208,1,150,0|2,0:0|0:2,0:0:0:0:
72,296,83962,5,0,0:0:0:0:
72,296,84245,2,0,B|136:280|180:320|180:320|208:300,1,150,0|2,0:0|0:2,0:0:0:0:
256,224,85092,1,0,0:0:0:0:
256,224,85375,2,0,P|296:284|280:356,1,150,0|2,0:0|0:2,0:0:0:0:
279,356,86505,5,0,0:0:0:0:
364,332,86787,1,0,0:0:0:0:
436,276,87070,2,0,P|460:248|464:212,1,75,2|0,0:2|0:0,0:0:0:0:
460,120,87635,2,0,B|408:124|376:160|372:204|372:204|352:204,1,150,0|2,0:0|0:2,0:0:0:0:
264,208,88482,1,0,0:0:0:0:
172,208,88765,6,0,L|96:208,1,75,2|2,0:2|0:2,0:0:0:0:
148,132,89330,2,0,L|224:132,1,75,2|2,0:2|0:2,0:0:0:0:
176,56,89895,2,0,L|24:56,1,150,2|0,0:2|0:0,0:0:0:0:
32,236,91025,5,4,0:2:0:0:
32,236,91589,2,0,L|92:284,1,75,2|0,0:2|0:0,0:0:0:0:
164,336,92154,2,0,B|184:368|256:368|232:320|300:320,1,150,0|2,0:0|0:2,0:0:0:0:
388,320,93001,1,0,0:0:0:0:
388,320,93283,2,0,P|433:263|388:216,2,150,0|2|0,0:0|0:2|0:0,0:0:0:0:
244,212,94977,6,0,P|208:232|196:264,1,75,2|0,0:2|0:0,0:0:0:0:
180,352,95542,2,0,P|100:332|36:352,1,150,0|2,0:0|0:2,0:0:0:0:
32,260,96389,1,0,0:0:0:0:
32,260,96672,2,0,P|52:180|32:116,1,150,0|2,0:0|0:2,0:0:0:0:
120,136,97519,1,0,0:0:0:0:
208,120,97801,1,0,0:0:0:0:
384,96,98366,5,2,0:2:0:0:
320,160,98648,1,0,0:0:0:0:
336,248,98930,2,0,P|364:316|436:344,1,150,0|2,0:0|0:2,0:0:0:0:
392,168,100060,6,0,P|312:152|256:192,1,150,0|2,0:0|0:2,0:0:0:0:
224,272,100907,1,0,0:0:0:0:
224,272,101189,2,0,P|161:309|90:292,1,150,0|2,0:0|0:2,0:0:0:0:
32,224,102036,1,0,0:0:0:0:
64,140,102319,2,0,P|126:102|197:119,2,150,0|2|0,0:0|0:2|0:0,0:0:0:0:
160,292,104013,6,0,L|144:216,1,75,2|0,0:2|0:0,0:0:0:0:
144,218,104577,1,0,0:0:0:0:
320,256,105142,2,0,P|360:256|392:240,1,75,2|0,0:2|0:0,0:0:0:0:
452,172,105707,2,0,P|452:132|440:96,4,75,0|0|2|0|0,0:0|0:0|0:2|0:0|0:0,0:0:0:0:
256,192,107119,12,4,109095,0:2:0:0:
184,352,109659,5,2,0:2:0:0:
184,352,109942,1,0,0:0:0:0:
184,352,110224,2,0,P|260:368|336:352,1,150,0|2,0:0|0:2,0:0:0:0:
384,280,111072,1,0,0:0:0:0:
384,280,111354,2,0,P|400:204|384:128,2,150,0|2|0,0:0|0:2|0:0,0:0:0:0:
220,204,113049,2,0,L|144:204,1,75,2|0,0:2|0:0,0:0:0:0:
56,204,113614,1,4,0:2:0:0:
104,32,114179,6,0,P|172:60|240:32,1,150,2|0,0:2|0:0,0:0:0:0:
324,64,115027,1,0,0:0:0:0:
384,132,115309,1,2,0:2:0:0:
396,220,115592,1,0,0:0:0:0:
380,308,115874,2,0,B|360:348|280:348|256:296|256:296|232:348|152:348|132:308,1,300
92,228,117287,1,0,0:0:0:0:
96,140,117569,2,0,P|104:104|136:72,1,75,2|0,0:2|0:0,0:0:0:0:
196,136,118134,6,0,B|228:116|228:80|228:80|312:80,1,150,0|2,0:0|0:2,0:0:0:0:
288,168,118982,1,0,0:0:0:0:
288,168,119264,2,0,B|370:168|370:168|370:204|402:224,1,150,0|2,0:0|0:2,0:0:0:0:
468,284,120111,1,0,0:0:0:0:
404,348,120394,2,0,P|336:376|268:348,2,150,0|2|0,0:0|0:2|0:0,0:0:0:0:
292,208,122089,6,0,P|256:196|220:208,1,75,2|0,0:2|0:0,0:0:0:0:
156,268,122654,1,2,0:2:0:0:
0,177,123219,1,2,0:2:0:0:
0,357,123784,1,2,0:2:0:0:
140,128,124631,1,2,0:2:0:0:
140,128,124914,1,2,0:2:0:0:
256,192,125479,12,4,127174,0:2:0:0:
256,192,143000,12,0,144696,0:0:0:0:
92,144,145261,6,0,P|108:112|140:88,1,75,4|0,0:2|0:0,0:0:0:0:
220,52,145825,2,0,P|256:60|292:52,1,75,2|0,0:2|0:0,0:0:0:0:
372,92,146390,2,0,P|419:148|427:224,1,150,0|2,0:0|0:2,0:0:0:0:
388,304,147238,5,0,0:0:0:0:
324,240,147520,2,0,P|256:268|188:240,1,150,0|2,0:0|0:2,0:0:0:0:
124,304,148368,1,0,0:0:0:0:
84,222,148650,2,0,P|92:148|140:92,1,150,0|2,0:0|0:2,0:0:0:0:
200,160,149498,5,0,0:0:0:0:
244,84,149780,2,0,P|276:104|312:104,1,75
388,56,150345,1,2,0:2:0:0:
452,120,150628,1,0,0:0:0:0:
372,160,150910,2,0,P|344:228|372:296,1,150,0|2,0:0|0:2,0:0:0:0:
288,332,151758,5,0,0:0:0:0:
200,352,152040,2,0,P|124:360|64:320,1,150,0|2,0:0|0:2,0:0:0:0:
32,236,152888,1,0,0:0:0:0:
32,148,153170,2,0,P|40:84|104:28,2,150,0|2|4,0:0|0:2|0:2,0:0:0:0:
64,321,154865,5,2,0:2:0:0:
148,288,155148,1,0,0:0:0:0:
180,204,155430,2,0,P|228:152|304:152,1,150,0|2,0:0|0:2,0:0:0:0:
384,192,156277,5,0,0:0:0:0:
352,276,156560,2,0,P|304:328|228:328,1,150,0|2,0:0|0:2,0:0:0:0:
148,292,157407,1,0,0:0:0:0:
76,348,157690,2,0,B|56:316|56:316|56:240|56:240|76:208,1,150,0|2,0:0|0:2,0:0:0:0:
188,68,158820,6,0,P|256:88|332:68,1,150,0|2,0:0|0:2,0:0:0:0:
404,120,159667,1,0,0:0:0:0:
404,120,159950,2,0,P|384:191|404:262,1,150,0|2,0:0|0:2,0:0:0:0:
332,316,160797,1,0,0:0:0:0:
256,264,161080,6,0,P|240:296|244:344,4,75,4|0|2|0|2,0:2|0:0|0:2|0:0|0:2,0:0:0:0:
100,352,162771,1,0,0:0:0:0:
20,192,163335,6,0,P|20:152|36:120,1,75,4|0,0:2|0:0,0:0:0:0:
88,48,163900,2,0,P|124:56|160:48,1,75,8|0,0:2|0:0,0:0:0:0:
248,32,164465,2,0,B|312:72|312:72|348:56|384:72,1,150,0|8,0:0|0:2,0:0:0:0:
460,124,165313,5,0,0:0:0:0:
472,212,165595,2,0,P|424:276|356:288,2,150,0|8|0,0:0|0:2|0:0,0:0:0:0:
296,256,167291,5,8,0:2:0:0:
220,304,167573,1,0,0:0:0:0:
148,252,167856,2,0,P|128:220|128:184,1,75
196,124,168421,2,0,P|216:156|216:192,1,75,8|0,0:2|0:0,0:0:0:0:
296,152,168986,2,0,P|368:120|432:152,1,150,0|8,0:0|0:2,0:0:0:0:
364,212,169834,5,0,0:0:0:0:
364,212,170117,2,0,P|296:244|228:212,1,150,0|8,0:0|0:2,0:0:0:0:
296,152,170964,1,0,0:0:0:0:
296,152,171247,2,0,P|228:124|160:156,1,150,0|8,0:0|0:2,0:0:0:0:
56,300,172377,6,0,B|84:328|84:328|120:328,1,75,4|0,0:2|0:0,0:0:0:0:
128,236,172943,2,0,B|164:236|164:236|192:264,1,75,8|0,0:2|0:0,0:0:0:0:
248,336,173508,2,0,B|316:356|316:356|392:336,1,150,0|8,0:0|0:2,0:0:0:0:
456,272,174356,5,0,0:0:0:0:
456,272,174638,2,0,L|472:196,1,75
384,216,175203,2,0,L|400:140,1,75,8|0,0:2|0:0,0:0:0:0:
327,90,175769,2,0,L|312:164,1,75
240,108,176334,2,0,L|225:182,1,75,8|0,0:2|0:0,0:0:0:0:
200,268,176899,6,0,P|168:288|128:288,1,75,4|0,0:2|0:0,0:0:0:0:
72,220,177464,2,0,P|104:200|144:200,1,75,8|0,0:2|0:0,0:0:0:0:
200,268,178029,2,0,P|268:288|344:268,1,150,0|8,0:0|0:2,0:0:0:0:
392,192,178877,1,0,0:0:0:0:
384,104,179160,5,8,0:2:0:0:
304,144,179442,1,8,0:2:0:0:
256,68,179725,1,8,0:2:0:0:
208,144,180007,1,8,0:2:0:0:
128,104,180290,1,8,0:2:0:0:
256,192,180573,12,4,181420,0:2:0:0:
112,128,182841,5,0,0:0:0:0:
112,128,183126,2,0,L|152:128,1,37.5000014305115
256,128,183684,1,0,0:0:0:0:
408,288,185112,5,0,0:0:0:0:
408,288,185398,2,0,L|368:288,1,37.5000014305115
256,288,185969,1,0,0:0:0:0:
256,32,187370,5,0,0:0:0:0:
256,32,187651,2,0,L|256:72,1,37.5000014305115
256,176,188211,1,0,0:0:0:0:
256,352,189667,5,0,0:0:0:0:
256,352,189958,2,0,L|256:312,1,37.5000014305115
256,208,190541,1,0,0:0:0:0:
64,192,192087,5,0,0:0:0:0:
64,192,192396,2,0,L|104:192,1,37.5000014305115
256,192,193015,12,0,194073,0:0:0:0:
256,192,194426,12,0,195854,0:0:0:0:
256,192,196330,12,4,200733,0:2:0:0:
