osu file format v14

[General]
AudioFilename: Underwater.mp3
AudioLeadIn: 0
PreviewTime: 4258
Countdown: 0
SampleSet: Soft
StackLeniency: 0.7
Mode: 0
LetterboxInBreaks: 0
WidescreenStoryboard: 1

[Editor]
DistanceSpacing: 1.2
BeatDivisor: 4
GridSize: 8
TimelineZoom: 1

[Metadata]
Title:Suichuu BGM
TitleUnicode:水中BGM
Artist:Koji Kondo
ArtistUnicode:近藤浩治
Creator:MoodyRPG
Version:Normal
Source:スーパーマリオコレクション
Tags:super mario bros 3 all stars smas smb3 underwater theme snes super nintendo famicom sfc daxmasterix video game instrumental スーパーマリオブラザーズ3
BeatmapID:3526459
BeatmapSetID:1725517

[Difficulty]
HPDrainRate:5
CircleSize:4
OverallDifficulty:5
ApproachRate:5
SliderMultiplier:1.2
SliderTickRate:1

[Events]
//Background and Video events
0,0,"Underwater.png",0,0
//Break Periods
//Storyboard Layer 0 (Background)
//Storyboard Layer 1 (Fail)
//Storyboard Layer 2 (Pass)
//Storyboard Layer 3 (Foreground)
//Storyboard Layer 4 (Overlay)
//Storyboard Sound Samples

[TimingPoints]
4259,534.283170080142,4,2,1,50,1,0

[Colours]
Combo1 : 0,255,128
Combo2 : 0,0,255
Combo3 : 0,255,255
Combo4 : 255,128,192

[HitObjects]
438,27,4259,6,0,L|504:32,2,60,0|8|10,0:0|0:0|0:0,0:0:0:0:
387,78,5060,2,0,P|377:136|406:195,2,120,8|2|8,0:0|0:0|0:0,0:0:0:0:
333,30,6396,1,2,0:0:0:0:
272,68,6663,2,0,L|262:140,1,60,8|8,0:0|0:0,0:0:0:0:
192,138,7197,2,0,P|130:123|79:168,2,120,8|2|8,0:0|0:0|0:0,0:0:0:0:
215,206,8533,5,0,0:0:0:0:
188,273,8800,2,0,L|109:287,1,60,8|10,0:0|0:0,0:0:0:0:
142,354,9334,2,0,L|273:334,1,120,8|2,0:0|0:0,0:0:0:0:
402,357,10403,1,8,0:0:0:0:
402,357,10670,5,2,0:0:0:0:
426,289,10937,2,0,L|499:302,2,60,8|8|8,0:0|0:0|0:0,0:0:0:0:
370,156,12006,2,0,L|309:166,2,60,8|8|8,0:0|0:0|0:0,0:0:0:0:
403,92,12807,5,0,0:0:0:0:
345,49,13074,2,0,P|311:46|274:33,1,60,8|10,0:0|0:2,0:0:0:0:
215,27,13608,2,0,P|147:22|91:43,2,120,8|2|8,0:0|0:0|0:0,0:0:0:0:
237,95,14944,2,0,L|225:171,1,60,2|8,0:0|0:0,0:0:0:0:
280,202,15478,1,8,0:0:0:0:
341,164,15746,2,0,B|422:156|422:156|456:124,2,120,0|2|8,0:0|0:0|0:0,0:0:0:0:
345,235,17081,6,0,P|346:266|361:303,2,60,0|8|10,0:0|0:0|0:0,0:0:0:0:
275,217,17883,2,0,B|194:225|194:225|160:257,1,120,8|2,0:0|0:0,0:0:0:0:
34,310,18951,1,8,0:0:0:0:
23,238,19218,5,2,0:0:0:0:
57,174,19486,2,0,L|49:104,2,60,8|8|8,0:0|0:0|0:0,0:0:0:0:
164,78,20554,2,0,L|169:14,2,60,8|8|8,0:0|0:0|0:0,0:0:0:0:
193,143,21356,6,0,P|223:138|260:149,1,60,0|8,0:0|0:0,0:0:0:0:
294,202,21890,1,10,0:0:0:0:
240,257,22157,2,0,L|225:385,2,120,0|2|0,0:0|0:0|0:0,0:0:0:0:
311,248,23493,5,2,0:0:0:0:
361,298,23760,2,0,P|394:308|421:307,1,60,8|10,0:0|0:0,0:0:0:0:
455,244,24294,2,0,B|470:192|470:192|447:130|447:130|460:63,1,180,8|0,0:0|0:0,0:0:0:0:
319,32,25630,6,0,L|246:28,2,60,0|8|10,0:0|0:0|0:0,0:0:0:0:
344,99,26431,2,0,B|341:147|341:147|301:160|295:216,1,120,0|2,0:0|0:0,0:0:0:0:
400,301,27500,1,0,0:0:0:0:
371,367,27767,2,0,B|307:379|296:315|211:315|204:379|129:371,2,240,2|2|0,0:0|0:0|0:0,0:0:0:0:
400,301,30171,6,0,L|473:294,1,60,0|10,0:0|0:0,0:0:0:0:
485,227,30706,2,0,P|501:166|473:97,2,120,8|2|0,0:0|0:0|0:0,0:0:0:0:
411,233,32041,5,2,0:0:0:0:
350,193,32308,2,0,P|315:178|282:174,1,60,8|8,0:0|0:0,0:0:0:0:
223,156,32843,2,0,P|229:99|274:54,2,120,0|2|0,0:0|0:0|0:0,0:0:0:0:
159,191,34178,5,0,0:0:0:0:
98,152,34445,2,0,L|92:87,1,60,8|10,0:0|0:0,0:0:0:0:
141,39,34980,2,0,P|93:68|22:43,1,120,8|2,0:0|0:0,0:0:0:0:
21,193,36048,1,0,0:0:0:0:
71,244,36315,5,2,0:0:0:0:
121,295,36583,2,0,L|132:363,2,60,8|8|8,0:0|0:0|0:0,0:0:0:0:
138,151,37651,2,0,L|129:87,2,60,8|8|8,0:0|0:0|0:0,0:0:0:0:
173,213,38453,5,0,0:0:0:0:
224,163,38720,2,0,P|253:151|289:154,1,60,8|10,0:0|0:0,0:0:0:0:
348,175,39254,2,0,L|359:302,2,120,8|2|0,0:0|0:0|0:0,0:0:0:0:
383,112,40590,1,2,0:0:0:0:
453,125,40857,2,0,P|462:150|464:184,1,60,8|8,0:0|0:0,0:0:0:0:
451,254,41391,2,0,P|435:316|460:378,2,120,0|2|0,0:0|0:0|0:0,0:0:0:0:
399,203,42727,5,0,0:0:0:0:
327,209,42994,2,0,L|259:217,1,60,8|10,0:0|0:0,0:0:0:0:
196,228,43528,2,0,P|167:285|189:342,1,120,8|2,0:0|0:0,0:0:0:0:
39,346,44597,1,0,0:0:0:0:
57,276,44864,5,2,0:0:0:0:
74,206,45131,2,0,L|58:136,2,60,8|8|8,0:0|0:0|0:0,0:0:0:0:
202,269,46200,2,0,L|194:343,2,60,8|8|8,0:0|0:0|0:0,0:0:0:0:
268,241,47001,5,0,0:0:0:0:
327,282,47268,2,0,P|358:281|393:296,1,60,8|10,0:0|0:0,0:0:0:0:
448,259,47803,2,0,L|462:123,1,120,0|2,0:0|0:0,0:0:0:0:
362,32,48871,1,0,0:0:0:0:
296,62,49138,6,0,L|234:59,2,60,2|8|10,0:0|0:0|0:0,0:0:0:0:
324,126,49940,2,0,B|302:164|302:164|291:259,1,120,8|0,0:0|0:0,0:0:0:0:
263,305,50741,1,10,0:0:0:0:
191,313,51008,1,8,0:0:0:0:
147,255,51275,6,0,P|114:266|77:265,2,60,0|8|10,0:0|0:0|0:0,0:0:0:0:
160,184,52077,2,0,P|103:170|51:206,2,120,0|2|0,0:0|0:0|0:0,0:0:0:0:
256,192,53413,12,0,55550,0:0:0:0:
