osu file format v14

[General]
AudioFilename: Underwater.mp3
AudioLeadIn: 0
PreviewTime: 4258
Countdown: 0
SampleSet: Soft
StackLeniency: 0.7
Mode: 0
LetterboxInBreaks: 0
WidescreenStoryboard: 0

[Editor]
DistanceSpacing: 1
BeatDivisor: 4
GridSize: 8
TimelineZoom: 1

[Metadata]
Title:Suichuu BGM
TitleUnicode:水中BGM
Artist:Koji Kondo
ArtistUnicode:近藤浩治
Creator:MoodyRPG
Version:Hard
Source:スーパーマリオコレクション
Tags:super mario bros 3 all stars smas smb3 underwater theme snes super nintendo famicom sfc daxmasterix video game instrumental スーパーマリオブラザーズ3
BeatmapID:3526458
BeatmapSetID:1725517

[Difficulty]
HPDrainRate:7
CircleSize:5
OverallDifficulty:7
ApproachRate:7
SliderMultiplier:1.7
SliderTickRate:1

[Events]
//Background and Video events
0,0,"Underwater.png",0,0
//Break Periods
//Storyboard Layer 0 (Background)
//Storyboard Layer 1 (Fail)
//Storyboard Layer 2 (Pass)
//Storyboard Layer 3 (Foreground)
//Storyboard Layer 4 (Overlay)
//Storyboard Sound Samples

[TimingPoints]
4259,534.283170080142,4,2,1,50,1,0

[Colours]
Combo1 : 0,255,128
Combo2 : 0,0,255
Combo3 : 0,255,255
Combo4 : 255,128,192

[HitObjects]
224,356,4259,6,0,B|245:356|256:331|256:331|267:356|292:356,1,85,0|8,0:0|0:0,0:0:0:0:
328,282,4793,1,10,0:0:0:0:
330,197,5060,2,0,B|289:193|253:225|253:225|214:190|171:197,2,170,8|2|8,0:0|0:0|0:0,0:0:0:0:
483,161,6396,2,0,B|455:161|455:161|436:151|436:151|401:151,1,85,2|8,0:0|0:0,0:0:0:0:
330,103,6930,1,8,0:0:0:0:
306,20,7197,2,0,B|354:-3|407:21|407:21|475:21,2,170,8|2|8,0:0|0:0|0:0,0:0:0:0:
230,58,8533,5,0,0:0:0:0:
153,21,8800,2,0,P|113:7|73:21,1,85,8|10,0:0|0:0,0:0:0:0:
41,100,9334,2,0,B|41:169|41:169|55:200|55:200|55:270,2,170,8|2|8,0:0|0:0|0:0,0:0:0:0:
68,25,10670,5,2,0:0:0:0:
121,91,10937,2,0,B|139:100|160:83|160:83|158:111|181:122,1,85,8|8,0:0|0:0,0:0:0:0:
256,151,11471,1,8,0:0:0:0:
389,91,11738,1,2,0:0:0:0:
389,91,12006,2,0,B|370:100|349:83|349:83|351:111|328:122,1,85,8|8,0:0|0:0,0:0:0:0:
256,151,12540,1,8,0:0:0:0:
187,200,12807,6,0,P|150:213|107:199,1,85,0|8,0:0|0:0,0:0:0:0:
49,138,13341,1,10,0:2:0:0:
132,120,13608,2,0,L|81:292,2,170,8|2|8,0:0|0:0|0:0,0:0:0:0:
190,3,14944,2,0,L|209:87,1,85,2|8,0:0|0:0,0:0:0:0:
235,167,15478,1,8,0:0:0:0:
306,121,15746,2,0,B|351:101|387:126|387:126|416:92|470:98,2,170,0|2|8,0:0|0:0|0:0,0:0:0:0:
235,167,17081,5,0,0:0:0:0:
297,223,17348,2,0,P|284:262|299:307,1,85,8|10,0:0|0:0,0:0:0:0:
379,284,17883,2,0,L|211:321,2,170,8|2|8,0:0|0:0|0:0,0:0:0:0:
438,227,19218,5,2,0:0:0:0:
380,163,19486,2,0,P|418:143|459:146,1,85,8|8,0:0|0:0,0:0:0:0:
309,208,20020,1,8,0:0:0:0:
285,45,20287,1,2,0:0:0:0:
285,45,20554,2,0,P|273:85|284:126,1,85,8|8,0:0|0:0,0:0:0:0:
309,208,21088,1,8,0:0:0:0:
250,269,21356,6,0,B|217:290|217:290|169:290,1,85,0|8,0:0|0:0,0:0:0:0:
86,289,21890,1,10,0:0:0:0:
131,216,22157,2,0,P|171:292|132:365,2,170,0|2|0,0:0|0:0|0:0,0:0:0:0:
74,152,23493,2,0,P|33:141|-10:156,2,85,2|8|10,0:0|0:0|0:0,0:0:0:0:
113,76,24294,2,0,B|155:45|194:70|233:96|276:64,1,170,8|0,0:0|0:0,0:0:0:0:
320,136,25096,1,10,0:0:0:0:
276,209,25363,1,8,0:0:0:0:
201,249,25630,6,0,L|111:239,1,85,0|8,0:0|0:0,0:0:0:0:
35,265,26164,1,10,0:0:0:0:
107,309,26431,2,0,B|167:315|167:315|244:323|267:366,2,170,0|2|0,0:0|0:0|0:0,0:0:0:0:
35,265,27767,5,2,0:0:0:0:
35,180,28034,2,0,P|25:141|40:96,1,85,8|8,0:0|0:0,0:0:0:0:
106,48,28568,1,8,0:0:0:0:
173,178,28836,1,2,0:0:0:0:
173,178,29103,2,0,P|183:138|171:98,1,85,8|8,0:0|0:0,0:0:0:0:
106,48,29637,1,8,0:0:0:0:
179,6,29904,6,0,B|213:6|213:6|229:17|229:17|267:17,1,85
284,97,30438,1,10,0:0:0:0:
365,72,30706,2,0,B|392:117|365:155|338:188|371:238,2,170,8|2|0,0:0|0:0|0:0,0:0:0:0:
447,2,32041,2,0,P|461:41|449:82,1,85,2|8,0:0|0:0,0:0:0:0:
482,160,32576,1,8,0:0:0:0:
426,224,32843,2,0,B|422:288|422:288|462:329|454:385,2,170,0|2|0,0:0|0:0|0:0,0:0:0:0:
345,194,34178,6,0,P|304:179|253:197,1,85,0|8,0:0|0:0,0:0:0:0:
205,248,34713,1,10,0:0:0:0:
137,196,34980,2,0,L|154:21,2,170,8|2|0,0:0|0:0|0:0,0:0:0:0:
76,255,36315,5,2,0:0:0:0:
110,332,36583,2,0,P|150:328|198:352,1,85,8|8,0:0|0:0,0:0:0:0:
256,291,37117,1,8,0:0:0:0:
394,333,37384,1,2,0:0:0:0:
394,333,37651,2,0,P|354:329|306:353,1,85,8|8,0:0|0:0,0:0:0:0:
256,291,38185,1,8,0:0:0:0:
296,216,38453,6,0,P|338:220|381:198,1,85,0|8,0:0|0:0,0:0:0:0:
427,134,38987,1,10,0:0:0:0:
478,201,39254,2,0,B|500:243|453:250|453:312|499:328|476:368,2,170,8|2|0,0:0|0:0|0:0,0:0:0:0:
423,58,40590,2,0,P|409:97|420:138,1,85,2|8,0:0|0:0,0:0:0:0:
497,100,41124,1,8,0:0:0:0:
497,100,41391,2,0,L|318:99,2,170,0|2|0,0:0|0:0|0:0,0:0:0:0:
455,173,42727,6,0,B|414:183|414:183|372:172,1,85,0|8,0:0|0:0,0:0:0:0:
313,232,43261,1,10,0:0:0:0:
253,292,43528,2,0,B|214:324|172:300|123:273|83:306,2,170,8|2|0,0:0|0:0|0:0,0:0:0:0:
313,352,44864,5,2,0:0:0:0:
392,321,45131,2,0,P|436:328|467:359,1,85,8|8,0:0|0:0,0:0:0:0:
313,352,45665,1,8,0:0:0:0:
178,259,45933,1,2,0:0:0:0:
178,259,46200,2,0,P|209:287|251:293,1,85,8|8,0:0|0:0,0:0:0:0:
329,259,46734,1,8,0:0:0:0:
341,175,47001,6,0,L|355:83,1,85,0|8,0:0|0:0,0:0:0:0:
369,7,47535,1,10,0:0:0:0:
430,65,47803,2,0,P|356:91|288:35,2,170,0|2|0,0:0|0:0|0:0,0:0:0:0:
459,144,49138,2,0,P|470:187|457:227,1,85,2|8,0:0|0:0,0:0:0:0:
378,253,49673,1,10,0:0:0:0:
335,179,49940,2,0,B|304:157|255:183|208:209|169:175,1,170,8|0,0:0|0:0,0:0:0:0:
154,94,50741,1,10,0:0:0:0:
71,74,51008,1,8,0:0:0:0:
20,142,51275,6,0,P|1:184|12:227,1,85,0|8,0:0|0:0,0:0:0:0:
89,246,51810,1,10,0:0:0:0:
172,274,52077,2,0,B|209:295|223:249|289:249|299:295|336:272,2,170,0|2|0,0:0|0:0|0:0,0:0:0:0:
256,192,53413,12,0,55550,0:0:0:0:
