osu file format v14

[General]
AudioFilename: Underwater.mp3
AudioLeadIn: 0
PreviewTime: 4258
Countdown: 0
SampleSet: Soft
StackLeniency: 0.7
Mode: 0
LetterboxInBreaks: 0
WidescreenStoryboard: 1

[Editor]
DistanceSpacing: 1
BeatDivisor: 4
GridSize: 8
TimelineZoom: 1

[Metadata]
Title:Suichuu BGM
TitleUnicode:水中BGM
Artist:Koji Kondo
ArtistUnicode:近藤浩治
Creator:MoodyRPG
Version:Dax's Easy
Source:スーパーマリオコレクション
Tags:super mario bros 3 all stars smas smb3 underwater theme snes super nintendo famicom sfc daxmasterix video game instrumental スーパーマリオブラザーズ3
BeatmapID:3526457
BeatmapSetID:1725517

[Difficulty]
HPDrainRate:3
CircleSize:3
OverallDifficulty:3
ApproachRate:3
SliderMultiplier:1.2
SliderTickRate:1

[Events]
//Background and Video events
0,0,"Underwater.png",0,0
//Break Periods
//Storyboard Layer 0 (Background)
//Storyboard Layer 1 (Fail)
//Storyboard Layer 2 (Pass)
//Storyboard Layer 3 (Foreground)
//Storyboard Layer 4 (Overlay)
//Storyboard Sound Samples

[TimingPoints]
4259,534.283170080142,4,2,1,50,1,0

[Colours]
Combo1 : 0,255,128
Combo2 : 0,0,255
Combo3 : 0,255,255
Combo4 : 255,128,192

[HitObjects]
197,93,4259,5,8,0:0:0:0:
316,113,4793,1,10,0:0:0:0:
371,89,5060,2,0,P|416:137|446:182,1,120,8|2,0:0|0:0,0:0:0:0:
371,276,6128,1,8,0:0:0:0:
316,252,6396,5,2,0:0:0:0:
197,271,6930,1,8,0:0:0:0:
142,295,7197,2,0,P|97:247|67:202,1,120,8|2,0:0|0:0,0:0:0:0:
141,108,8266,1,8,0:0:0:0:
196,132,8533,5,0,0:0:0:0:
256,28,9067,1,10,0:0:0:0:
311,52,9334,2,0,P|323:108|311:170,1,120,8|2,0:0|0:0,0:0:0:0:
256,275,10403,1,8,0:0:0:0:
201,251,10670,2,0,P|157:202|168:34,1,240,2|0,0:0|0:0,0:0:0:0:
393,117,12807,5,0,0:0:0:0:
471,208,13341,1,10,0:2:0:0:
447,263,13608,2,0,P|396:298|324:292,1,120,8|2,0:0|0:0,0:0:0:0:
298,185,14677,1,8,0:0:0:0:
256,142,14944,5,2,0:0:0:0:
187,240,15478,1,8,0:0:0:0:
173,298,15746,2,0,P|114:297|65:263,1,120,0|2,0:0|0:0,0:0:0:0:
65,143,16814,1,8,0:0:0:0:
119,117,17081,5,0,0:0:0:0:
230,70,17616,1,10,0:0:0:0:
288,88,17883,2,0,P|338:121|371:170,1,120,8|2,0:0|0:0,0:0:0:0:
302,268,18951,1,8,0:0:0:0:
255,305,19218,2,0,P|162:318|28:259,1,240,2|0,0:0|0:0,0:0:0:0:
226,121,21356,6,0,L|170:97,2,60,0|8|10,0:0|0:0|0:0,0:0:0:0:
286,121,22157,2,0,P|345:109|403:73,2,120,0|2|0,0:0|0:0|0:0,0:0:0:0:
256,173,23493,1,2,0:0:0:0:
226,290,24027,1,10,0:0:0:0:
286,290,24294,1,8,0:0:0:0:
226,121,25630,6,0,L|170:145,2,60,0|8|10,0:0|0:0|0:0,0:0:0:0:
286,121,26431,2,0,P|345:133|403:169,2,120,0|2|0,0:0|0:0|0:0,0:0:0:0:
256,173,27767,1,2,0:0:0:0:
376,380,28836,1,2,0:0:0:0:
136,380,29904,5,0,0:0:0:0:
44,303,30438,1,10,0:0:0:0:
14,251,30706,2,0,P|6:195|14:131,1,120,8|2,0:0|0:0,0:0:0:0:
106,55,31774,1,0,0:0:0:0:
164,71,32041,5,2,0:0:0:0:
256,148,32576,1,8,0:0:0:0:
315,159,32843,2,0,P|366:140|414:93,1,120,0|2,0:0|0:0,0:0:0:0:
480,195,33911,1,0,0:0:0:0:
462,252,34178,5,0,0:0:0:0:
359,313,34713,1,10,0:0:0:0:
315,272,34980,2,0,P|259:264|195:272,1,120,8|2,0:0|0:0,0:0:0:0:
98,340,36048,1,0,0:0:0:0:
68,288,36315,2,0,P|114:186|225:135,1,240,2|0,0:0|0:0,0:0:0:0:
456,63,38453,5,0,0:0:0:0:
359,133,38987,1,10,0:0:0:0:
318,89,39254,2,0,P|270:60|208:49,1,120,8|2,0:0|0:0,0:0:0:0:
93,83,40323,1,0,0:0:0:0:
73,139,40590,5,2,0:0:0:0:
188,171,41124,1,8,0:0:0:0:
178,230,41391,2,0,P|136:267|72:285,1,120,0|2,0:0|0:0,0:0:0:0:
168,352,42460,1,0,0:0:0:0:
226,336,42727,5,0,0:0:0:0:
346,336,43261,1,10,0:0:0:0:
404,352,43528,2,0,P|428:300|434:230,1,120,8|2,0:0|0:0,0:0:0:0:
369,138,44597,1,0,0:0:0:0:
380,79,44864,2,0,P|269:40|153:79,1,240,2|0,0:0|0:0,0:0:0:0:
88,222,47001,6,0,L|64:278,2,60,0|8|10,0:0|0:0|0:0,0:0:0:0:
88,162,47803,2,0,P|76:103|40:45,2,120,0|2|0,0:0|0:0|0:0,0:0:0:0:
140,192,49138,1,2,0:0:0:0:
257,162,49673,1,10,0:0:0:0:
257,222,49940,1,8,0:0:0:0:
424,222,51275,6,0,L|400:278,2,60,0|8|10,0:0|0:0|0:0,0:0:0:0:
424,162,52077,2,0,P|412:103|376:45,2,120,0|2|0,0:0|0:0|0:0,0:0:0:0:
256,192,53413,12,0,55550,0:0:0:0:
