osu file format v14

[General]
AudioFilename: audio.mp3
AudioLeadIn: 0
PreviewTime: 474
Countdown: 1
SampleSet: Normal
StackLeniency: 0.7
Mode: 1
LetterboxInBreaks: 0
WidescreenStoryboard: 1

[Editor]
Bookmarks: 14495,28516
DistanceSpacing: 0.8
BeatDivisor: 4
GridSize: 4
TimelineZoom: 1.1

[Metadata]
Title:Special World
TitleUnicode:Special World
Artist:Koji Kondo
ArtistUnicode:Koji Kondo
Creator:Benjamaster
Version:Oni
Source:Super Mario World
Tags:snes super nintendo super mario bros 4 video game instrumental
BeatmapID:1511209
BeatmapSetID:715246

[Difficulty]
HPDrainRate:6
CircleSize:5
OverallDifficulty:5.5
ApproachRate:5
SliderMultiplier:1.4
SliderTickRate:1

[Events]
//Background and Video events
0,0,"background.png",0,0
//Break Periods
//Storyboard Layer 0 (Background)
//Storyboard Layer 1 (Fail)
//Storyboard Layer 2 (Pass)
//Storyboard Layer 3 (Foreground)
//Storyboard Sound Samples

[TimingPoints]
474,585.365853658537,4,1,0,75,1,0
12181,-100,4,1,0,75,0,1
14522,-100,4,1,0,75,0,0
26230,-100,4,1,0,75,0,1
28571,-100,4,1,0,75,0,0
40278,-100,4,1,0,75,0,1
41742,-100,4,1,0,75,0,0

[HitObjects]
256,192,474,5,0,0:0:0:0:
256,192,620,5,0,0:0:0:0:
256,192,766,1,8,0:0:0:0:
256,192,913,1,0,0:0:0:0:
256,192,1059,1,8,0:0:0:0:
256,192,1205,1,8,0:0:0:0:
256,192,1498,1,0,0:0:0:0:
256,192,1644,1,8,0:0:0:0:
256,192,1791,1,0,0:0:0:0:
256,192,1937,1,8,0:0:0:0:
256,192,2083,1,0,0:0:0:0:
256,192,2230,1,0,0:0:0:0:
256,192,2376,1,8,0:0:0:0:
256,192,2522,1,8,0:0:0:0:
256,192,2669,1,8,0:0:0:0:
256,192,2815,1,0,0:0:0:0:
256,192,2961,1,0,0:0:0:0:
256,192,3108,1,8,0:0:0:0:
256,192,3254,1,0,0:0:0:0:
256,192,3400,1,8,0:0:0:0:
256,192,3547,1,8,0:0:0:0:
256,192,3839,1,0,0:0:0:0:
256,192,3986,1,8,0:0:0:0:
256,192,4132,1,0,0:0:0:0:
256,192,4278,1,8,0:0:0:0:
256,192,4425,1,0,0:0:0:0:
256,192,4571,1,0,0:0:0:0:
256,192,4717,1,8,0:0:0:0:
256,192,4864,1,8,0:0:0:0:
256,192,5010,1,8,0:0:0:0:
256,192,5156,1,8,0:0:0:0:
256,192,5303,1,0,0:0:0:0:
256,192,5449,1,8,0:0:0:0:
256,192,5595,1,8,0:0:0:0:
256,192,5742,1,8,0:0:0:0:
256,192,5888,1,0,0:0:0:0:
256,192,6181,1,8,0:0:0:0:
256,192,6327,1,0,0:0:0:0:
256,192,6474,1,8,0:0:0:0:
256,192,6620,1,0,0:0:0:0:
256,192,6766,1,8,0:0:0:0:
256,192,6913,1,0,0:0:0:0:
256,192,7059,1,8,0:0:0:0:
256,192,7205,1,8,0:0:0:0:
256,192,7352,1,8,0:0:0:0:
256,192,7498,1,8,0:0:0:0:
256,192,7644,1,0,0:0:0:0:
256,192,7791,1,8,0:0:0:0:
256,192,7937,1,8,0:0:0:0:
256,192,8083,1,8,0:0:0:0:
256,192,8230,1,0,0:0:0:0:
256,192,8522,1,8,0:0:0:0:
256,192,8669,1,0,0:0:0:0:
256,192,8815,1,8,0:0:0:0:
256,192,8961,1,0,0:0:0:0:
256,192,9108,1,8,0:0:0:0:
256,192,9254,1,0,0:0:0:0:
256,192,9400,1,8,0:0:0:0:
256,192,9547,1,8,0:0:0:0:
256,192,9693,1,8,0:0:0:0:
256,192,9839,1,0,0:0:0:0:
256,192,9986,1,0,0:0:0:0:
256,192,10132,1,8,0:0:0:0:
256,192,10278,1,0,0:0:0:0:
256,192,10425,1,8,0:0:0:0:
256,192,10571,1,8,0:0:0:0:
256,192,10864,1,0,0:0:0:0:
256,192,11010,1,8,0:0:0:0:
256,192,11156,1,0,0:0:0:0:
256,192,11303,1,8,0:0:0:0:
256,192,11449,1,0,0:0:0:0:
256,192,11595,1,0,0:0:0:0:
256,192,11742,1,8,0:0:0:0:
256,192,11888,1,8,0:0:0:0:
256,192,12034,1,8,0:0:0:0:
256,192,12181,1,4,0:0:0:0:
256,192,12327,1,0,0:0:0:0:
256,192,12474,1,4,0:0:0:0:
256,192,12766,1,0,0:0:0:0:
256,192,12913,1,4,0:0:0:0:
256,192,13205,1,4,0:0:0:0:
256,192,13352,1,4,0:0:0:0:
256,192,13791,1,8,0:0:0:0:
256,192,13937,1,8,0:0:0:0:
256,192,14083,1,8,0:0:0:0:
256,192,14230,1,0,0:0:0:0:
256,192,14376,1,8,0:0:0:0:
256,192,14522,5,0,0:0:0:0:
256,192,14669,1,0,0:0:0:0:
256,192,14815,1,8,0:0:0:0:
256,192,14961,1,0,0:0:0:0:
256,192,15108,1,8,0:0:0:0:
256,192,15254,1,8,0:0:0:0:
256,192,15547,1,0,0:0:0:0:
256,192,15693,1,8,0:0:0:0:
256,192,15839,1,0,0:0:0:0:
256,192,15986,1,8,0:0:0:0:
256,192,16132,1,0,0:0:0:0:
256,192,16278,1,0,0:0:0:0:
256,192,16425,1,8,0:0:0:0:
256,192,16571,1,8,0:0:0:0:
256,192,16717,1,8,0:0:0:0:
256,192,16864,1,0,0:0:0:0:
256,192,17010,1,0,0:0:0:0:
256,192,17156,1,8,0:0:0:0:
256,192,17303,1,0,0:0:0:0:
256,192,17449,1,8,0:0:0:0:
256,192,17595,1,8,0:0:0:0:
256,192,17888,1,0,0:0:0:0:
256,192,18034,1,8,0:0:0:0:
256,192,18181,1,0,0:0:0:0:
256,192,18327,1,8,0:0:0:0:
256,192,18474,1,0,0:0:0:0:
256,192,18620,1,0,0:0:0:0:
256,192,18766,1,8,0:0:0:0:
256,192,18913,1,8,0:0:0:0:
256,192,19059,1,8,0:0:0:0:
256,192,19205,1,8,0:0:0:0:
256,192,19352,1,0,0:0:0:0:
256,192,19498,1,8,0:0:0:0:
256,192,19644,1,8,0:0:0:0:
256,192,19791,1,8,0:0:0:0:
256,192,19937,1,0,0:0:0:0:
256,192,20230,1,8,0:0:0:0:
256,192,20376,1,0,0:0:0:0:
256,192,20522,1,8,0:0:0:0:
256,192,20669,1,0,0:0:0:0:
256,192,20815,1,8,0:0:0:0:
256,192,20961,1,0,0:0:0:0:
256,192,21108,1,8,0:0:0:0:
256,192,21254,1,8,0:0:0:0:
256,192,21400,1,8,0:0:0:0:
256,192,21547,1,8,0:0:0:0:
256,192,21693,1,0,0:0:0:0:
256,192,21839,1,8,0:0:0:0:
256,192,21986,1,8,0:0:0:0:
256,192,22132,1,8,0:0:0:0:
256,192,22278,1,0,0:0:0:0:
256,192,22571,1,8,0:0:0:0:
256,192,22717,1,0,0:0:0:0:
256,192,22864,1,8,0:0:0:0:
256,192,23010,1,0,0:0:0:0:
256,192,23156,1,8,0:0:0:0:
256,192,23303,1,0,0:0:0:0:
256,192,23449,1,8,0:0:0:0:
256,192,23595,1,8,0:0:0:0:
256,192,23742,1,8,0:0:0:0:
256,192,23888,1,0,0:0:0:0:
256,192,24034,1,0,0:0:0:0:
256,192,24181,1,8,0:0:0:0:
256,192,24327,1,0,0:0:0:0:
256,192,24474,1,8,0:0:0:0:
256,192,24620,1,8,0:0:0:0:
256,192,24913,1,0,0:0:0:0:
256,192,25059,1,8,0:0:0:0:
256,192,25205,1,0,0:0:0:0:
256,192,25352,1,8,0:0:0:0:
256,192,25498,1,0,0:0:0:0:
256,192,25644,1,0,0:0:0:0:
256,192,25791,1,8,0:0:0:0:
256,192,25937,1,8,0:0:0:0:
256,192,26083,1,8,0:0:0:0:
256,192,26230,1,4,0:0:0:0:
256,192,26376,1,0,0:0:0:0:
256,192,26522,1,4,0:0:0:0:
256,192,26815,1,0,0:0:0:0:
256,192,26961,1,4,0:0:0:0:
256,192,27254,1,4,0:0:0:0:
256,192,27400,1,4,0:0:0:0:
256,192,27839,1,8,0:0:0:0:
256,192,27986,1,8,0:0:0:0:
256,192,28132,1,8,0:0:0:0:
256,192,28278,1,0,0:0:0:0:
256,192,28425,1,8,0:0:0:0:
256,192,28571,5,0,0:0:0:0:
256,192,28717,1,0,0:0:0:0:
256,192,28864,1,8,0:0:0:0:
256,192,29010,1,0,0:0:0:0:
256,192,29156,1,8,0:0:0:0:
256,192,29303,1,8,0:0:0:0:
256,192,29595,1,0,0:0:0:0:
256,192,29742,1,8,0:0:0:0:
256,192,29888,1,0,0:0:0:0:
256,192,30034,1,8,0:0:0:0:
256,192,30181,1,0,0:0:0:0:
256,192,30327,1,0,0:0:0:0:
256,192,30474,1,8,0:0:0:0:
256,192,30620,1,8,0:0:0:0:
256,192,30766,1,8,0:0:0:0:
256,192,30913,1,0,0:0:0:0:
256,192,31059,1,0,0:0:0:0:
256,192,31205,1,8,0:0:0:0:
256,192,31352,1,0,0:0:0:0:
256,192,31498,1,8,0:0:0:0:
256,192,31644,1,8,0:0:0:0:
256,192,31937,1,0,0:0:0:0:
256,192,32083,1,8,0:0:0:0:
256,192,32230,1,0,0:0:0:0:
256,192,32376,1,8,0:0:0:0:
256,192,32522,1,0,0:0:0:0:
256,192,32669,1,0,0:0:0:0:
256,192,32815,1,8,0:0:0:0:
256,192,32961,1,8,0:0:0:0:
256,192,33108,1,8,0:0:0:0:
256,192,33254,1,8,0:0:0:0:
256,192,33400,1,0,0:0:0:0:
256,192,33547,1,8,0:0:0:0:
256,192,33693,1,8,0:0:0:0:
256,192,33839,1,8,0:0:0:0:
256,192,33986,1,0,0:0:0:0:
256,192,34278,1,8,0:0:0:0:
256,192,34425,1,0,0:0:0:0:
256,192,34571,1,8,0:0:0:0:
256,192,34717,1,0,0:0:0:0:
256,192,34864,1,8,0:0:0:0:
256,192,35010,1,0,0:0:0:0:
256,192,35156,1,8,0:0:0:0:
256,192,35303,1,8,0:0:0:0:
256,192,35449,1,8,0:0:0:0:
256,192,35595,1,8,0:0:0:0:
256,192,35742,1,0,0:0:0:0:
256,192,35888,1,8,0:0:0:0:
256,192,36034,1,8,0:0:0:0:
256,192,36181,1,8,0:0:0:0:
256,192,36327,1,0,0:0:0:0:
256,192,36620,1,8,0:0:0:0:
256,192,36766,1,0,0:0:0:0:
256,192,36913,1,8,0:0:0:0:
256,192,37059,1,0,0:0:0:0:
256,192,37205,1,8,0:0:0:0:
256,192,37352,1,0,0:0:0:0:
256,192,37498,1,8,0:0:0:0:
256,192,37644,1,8,0:0:0:0:
256,192,37791,1,8,0:0:0:0:
256,192,37937,1,0,0:0:0:0:
256,192,38083,1,0,0:0:0:0:
256,192,38230,1,8,0:0:0:0:
256,192,38376,1,0,0:0:0:0:
256,192,38522,1,8,0:0:0:0:
256,192,38669,1,8,0:0:0:0:
256,192,38961,1,0,0:0:0:0:
256,192,39108,1,8,0:0:0:0:
256,192,39254,1,0,0:0:0:0:
256,192,39400,1,8,0:0:0:0:
256,192,39547,1,0,0:0:0:0:
256,192,39693,1,0,0:0:0:0:
256,192,39839,1,8,0:0:0:0:
256,192,39986,1,8,0:0:0:0:
256,192,40132,1,8,0:0:0:0:
256,192,40278,1,4,0:0:0:0:
256,192,40425,1,0,0:0:0:0:
256,192,40571,1,4,0:0:0:0:
256,192,40864,1,0,0:0:0:0:
256,192,41010,1,4,0:0:0:0:
256,192,41303,1,4,0:0:0:0:
256,192,41449,1,4,0:0:0:0:
