osu file format v14

[General]
AudioFilename: audio.mp3
AudioLeadIn: 0
PreviewTime: 474
Countdown: 1
SampleSet: Normal
StackLeniency: 0.7
Mode: 1
LetterboxInBreaks: 0
WidescreenStoryboard: 1

[Editor]
Bookmarks: 14495,28516
DistanceSpacing: 0.8
BeatDivisor: 4
GridSize: 4
TimelineZoom: 1

[Metadata]
Title:Special World
TitleUnicode:Special World
Artist:Koji Kondo
ArtistUnicode:Koji Kondo
Creator:Benjamaster
Version:Kantan
Source:Super Mario World
Tags:snes super nintendo super mario bros 4 video game instrumental
BeatmapID:1513131
BeatmapSetID:715246

[Difficulty]
HPDrainRate:5.5
CircleSize:5
OverallDifficulty:3.5
ApproachRate:5
SliderMultiplier:1.4
SliderTickRate:1

[Events]
//Background and Video events
0,0,"background.png",0,0
//Break Periods
//Storyboard Layer 0 (Background)
//Storyboard Layer 1 (Fail)
//Storyboard Layer 2 (Pass)
//Storyboard Layer 3 (Foreground)
//Storyboard Sound Samples

[TimingPoints]
474,585.365853658537,4,1,0,75,1,0
12181,-100,4,1,0,75,0,1
14522,-100,4,1,0,75,0,0
26230,-100,4,1,0,75,0,1
28571,-100,4,1,0,75,0,0
40278,-100,4,1,0,75,0,1
41742,-100,4,1,0,75,0,0

[HitObjects]
256,192,474,5,0,0:0:0:0:
256,192,1059,5,0,0:0:0:0:
256,192,1644,1,8,0:0:0:0:
256,192,2815,1,0,0:0:0:0:
256,192,3400,1,0,0:0:0:0:
256,192,3986,1,8,0:0:0:0:
256,192,5156,1,8,0:0:0:0:
256,192,5742,1,8,0:0:0:0:
256,192,6327,1,8,0:0:0:0:
256,192,7498,1,8,0:0:0:0:
256,192,8083,1,8,0:0:0:0:
256,192,8669,1,8,0:0:0:0:
256,192,9839,1,0,0:0:0:0:
256,192,10425,1,8,0:0:0:0:
256,192,11010,1,0,0:0:0:0:
256,192,12181,1,4,0:0:0:0:
256,192,13352,1,4,0:0:0:0:
256,192,14522,1,0,0:0:0:0:
256,192,15108,1,8,0:0:0:0:
256,192,15693,1,8,0:0:0:0:
256,192,16864,5,0,0:0:0:0:
256,192,17449,1,8,0:0:0:0:
256,192,18034,1,8,0:0:0:0:
256,192,19205,1,8,0:0:0:0:
256,192,19791,1,8,0:0:0:0:
256,192,20376,1,0,0:0:0:0:
256,192,21547,1,8,0:0:0:0:
256,192,22132,1,8,0:0:0:0:
256,192,22717,1,0,0:0:0:0:
256,192,23888,1,0,0:0:0:0:
256,192,24474,1,8,0:0:0:0:
256,192,25059,1,8,0:0:0:0:
256,192,26230,1,4,0:0:0:0:
256,192,27400,1,4,0:0:0:0:
256,192,28571,1,0,0:0:0:0:
256,192,29156,1,0,0:0:0:0:
256,192,29742,1,8,0:0:0:0:
256,192,30913,1,0,0:0:0:0:
256,192,31498,1,0,0:0:0:0:
256,192,32083,1,8,0:0:0:0:
256,192,33254,1,8,0:0:0:0:
256,192,33839,1,0,0:0:0:0:
256,192,34425,1,8,0:0:0:0:
252,192,35595,1,8,0:0:0:0:
252,192,36181,1,0,0:0:0:0:
252,192,36766,1,8,0:0:0:0:
252,192,37937,1,0,0:0:0:0:
252,192,38522,1,8,0:0:0:0:
252,192,39108,1,8,0:0:0:0:
256,192,40278,1,4,0:0:0:0:
256,192,41449,1,4,0:0:0:0:
