osu file format v14

[General]
AudioFilename: audio.mp3
AudioLeadIn: 0
PreviewTime: 145710
Countdown: 1
SampleSet: Soft
StackLeniency: 0.2
Mode: 0
LetterboxInBreaks: 0
WidescreenStoryboard: 1

[Editor]
Bookmarks: 44186
DistanceSpacing: 2.1
BeatDivisor: 4
GridSize: 32
TimelineZoom: 3.199999

[Metadata]
Title:Slide
TitleUnicode:Slide
Artist:Koji Kondo
ArtistUnicode:Koji Kondo
Creator:Octoling
Version:lets go
Source:Super Mario 64
Tags:nintendo castle penguin secret streams shitmap shit map
BeatmapID:1855969
BeatmapSetID:887882

[Difficulty]
HPDrainRate:6
CircleSize:4.2
OverallDifficulty:8.4
ApproachRate:9.5
SliderMultiplier:2.3
SliderTickRate:1

[Events]
//Background and Video events
0,0,"mario-dive.jpg",0,0
//Break Periods
//Storyboard Layer 0 (Background)
//Storyboard Layer 1 (Fail)
//Storyboard Layer 2 (Pass)
//Storyboard Layer 3 (Foreground)
//Storyboard Sound Samples

[TimingPoints]
505,341.258104879991,4,2,0,25,1,0
505,-100,4,2,0,50,0,0
2211,-100,4,2,0,25,0,0
3235,-133.333333333333,4,2,0,25,0,0
15520,-133.333333333333,4,2,0,25,0,0
18250,-100,4,2,0,25,0,0
22686,-133.333333333333,4,2,0,25,0,0
24734,-90.9090909090909,4,2,0,25,0,0
25075,-90.9090909090909,4,2,0,50,0,1
25246,-90.9090909090909,4,2,0,25,0,1
30535,-90.9090909090909,4,2,0,25,0,0
34801,-100,4,2,0,25,0,0
35995,-100,4,2,0,50,0,1
36081,-83.3333333333333,4,2,0,25,0,1
37702,-83.3333333333333,4,2,0,25,0,1
40432,-83.3333333333333,4,2,0,25,0,1
41114,-71.4285714285714,4,2,0,25,0,1
41285,-62.5,4,2,0,25,0,1
41455,-66.6666666666667,4,2,0,25,0,0
43503,-66.6666666666667,4,2,0,25,0,0
44186,-1000,4,2,0,25,0,0
46916,-100,4,2,0,25,0,0
63296,-76.9230769230769,4,2,0,25,0,0
66026,-100,4,2,0,25,0,0
67391,-83.3333333333333,4,2,0,25,0,0
68756,-117.647058823529,4,2,0,25,0,0
69439,-100,4,2,0,25,0,0
69780,-71.4285714285714,4,2,0,25,0,0
70803,-100,4,2,0,25,0,0
72851,-83.3333333333333,4,2,0,25,0,0
73022,-100,4,2,0,25,0,0
73192,-133.333333333333,4,2,0,25,0,0
73363,-200,4,2,0,25,0,0
73534,-200,4,2,0,25,0,0
73704,-133.333333333333,4,2,0,25,0,0
73875,-100,4,2,0,25,0,0
74046,-83.3333333333333,4,2,0,25,0,0
75581,-100,4,2,0,25,0,0
75752,-100,4,2,0,25,0,0
96057,-100,4,2,0,50,0,1
96142,-100,4,2,0,25,0,1
101858,-133.333333333333,4,2,0,25,0,0
102370,-90.9090909090909,4,2,0,25,0,0
106977,-90.9090909090909,4,2,0,50,0,1
107062,-90.9090909090909,4,2,0,25,0,1
111925,-76.9230769230769,4,2,0,25,0,1
112096,-71.4285714285714,4,2,0,25,0,1
112267,-66.6666666666667,4,2,0,25,0,0
115167,-83.3333333333333,4,2,0,25,0,0
117897,-100,4,2,0,25,0,0
127453,-133.333333333333,4,2,0,10,0,0
127794,-133.333333333333,4,2,0,15,0,0
128135,-133.333333333333,4,2,0,20,0,0
128476,-133.333333333333,4,2,0,25,0,0
134278,-66.6666666666667,4,2,0,25,0,0
138373,-83.3333333333333,4,2,0,25,0,0
139397,-74.0740740740741,4,2,0,25,0,0
139738,-83.3333333333333,4,2,0,25,0,0
139908,-100,4,2,0,25,0,0
141103,-71.4285714285714,4,2,0,25,0,0
141785,-100,4,2,0,25,0,0
143833,-100,4,2,0,10,0,0
144174,-100,4,2,0,15,0,0
144515,-100,4,2,0,60,0,0
144601,-100,4,2,0,20,0,0
144857,-100,4,2,0,23,0,0
145198,-100,4,2,0,25,0,1
145283,-100,4,2,0,25,0,1
150658,-100,4,2,0,25,0,0
156118,-100,4,2,0,50,0,1
156204,-100,4,2,0,25,0,1
161578,-58.8235294117647,4,2,0,25,0,0
162090,-66.6666666666667,4,2,0,25,0,0
162602,-76.9230769230769,4,2,0,25,0,0
163114,-90.9090909090909,4,2,0,25,0,0
163626,-83.3333333333333,4,2,0,25,0,0

[Colours]
Combo1 : 0,191,0
Combo2 : 255,0,0
Combo3 : 0,191,0
Combo4 : 255,255,0
Combo5 : 0,128,255

[HitObjects]
194,201,505,5,8,2:3:0:0:
206,213,1187,1,8,2:3:0:0:
218,225,1870,1,8,2:3:0:0:
230,237,2211,5,8,2:3:0:0:
242,249,2552,1,8,2:3:0:0:
254,261,2893,1,8,2:3:0:0:
266,273,3235,5,12,2:3:0:0:
304,291,3320,1,0,2:3:0:0:
346,283,3405,1,0,2:3:0:0:
376,253,3491,1,0,2:3:0:0:
383,212,3576,1,0,2:3:0:0:
364,173,3661,1,0,2:3:0:0:
327,153,3746,1,0,2:3:0:0:
285,158,3832,1,0,2:3:0:0:
253,186,3917,5,12,2:3:0:0:
221,214,4002,1,0,2:3:0:0:
179,222,4088,1,0,2:3:0:0:
139,208,4173,1,0,2:3:0:0:
112,175,4258,1,0,2:3:0:0:
106,133,4344,1,0,2:3:0:0:
121,93,4429,1,0,2:3:0:0:
155,67,4514,1,0,2:3:0:0:
197,62,4600,6,0,P|234:70|259:84,1,43.1250016450883,2|0,2:3|2:3,2:3:0:0:
327,168,4770,2,0,P|290:160|265:146,1,43.1250016450883,8|0,2:3|2:3,2:3:0:0:
316,50,4941,6,0,P|312:72|305:92,1,43.1250016450883,8|0,2:3|2:3,2:3:0:0:
210,180,5111,2,0,P|212:158|219:138,1,43.1250016450883,8|0,2:3|2:3,2:3:0:0:
255,18,5282,6,0,P|269:35|279:54,1,43.1250016450883,2|0,2:3|2:3,2:3:0:0:
276,219,5453,2,0,P|262:202|252:183,1,43.1250016450883,2|0,2:3|2:3,2:3:0:0:
365,110,5623,6,0,P|348:123|329:133,1,43.1250016450883,8|0,2:3|2:3,2:3:0:0:
166,129,5794,2,0,P|182:116|201:105,1,43.1250016450883,8|0,2:3|2:3,2:3:0:0:
234,91,5965,5,12,2:3:0:0:
276,94,6050,1,0,2:3:0:0:
313,117,6135,1,0,2:3:0:0:
334,153,6221,1,0,2:3:0:0:
336,196,6306,1,0,2:3:0:0:
318,235,6391,1,0,2:3:0:0:
283,260,6477,1,0,2:3:0:0:
241,266,6562,1,0,2:3:0:0:
201,252,6647,5,12,2:3:0:0:
243,247,6732,1,0,2:3:0:0:
276,220,6818,1,0,2:3:0:0:
290,180,6903,1,0,2:3:0:0:
279,139,6988,1,0,2:3:0:0:
248,110,7074,1,0,2:3:0:0:
206,102,7159,1,0,2:3:0:0:
167,118,7244,1,0,2:3:0:0:
153,155,7330,6,0,L|141:205,1,43.1250016450883,2|0,2:3|2:3,2:3:0:0:
227,209,7500,2,0,L|237:250,1,43.1250016450883,8|0,2:3|2:3,2:3:0:0:
301,155,7671,6,0,L|311:113,1,43.1250016450883,8|0,2:3|2:3,2:3:0:0:
384,167,7842,2,0,L|395:209,1,43.1250016450883,8|0,2:3|2:3,2:3:0:0:
331,268,8012,6,0,L|289:257,1,43.1250016450883,2|0,2:3|2:3,2:3:0:0:
277,342,8183,2,0,L|235:352,1,43.1250016450883,2|0,2:3|2:3,2:3:0:0:
184,273,8353,6,0,L|225:283,1,43.1250016450883,8|0,2:3|2:3,2:3:0:0:
172,189,8524,2,0,L|130:199,1,43.1250016450883,8|0,2:3|2:3,2:3:0:0:
26,252,8695,5,12,2:3:0:0:
3,215,8780,1,0,2:3:0:0:
0,173,8865,1,0,2:3:0:0:
18,134,8951,1,0,2:3:0:0:
52,108,9036,1,0,2:3:0:0:
95,102,9121,1,0,2:3:0:0:
135,116,9207,1,0,2:3:0:0:
163,148,9292,1,0,2:3:0:0:
173,190,9377,5,12,2:3:0:0:
135,172,9463,1,0,2:3:0:0:
94,181,9548,1,0,2:3:0:0:
68,215,9633,1,0,2:3:0:0:
69,257,9718,6,0,P|81:277|101:294,1,43.1250016450883,6|0,2:3|2:3,2:3:0:0:
137,297,9889,1,0,2:3:0:0:
175,278,9974,1,0,2:3:0:0:
191,239,10060,5,12,2:3:0:0:
216,204,10145,1,0,2:3:0:0:
251,179,10230,1,0,2:3:0:0:
293,169,10316,1,0,2:3:0:0:
335,173,10401,1,0,2:3:0:0:
377,181,10486,1,0,2:3:0:0:
419,176,10572,1,0,2:3:0:0:
458,157,10657,1,0,2:3:0:0:
489,128,10742,5,12,2:3:0:0:
501,168,10828,1,0,2:3:0:0:
495,211,10913,1,0,2:3:0:0:
472,247,10998,1,0,2:3:0:0:
435,269,11084,6,0,P|412:277|387:276,1,43.1250016450883,6|0,2:3|2:3,2:3:0:0:
352,261,11254,1,0,2:3:0:0:
321,232,11339,1,0,2:3:0:0:
305,193,11425,5,12,2:3:0:0:
308,235,11510,1,0,2:3:0:0:
286,271,11595,1,0,2:3:0:0:
246,286,11681,1,0,2:3:0:0:
205,274,11766,1,0,2:3:0:0:
180,240,11851,1,0,2:3:0:0:
180,198,11937,1,0,2:3:0:0:
205,164,12022,1,0,2:3:0:0:
246,152,12107,5,12,2:3:0:0:
286,165,12193,1,0,2:3:0:0:
315,197,12278,1,0,2:3:0:0:
326,238,12363,1,0,2:3:0:0:
315,279,12449,6,0,B|302:300|277:316,1,43.1250016450883,6|0,2:3|2:3,2:3:0:0:
245,323,12619,1,0,2:3:0:0:
203,315,12704,1,0,2:3:0:0:
171,288,12790,5,12,2:3:0:0:
145,248,12875,1,0,2:3:0:0:
143,201,12960,1,0,2:3:0:0:
165,159,13046,1,0,2:3:0:0:
204,134,13131,1,0,2:3:0:0:
251,131,13216,1,0,2:3:0:0:
293,152,13302,1,0,2:3:0:0:
319,191,13387,1,0,2:3:0:0:
322,238,13472,5,12,2:3:0:0:
345,196,13558,1,0,2:3:0:0:
350,150,13643,1,0,2:3:0:0:
338,104,13728,1,0,2:3:0:0:
311,66,13814,1,0,2:3:0:0:
271,41,13899,1,0,2:3:0:0:
225,32,13984,1,0,2:3:0:0:
178,40,14070,1,0,2:3:0:0:
138,65,14155,5,12,2:3:0:0:
189,66,14240,1,0,2:3:0:0:
232,93,14325,1,0,2:3:0:0:
255,139,14411,1,0,2:3:0:0:
251,190,14496,1,0,2:3:0:0:
220,231,14581,1,0,2:3:0:0:
173,250,14667,1,0,2:3:0:0:
123,242,14752,1,0,2:3:0:0:
84,208,14837,5,12,2:3:0:0:
70,159,14923,1,0,2:3:0:0:
82,109,15008,1,0,2:3:0:0:
116,71,15093,1,0,2:3:0:0:
164,53,15179,1,0,2:3:0:0:
215,61,15264,1,0,2:3:0:0:
256,91,15349,1,0,2:3:0:0:
277,138,15435,1,0,2:3:0:0:
276,190,15520,6,0,L|276:247,1,43.1250016450883,2|0,2:3|2:3,2:3:0:0:
212,298,15690,6,0,P|197:281|189:261,1,43.1250016450883,8|0,2:3|2:3,2:3:0:0:
363,262,15861,2,0,P|348:290|318:310,1,43.1250016450883,8|0,2:3|2:3,2:3:0:0:
154,355,16032,6,0,P|139:338|131:318,1,43.1250016450883,8|0,2:3|2:3,2:3:0:0:
421,319,16202,2,0,P|406:347|376:367,1,43.1250016450883,2|0,2:3|2:3,2:3:0:0:
189,261,16373,6,0,P|197:241|212:225,1,43.1250016450883,8|0,2:3|2:3,2:3:0:0:
340,224,16544,2,0,P|355:241|363:261,1,43.1250016450883,8|0,2:3|2:3,2:3:0:0:
276,325,16714,6,0,L|276:281,1,43.1250016450883,2|0,2:3|2:3,2:3:0:0:
281,81,16885,5,12,2:3:0:0:
331,79,16970,1,0,2:3:0:0:
375,106,17056,1,0,2:3:0:0:
396,153,17141,1,0,2:3:0:0:
388,203,17226,1,0,2:3:0:0:
354,241,17311,1,0,2:3:0:0:
305,254,17397,1,0,2:3:0:0:
257,237,17482,1,0,2:3:0:0:
225,197,17567,5,12,2:3:0:0:
231,247,17653,1,0,2:3:0:0:
206,292,17738,1,0,2:3:0:0:
161,314,17823,1,0,2:3:0:0:
110,306,17909,1,0,2:3:0:0:
74,270,17994,1,0,2:3:0:0:
66,220,18079,1,0,2:3:0:0:
88,174,18165,1,0,2:3:0:0:
120,144,18250,6,0,L|187:131,1,57.5,2|0,2:3|2:3,2:3:0:0:
173,68,18421,6,0,L|240:85,1,57.5,8|0,2:3|2:3,2:3:0:0:
254,23,18591,6,0,L|307:66,1,57.5,8|0,2:3|2:3,2:3:0:0:
343,13,18762,6,0,L|373:75,1,57.5,8|0,2:3|2:3,2:3:0:0:
426,39,18932,6,0,L|428:108,1,57.5,2|0,2:3|2:3,2:3:0:0:
490,99,19103,6,0,L|463:156,1,57.5,2|0,2:3|2:3,2:3:0:0:
508,190,19274,6,0,L|456:234,1,57.5,8|0,2:3|2:3,2:3:0:0:
503,271,19444,6,0,L|441:286,1,57.5,8|0,2:3|2:3,2:3:0:0:
304,292,19615,5,12,2:3:0:0:
285,289,19700,1,0,2:3:0:0:
269,278,19786,1,0,2:3:0:0:
259,263,19871,1,0,2:3:0:0:
251,241,19956,2,0,P|257:195|286:172,1,57.5,0|0,2:3|2:3,2:3:0:0:
394,143,20127,5,12,2:3:0:0:
413,140,20212,1,0,2:3:0:0:
429,129,20297,1,0,2:3:0:0:
439,114,20383,1,0,2:3:0:0:
447,92,20468,2,0,P|441:46|412:23,1,57.5,0|0,2:3|2:3,2:3:0:0:
299,7,20639,5,12,2:3:0:0:
280,10,20724,1,0,2:3:0:0:
264,21,20809,1,0,2:3:0:0:
254,36,20895,1,0,2:3:0:0:
246,58,20980,2,0,P|252:104|281:127,1,57.5,0|0,2:3|2:3,2:3:0:0:
394,143,21151,5,12,2:3:0:0:
413,146,21236,1,0,2:3:0:0:
429,157,21321,1,0,2:3:0:0:
439,172,21407,1,0,2:3:0:0:
447,194,21492,2,0,P|441:240|412:263,1,57.5,0|0,2:3|2:3,2:3:0:0:
300,283,21663,5,12,2:3:0:0:
281,280,21748,1,0,2:3:0:0:
265,269,21833,1,0,2:3:0:0:
255,254,21918,1,0,2:3:0:0:
247,232,22004,1,0,2:3:0:0:
244,213,22089,1,0,2:3:0:0:
247,192,22174,2,0,P|258:166|281:148,1,57.5,0|0,2:3|2:3,2:3:0:0:
417,125,22345,5,12,2:3:0:0:
463,117,22430,1,0,2:3:0:0:
484,159,22516,1,0,2:3:0:0:
451,191,22601,1,0,2:3:0:0:
410,171,22686,5,0,2:3:0:0:
378,157,22772,1,0,2:3:0:0:
344,151,22857,1,0,2:3:0:0:
310,154,22942,1,0,2:3:0:0:
278,166,23028,1,12,2:3:0:0:
249,185,23113,1,0,2:3:0:0:
227,211,23198,1,0,2:3:0:0:
211,242,23283,1,0,2:3:0:0:
205,276,23369,5,0,2:3:0:0:
194,243,23454,1,0,2:3:0:0:
168,222,23539,1,0,2:3:0:0:
134,219,23625,1,0,2:3:0:0:
104,236,23710,1,12,2:3:0:0:
88,266,23795,1,0,2:3:0:0:
92,300,23881,1,0,2:3:0:0:
114,326,23966,1,0,2:3:0:0:
146,335,24051,5,0,2:3:0:0:
178,307,24137,1,0,2:3:0:0:
219,294,24222,1,0,2:3:0:0:
262,299,24307,1,0,2:3:0:0:
304,307,24393,1,12,2:3:0:0:
347,305,24478,1,0,2:3:0:0:
388,292,24563,1,0,2:3:0:0:
424,270,24649,1,0,2:3:0:0:
454,239,24734,5,12,2:3:0:0:
512,384,24904,1,12,2:3:0:0:
225,231,25075,5,12,2:3:0:0:
268,186,25160,1,0,2:3:0:0:
329,179,25246,1,0,2:3:0:0:
381,213,25331,1,0,2:3:0:0:
400,272,25416,1,0,2:3:0:0:
376,329,25502,1,0,2:3:0:0:
321,359,25587,1,0,2:3:0:0:
261,346,25672,1,0,2:3:0:0:
222,298,25758,5,12,2:3:0:0:
198,356,25843,1,0,2:3:0:0:
145,389,25928,1,0,2:3:0:0:
83,386,26014,1,0,2:3:0:0:
34,347,26099,1,0,2:3:0:0:
16,288,26184,1,0,2:3:0:0:
36,229,26269,1,0,2:3:0:0:
86,192,26355,1,0,2:3:0:0:
148,190,26440,5,12,2:3:0:0:
209,199,26525,1,0,2:3:0:0:
263,169,26611,2,0,P|277:155|286:108,1,63.2500019302369,6|0,2:3|2:3,2:3:0:0:
249,27,26781,5,12,2:3:0:0:
186,22,26866,1,0,2:3:0:0:
135,57,26952,2,0,P|122:72|117:119,1,63.2500019302369,6|0,2:3|2:3,2:3:0:0:
137,194,27123,5,12,2:3:0:0:
173,243,27208,1,0,2:3:0:0:
234,259,27293,2,0,P|265:255|290:237,1,63.2500019302369,6|0,2:3|2:3,2:3:0:0:
323,148,27464,5,12,2:3:0:0:
287,99,27549,1,0,2:3:0:0:
226,83,27635,2,0,P|194:86|169:104,1,63.2500019302369,6|0,2:3|2:3,2:3:0:0:
147,192,27805,5,12,2:3:0:0:
156,253,27890,1,0,2:3:0:0:
197,300,27976,1,0,2:3:0:0:
256,319,28061,1,0,2:3:0:0:
317,302,28146,1,0,2:3:0:0:
359,256,28232,1,0,2:3:0:0:
370,195,28317,1,0,2:3:0:0:
347,137,28402,1,0,2:3:0:0:
296,100,28488,5,12,2:3:0:0:
281,161,28573,1,0,2:3:0:0:
304,219,28658,1,0,2:3:0:0:
356,253,28744,1,0,2:3:0:0:
418,251,28829,1,0,2:3:0:0:
468,214,28914,1,0,2:3:0:0:
487,155,29000,1,0,2:3:0:0:
469,95,29085,1,0,2:3:0:0:
419,57,29170,5,12,2:3:0:0:
357,52,29255,1,0,2:3:0:0:
297,71,29341,1,0,2:3:0:0:
250,113,29426,1,0,2:3:0:0:
223,170,29511,1,0,2:3:0:0:
196,226,29597,1,0,2:3:0:0:
149,267,29682,1,0,2:3:0:0:
90,287,29767,1,0,2:3:0:0:
27,281,29853,5,12,2:3:0:0:
80,311,29938,1,0,2:3:0:0:
142,303,30023,1,0,2:3:0:0:
186,259,30109,1,0,2:3:0:0:
194,198,30194,1,0,2:3:0:0:
163,144,30279,1,0,2:3:0:0:
106,120,30365,1,0,2:3:0:0:
46,135,30450,1,0,2:3:0:0:
8,185,30535,5,12,2:3:0:0:
0,248,30621,1,0,2:3:0:0:
16,306,30706,1,0,2:3:0:0:
63,348,30791,1,0,2:3:0:0:
124,365,30876,1,0,2:3:0:0:
185,352,30962,1,0,2:3:0:0:
234,313,31047,1,0,2:3:0:0:
261,256,31132,1,0,2:3:0:0:
259,194,31218,5,12,2:3:0:0:
299,241,31303,1,0,2:3:0:0:
359,256,31388,1,0,2:3:0:0:
417,234,31474,1,0,2:3:0:0:
451,182,31559,6,0,P|456:142|450:117,1,63.2500019302369,6|0,2:3|2:3,2:3:0:0:
404,36,31730,1,0,2:3:0:0:
345,18,31815,1,0,2:3:0:0:
286,38,31900,1,12,2:3:0:0:
255,92,31986,1,0,2:3:0:0:
266,153,32071,1,0,2:3:0:0:
314,192,32156,1,0,2:3:0:0:
376,193,32242,5,0,2:3:0:0:
319,217,32327,1,0,2:3:0:0:
290,272,32412,1,0,2:3:0:0:
303,332,32497,1,0,2:3:0:0:
351,371,32583,1,12,2:3:0:0:
413,370,32668,1,0,2:3:0:0:
460,329,32753,1,0,2:3:0:0:
470,268,32839,1,0,2:3:0:0:
439,214,32924,6,0,P|424:191|394:170,1,63.2500019302369,6|0,2:3|2:3,2:3:0:0:
306,141,33095,1,0,2:3:0:0:
243,143,33180,1,0,2:3:0:0:
184,165,33265,1,12,2:3:0:0:
146,215,33351,1,0,2:3:0:0:
152,276,33436,1,0,2:3:0:0:
200,315,33521,1,0,2:3:0:0:
261,308,33607,5,0,2:3:0:0:
208,341,33692,1,0,2:3:0:0:
145,344,33777,1,0,2:3:0:0:
89,317,33862,1,0,2:3:0:0:
53,265,33948,1,12,2:3:0:0:
47,203,34033,1,0,2:3:0:0:
72,145,34118,1,0,2:3:0:0:
121,107,34204,1,0,2:3:0:0:
183,98,34289,6,0,P|219:95|253:108,1,63.2500019302369,6|0,2:3|2:3,2:3:0:0:
290,187,34460,1,0,2:3:0:0:
272,246,34545,1,0,2:3:0:0:
216,269,34630,1,12,2:3:0:0:
162,240,34716,1,0,2:3:0:0:
149,180,34801,5,0,2:3:0:0:
198,208,34886,1,0,2:3:0:0:
251,190,34972,1,6,2:3:0:0:
272,139,35057,1,0,2:3:0:0:
249,89,35142,1,0,2:3:0:0:
195,73,35228,1,0,2:3:0:0:
148,103,35313,5,6,2:3:0:0:
136,159,35398,1,0,2:3:0:0:
147,214,35483,1,0,2:3:0:0:
181,260,35568,1,0,2:3:0:0:
231,288,35654,1,6,2:3:0:0:
288,293,35739,1,0,2:3:0:0:
341,274,35824,1,0,2:3:0:0:
382,235,35910,1,0,2:3:0:0:
403,182,35995,6,0,L|415:92,1,57.5,12|0,2:3|2:3,2:3:0:0:
428,22,36166,1,0,2:3:0:0:
477,67,36251,1,0,2:3:0:0:
501,131,36337,1,12,2:3:0:0:
491,198,36422,1,0,2:3:0:0:
451,253,36508,1,0,2:3:0:0:
389,282,36593,1,0,2:3:0:0:
321,278,36678,5,12,2:3:0:0:
382,249,36763,1,0,2:3:0:0:
417,191,36848,1,0,2:3:0:0:
414,123,36933,1,0,2:3:0:0:
374,68,37019,1,12,2:3:0:0:
309,46,37104,1,0,2:3:0:0:
244,63,37189,1,0,2:3:0:0:
199,114,37275,1,0,2:3:0:0:
190,181,37360,5,12,2:3:0:0:
208,246,37445,1,0,2:3:0:0:
256,294,37530,1,0,2:3:0:0:
322,311,37615,1,0,2:3:0:0:
388,293,37701,1,12,2:3:0:0:
436,245,37786,1,0,2:3:0:0:
453,179,37871,1,0,2:3:0:0:
435,113,37957,1,0,2:3:0:0:
386,65,38043,5,12,2:3:0:0:
407,129,38128,1,0,2:3:0:0:
387,194,38213,1,0,2:3:0:0:
332,234,38298,1,0,2:3:0:0:
264,235,38384,1,12,2:3:0:0:
209,195,38469,1,0,2:3:0:0:
188,131,38554,1,0,2:3:0:0:
208,66,38640,1,0,2:3:0:0:
263,26,38725,5,12,2:3:0:0:
300,83,38810,1,0,2:3:0:0:
306,151,38895,1,0,2:3:0:0:
281,215,38980,1,0,2:3:0:0:
230,260,39066,1,12,2:3:0:0:
164,278,39151,1,0,2:3:0:0:
97,263,39236,1,0,2:3:0:0:
45,220,39322,1,0,2:3:0:0:
17,157,39408,5,12,2:3:0:0:
22,89,39493,1,0,2:3:0:0:
61,33,39578,1,0,2:3:0:0:
123,4,39663,1,0,2:3:0:0:
190,10,39749,1,12,2:3:0:0:
246,50,39834,1,0,2:3:0:0:
273,112,39919,1,0,2:3:0:0:
266,180,40005,1,0,2:3:0:0:
225,234,40090,5,12,2:3:0:0:
275,190,40175,1,0,2:3:0:0:
343,187,40260,1,0,2:3:0:0:
397,228,40345,1,0,2:3:0:0:
413,293,40431,1,12,2:3:0:0:
383,354,40516,1,0,2:3:0:0:
322,383,40601,1,0,2:3:0:0:
257,366,40687,1,0,2:3:0:0:
216,312,40773,5,12,2:3:0:0:
283,316,40858,1,0,2:3:0:0:
342,281,40943,1,0,2:3:0:0:
369,219,41028,1,0,2:3:0:0:
357,152,41114,1,12,2:3:0:0:
308,105,41199,1,0,2:3:0:0:
241,94,41284,1,0,2:3:0:0:
180,123,41370,1,0,2:3:0:0:
146,182,41455,6,0,P|243:148|444:273,1,345.000013160706,14|0,2:3|2:3,2:3:0:0:
213,254,41967,6,0,P|99:271|155:87,1,345.000013160706,14|0,2:3|2:3,2:3:0:0:
51,352,42479,6,0,B|94:385|194:386|264:348|289:292|289:292|306:328|299:361,1,345.000013160706,12|0,2:3|2:3,2:3:0:0:
440,241,42991,6,0,P|320:139|212:253,1,345.000013160706,14|0,2:3|2:3,2:3:0:0:
53,356,43503,5,12,2:3:0:0:
478,132,43844,5,12,2:3:0:0:
256,192,44186,12,0,46916,2:3:0:0:
