osu file format v14

[General]
AudioFilename: audio.mp3
AudioLeadIn: 0
PreviewTime: 12938
Countdown: 0
SampleSet: None
StackLeniency: 0.3
Mode: 0
LetterboxInBreaks: 0
WidescreenStoryboard: 0

[Editor]
DistanceSpacing: 3.9
BeatDivisor: 4
GridSize: 4
TimelineZoom: 1

[Metadata]
Title:Molgera
TitleUnicode:モルド・ゲイラ
Artist:Koji Kondo
ArtistUnicode:Koji Kondo
Creator:DeviousPanda
Version:Extravaganza
Source:The Legend of Zelda: The Wind Waker
Tags:Boss Theme OST Kenta Nagata Hajime Wakai Toru Minegishi Koji Kondo
BeatmapID:1907080
BeatmapSetID:912937

[Difficulty]
HPDrainRate:4.6
CircleSize:5.1
OverallDifficulty:9.5
ApproachRate:9.3
SliderMultiplier:1.4
SliderTickRate:1

[Events]
//Background and Video events
0,0,"maxresdefault.jpg",0,0
//Break Periods
//Storyboard Layer 0 (Background)
//Storyboard Layer 1 (Fail)
//Storyboard Layer 2 (Pass)
//Storyboard Layer 3 (Foreground)
//Storyboard Sound Samples

[TimingPoints]
342.138564008728,403.090359422237,4,3,2,25,1,0
442,-100,4,3,1,15,0,0
745,-100,4,3,2,25,0,0
846,-100,4,3,1,15,0,0
1349,-100,4,3,2,25,0,0
1450,-100,4,3,1,15,0,0
1752,-100,4,3,2,25,0,0
1853,-100,4,3,1,15,0,0
1954,-100,4,3,2,25,0,0
2055,-100,4,3,1,15,0,0
2357,-100,4,3,2,25,0,0
2458,-100,4,3,1,15,0,0
2760,-100,4,3,2,25,0,0
2861,-100,4,3,1,15,0,0
3163,-100,4,3,2,25,0,0
3264,-100,4,3,1,15,0,0
3566,-100,4,3,2,25,0,0
3667,-100,4,3,1,15,0,0
3969,-100,4,3,2,25,0,0
4070,-100,4,3,1,15,0,0
4574,-100,4,3,2,25,0,0
4675,-100,4,3,1,15,0,0
4977,-100,4,3,2,25,0,0
5078,-100,4,3,1,15,0,0
5179,-100,4,3,2,25,0,0
5280,-100,4,3,1,15,0,0
5582,-100,4,3,2,25,0,0
5683,-100,4,3,1,15,0,0
5985,-100,4,3,2,25,0,0
6086,-100,4,3,1,15,0,0
6388,-100,4,3,2,25,0,0
6489,-100,4,3,1,15,0,0
6791,-100,4,3,2,35,0,0
6892,-100,4,3,1,25,0,0
7194,-100,4,3,2,35,0,0
7295,-100,4,3,1,25,0,0
7799,-100,4,3,2,35,0,0
7900,-100,4,3,1,25,0,0
8202,-100,4,3,2,35,0,0
8303,-100,4,3,1,25,0,0
8403,-100,4,3,2,35,0,0
8504,-100,4,3,1,25,0,0
8807,-100,4,3,2,35,0,0
8908,-100,4,3,1,25,0,0
9210,-100,4,3,2,35,0,0
9311,-100,4,3,1,25,0,0
9613,-100,4,3,2,35,0,0
9714,-100,4,3,1,25,0,0
10016,-100,4,3,2,35,0,0
10117,-100,4,3,1,25,0,0
10419,-100,4,3,2,35,0,0
10520,-100,4,3,1,25,0,0
11024,-100,4,3,2,35,0,0
11125,-100,4,3,1,25,0,0
11427,-100,4,3,2,35,0,0
11528,-100,4,3,1,25,0,0
11628,-100,4,3,2,35,0,0
11729,-100,4,3,1,25,0,0
13241,-100,4,3,2,45,0,0
13341,-100,4,3,1,35,0,0
13543,-100,4,3,2,45,0,0
13744,-100,4,3,1,35,0,0
13845,-100,4,3,2,45,0,0
13946,-100,4,3,1,35,0,0
14047,-100,4,3,2,45,0,0
14147,-100,4,3,1,35,0,0
14248,-100,4,3,2,45,0,0
14349,-100,4,3,1,35,0,0
14450,-100,4,3,2,45,0,0
14551,-100,4,3,1,35,0,0
14651,-100,4,3,2,45,0,0
14752,-100,4,3,1,35,0,0
14853,-100,4,3,2,45,0,0
15458,-100,4,3,2,45,0,0
15559,-100,4,3,1,35,0,0
15659,-100,4,3,2,45,0,0
15760,-100,4,3,1,35,0,0
16062,-100,4,3,2,45,0,0
16264,-100,4,3,1,35,0,0
16465,-100,4,3,2,45,0,0
16565,-100,4,3,1,35,0,0
16767,-100,4,3,2,45,0,0
16968,-100,4,3,1,35,0,0
17069,-100,4,3,2,45,0,0
17170,-100,4,3,1,35,0,0
17271,-100,4,3,2,45,0,0
17371,-100,4,3,1,35,0,0
17472,-100,4,3,2,45,0,0
17573,-100,4,3,1,35,0,0
17674,-100,4,3,2,45,0,0
17775,-100,4,3,1,35,0,0
17875,-100,4,3,2,45,0,0
17976,-100,4,3,1,35,0,0
18077,-100,4,3,2,45,0,0
18783,-100,4,3,1,35,0,0
18883,-100,4,3,2,45,0,0
19085,-100,4,3,1,35,0,0
19287,-100,4,3,2,45,0,0
19488,-100,4,3,1,35,0,0
19690,-100,4,3,2,45,0,0
19791,-100,4,3,1,35,0,0
19992,-100,4,3,2,45,0,0
20194,-100,4,3,1,35,0,0
20295,-100,4,3,2,45,0,0
20395,-100,4,3,1,35,0,0
20496,-100,4,3,2,45,0,0
20597,-100,4,3,1,35,0,0
20698,-100,4,3,2,45,0,0
21101,-100,4,3,1,35,0,0
21303,-100,4,3,2,45,0,0
21404,-100,4,3,1,35,0,0
21605,-100,4,3,2,45,0,0
21807,-100,4,3,1,35,0,0
21908,-100,4,3,2,45,0,0
22008,-100,4,3,1,35,0,0
22109,-100,4,3,2,45,0,0
22210,-100,4,3,1,35,0,0
22311,-100,4,3,2,45,0,0
22713,-100,4,3,1,35,0,0
22915,-100,4,3,2,45,0,0
23015,-100,4,3,1,35,0,0
23217,-100,4,3,2,45,0,0
23419,-100,4,3,1,35,0,0
23519,-100,4,3,2,45,0,0
23620,-100,4,3,1,35,0,0
23721,-100,4,3,2,45,0,0
23822,-100,4,3,1,35,0,0
23922,-100,4,3,2,45,0,0
24124,-100,4,3,2,45,0,0
24225,-100,4,3,1,35,0,0
24326,-100,4,3,2,45,0,0
24426,-100,4,3,1,35,0,0
24527,-100,4,3,2,45,0,0
24829,-100,4,3,1,35,0,0
24930,-100,4,3,2,45,0,0
25132,-100,4,3,2,45,0,0
25434,-100,4,3,1,35,0,0
25736,-100,4,3,2,45,0,0
25938,-100,4,3,1,35,0,0
26139,-100,4,3,2,50,0,0
26240,-100,4,3,1,40,0,0
26442,-100,4,3,2,50,0,0
26643,-100,4,3,1,40,0,0
26744,-100,4,3,2,50,0,0
26845,-100,4,3,1,40,0,0
26946,-100,4,3,2,50,0,0
27046,-100,4,3,1,40,0,0
27147,-100,4,3,2,50,0,0
27248,-100,4,3,1,40,0,0
27349,-100,4,3,2,50,0,0
27449,-100,4,3,1,40,0,0
27550,-100,4,3,2,50,0,0
27651,-100,4,3,1,40,0,0
27752,-100,4,3,2,50,0,0
27853,-100,4,3,1,40,0,0
27953,-100,4,3,2,50,0,0
28054,-100,4,3,1,40,0,0
28155,-100,4,3,2,50,0,0
28256,-100,4,3,1,40,0,0
28356,-100,4,3,2,50,0,0
28659,-100,4,3,1,40,0,0
28961,-100,4,3,2,50,0,0
29163,-100,4,3,1,40,0,0
29364,-100,4,3,2,50,0,0
29465,-100,4,3,1,40,0,0
29666,-100,4,3,2,50,0,0
29868,-100,4,3,1,40,0,0
29969,-100,4,3,2,50,0,0
30070,-100,4,3,1,40,0,0
30170,-100,4,3,2,50,0,0
30271,-100,4,3,1,40,0,0
30372,-100,4,3,2,50,0,0
30473,-100,4,3,1,40,0,0
30573,-100,4,3,2,50,0,0
30674,-100,4,3,1,40,0,0
30775,-100,4,3,2,50,0,0
30876,-100,4,3,1,40,0,0
30977,-100,4,3,2,50,0,0
31077,-100,4,3,1,40,0,0
31178,-100,4,3,2,50,0,0
31279,-100,4,3,1,40,0,0
31380,-100,4,3,2,50,0,0
31480,-100,4,3,1,40,0,0
31581,-100,4,3,2,50,0,0
31883,-100,4,3,1,40,0,0
32186,-100,4,3,2,50,0,0
32387,-100,4,3,1,40,0,0
32589,-100,4,3,2,50,0,0
32690,-100,4,3,1,40,0,0
32891,-100,4,3,2,50,0,0
33093,-100,4,3,1,40,0,0
33194,-100,4,3,2,50,0,0
33294,-100,4,3,1,40,0,0
33395,-100,4,3,2,50,0,0
33496,-100,4,3,1,40,0,0
33597,-100,4,3,2,50,0,0
33698,-100,4,3,1,40,0,0
34000,-100,4,3,2,50,0,0
34302,-100,4,3,1,40,0,0
34504,-100,4,3,2,50,0,0
34705,-100,4,3,1,40,0,0
34806,-100,4,3,2,50,0,0
34907,-100,4,3,1,40,0,0
35007,-100,4,3,2,50,0,0
35108,-100,4,3,1,40,0,0
35410,-100,4,3,2,50,0,0
35511,-100,4,3,1,40,0,0
35612,-100,4,3,2,50,0,0
35914,-100,4,3,1,40,0,0
36116,-100,4,3,2,50,0,0
36317,-100,4,3,1,40,0,0
36418,-100,4,3,2,50,0,0
36519,-100,4,3,1,40,0,0
36620,-100,4,3,2,50,0,0
36721,-100,4,3,1,40,0,0
36821,-100,4,3,2,50,0,0
37023,-100,4,3,2,50,0,0
37124,-100,4,3,1,40,0,0
37224,-100,4,3,2,50,0,0
37325,-100,4,3,1,40,0,0
37426,-100,4,3,2,50,0,0
37728,-100,4,3,1,40,0,0
37829,-100,4,3,2,50,0,0
38031,-100,4,3,1,40,0,0
38232,-100,4,3,2,50,0,0
38434,-100,4,3,1,40,0,0
38635,-100,4,3,2,50,0,0
38837,-100,4,3,1,40,0,0
39038,-100,4,3,2,25,0,0
39139,-100,4,3,1,15,0,0
39441,-100,4,3,2,25,0,0
39542,-100,4,3,1,15,0,0
40046,-100,4,3,2,25,0,0
40248,-100,4,3,1,15,0,0
40449,-100,4,3,2,25,0,0
40550,-100,4,3,1,15,0,0
40651,-100,4,3,2,25,0,0
40751,-100,4,3,1,15,0,0
41054,-100,4,3,2,25,0,0
41356,-100,4,3,1,15,0,0
41457,-100,4,3,2,25,0,0
41658,-100,4,3,1,15,0,0
41860,-100,4,3,2,25,0,0
42061,-100,4,3,1,15,0,0
42263,-100,4,3,2,35,0,0
42364,-100,4,3,1,25,0,0
42666,-100,4,3,2,35,0,0
42868,-100,4,3,1,25,0,0
43271,-100,4,3,2,35,0,0
43372,-100,4,3,1,25,0,0
43674,-100,4,3,2,35,0,0
43875,-100,4,3,2,35,0,0
44077,-100,4,3,1,25,0,0
44278,-100,4,3,2,35,0,0
44480,-100,4,3,2,35,0,0
44682,-100,4,3,2,35,0,0
44883,-100,4,3,1,25,0,0
45085,-100,4,3,2,35,0,0
45286,-100,4,3,1,25,0,0
45488,-100,4,3,2,35,0,0
45689,-100,4,3,1,25,0,0
45891,-100,4,3,2,35,0,0
46092,-100,4,3,1,25,0,0
46495,-100,4,3,2,35,0,0
46798,-100,4,3,1,25,0,0
46899,-100,4,3,2,35,0,0
47100,-100,4,3,2,35,0,0
47402,-100,4,3,1,25,0,0
47503,-100,4,3,2,35,0,0
47705,-100,4,3,2,35,0,0
47906,-100,4,3,2,35,0,0
48108,-100,4,3,1,25,0,0
48309,-100,4,3,2,35,0,0
48410,-100,4,3,1,25,0,0
48712,-100,4,3,2,35,0,0
48914,-100,4,3,1,25,0,0
49116,-100,4,3,2,35,0,0
49317,-100,4,3,1,25,0,0
49720,-100,4,3,2,35,0,0

[Colours]
Combo1 : 237,190,3
Combo2 : 255,226,166

[HitObjects]
7,343,342,5,0,0:0:0:0:
18,340,442,1,0,0:0:0:0:
29,337,543,1,0,0:0:0:0:
40,334,644,1,0,0:0:0:0:
92,371,745,5,0,0:0:0:0:
107,337,846,1,0,0:0:0:0:
94,299,946,1,0,0:0:0:0:
65,273,1047,1,0,0:0:0:0:
53,238,1148,1,0,0:0:0:0:
67,200,1249,1,0,0:0:0:0:
120,239,1349,5,0,0:0:0:0:
131,236,1449,1,0,0:0:0:0:
142,233,1550,1,0,0:0:0:0:
153,230,1651,1,0,0:0:0:0:
217,255,1752,5,0,0:0:0:0:
213,285,1853,1,0,0:0:0:0:
299,258,1954,5,0,0:0:0:0:
295,247,2055,1,0,0:0:0:0:
292,236,2156,1,0,0:0:0:0:
289,225,2256,1,0,0:0:0:0:
228,188,2357,5,0,0:0:0:0:
255,160,2458,1,0,0:0:0:0:
290,154,2559,1,0,0:0:0:0:
324,164,2659,1,0,0:0:0:0:
361,215,2760,6,0,P|375:224|404:224,3,35
335,309,3163,2,0,P|321:318|292:318,3,35,0|0|0|0,0:0|0:0|0:0|0:0,0:0:0:0:
410,384,3566,5,0,0:0:0:0:
406,370,3667,1,0,0:0:0:0:
402,359,3768,1,0,0:0:0:0:
398,346,3869,1,0,0:0:0:0:
423,287,3969,5,0,0:0:0:0:
450,265,4070,1,0,0:0:0:0:
460,235,4171,1,0,0:0:0:0:
459,200,4272,1,0,0:0:0:0:
441,173,4373,1,0,0:0:0:0:
409,161,4473,1,0,0:0:0:0:
357,122,4574,5,0,0:0:0:0:
353,108,4675,1,0,0:0:0:0:
349,97,4776,1,0,0:0:0:0:
345,84,4877,1,0,0:0:0:0:
406,10,4977,5,0,0:0:0:0:
398,35,5078,1,0,0:0:0:0:
331,15,5179,5,0,0:0:0:0:
300,28,5279,1,0,0:0:0:0:
279,56,5380,1,0,0:0:0:0:
274,94,5481,1,0,0:0:0:0:
255,156,5582,6,0,P|236:172|209:179,3,35
311,209,5985,5,0,0:0:0:0:
326,212,6086,1,0,0:0:0:0:
340,215,6186,1,0,0:0:0:0:
353,217,6287,1,0,0:0:0:0:
416,205,6388,6,0,L|458:197,3,35
397,313,6791,5,14,0:2:0:0:
355,326,6892,1,0,3:0:0:0:
315,316,6993,1,0,3:0:0:0:
290,286,7093,1,0,3:0:0:0:
222,284,7194,5,12,0:2:0:0:
186,264,7295,1,0,3:0:0:0:
142,272,7396,1,0,3:0:0:0:
109,298,7496,1,0,3:0:0:0:
99,336,7597,1,0,3:0:0:0:
114,377,7698,1,0,3:0:0:0:
171,335,7799,5,14,0:2:0:0:
168,293,7900,1,0,3:0:0:0:
165,251,8000,1,0,3:0:0:0:
162,212,8101,1,0,3:0:0:0:
105,159,8202,5,12,0:2:0:0:
102,171,8303,1,0,3:0:0:0:
213,160,8403,5,14,0:2:0:0:
210,130,8504,1,0,3:0:0:0:
208,101,8604,1,0,3:0:0:0:
206,73,8705,1,0,3:0:0:0:
146,34,8807,5,12,0:2:0:0:
143,46,8907,1,0,3:0:0:0:
140,58,9008,1,0,3:0:0:0:
137,70,9109,1,0,3:0:0:0:
77,97,9210,6,0,P|57:96|39:85,1,35,12|0,0:2|0:0,0:0:0:0:
208,7,9411,2,0,P|223:0|241:0,1,35
65,186,9613,6,0,P|48:175|38:156,1,35,14|0,0:2|0:0,0:0:0:0:
271,58,9814,2,0,P|288:59|303:67,1,35
109,317,10016,5,14,0:2:0:0:
96,282,10117,1,0,0:0:0:0:
103,247,10217,1,0,0:0:0:0:
130,219,10318,1,0,0:0:0:0:
198,200,10419,5,12,0:2:0:0:
229,179,10520,1,0,0:0:0:0:
239,139,10620,1,0,0:0:0:0:
224,98,10721,1,0,0:0:0:0:
187,78,10822,1,0,0:0:0:0:
146,86,10923,1,0,0:0:0:0:
177,140,11024,5,14,0:2:0:0:
217,135,11124,1,0,0:0:0:0:
258,134,11225,1,0,0:0:0:0:
289,133,11326,1,0,0:0:0:0:
356,86,11427,5,12,0:2:0:0:
343,83,11527,1,0,0:0:0:0:
365,163,11628,5,14,0:2:0:0:
356,166,11830,6,0,L|354:190,3,23.3333333333333
498,233,12233,5,4,0:0:0:0:
475,175,12334,1,4,0:0:0:0:
494,116,12434,1,4,0:0:0:0:
423,91,12636,5,8,0:0:0:0:
466,177,12737,1,8,0:0:0:0:
432,266,12837,1,8,0:0:0:0:
457,179,13039,5,2,0:0:0:0:
384,192,13241,5,14,0:2:0:0:
354,198,13341,1,0,0:0:0:0:
318,204,13442,1,0,0:0:0:0:
237,164,13543,5,4,2:0:0:0:
249,167,13644,1,12,2:2:0:0:
262,169,13744,1,0,0:0:0:0:
299,121,13845,5,12,0:2:0:0:
294,104,13946,1,0,0:0:0:0:
289,87,14047,1,4,2:0:0:0:
284,70,14147,1,0,0:0:0:0:
220,45,14248,5,10,0:2:0:0:
194,72,14349,1,0,0:0:0:0:
168,99,14450,1,4,2:0:0:0:
142,126,14551,1,0,0:0:0:0:
178,213,14651,5,8,0:2:0:0:
223,226,14752,1,0,0:0:0:0:
227,149,14853,5,14,0:2:0:0:
277,280,15054,1,4,2:0:0:0:
370,122,15256,1,12,0:2:0:0:
121,53,15458,5,8,0:2:0:0:
93,77,15558,1,0,0:0:0:0:
51,77,15659,1,8,2:0:0:0:
21,55,15760,1,0,0:0:0:0:
17,17,15861,2,0,L|22:-14,4,17.5,0|0|0|0|8,0:0|0:0|0:0|0:0|0:2,0:0:0:0:
0,153,16264,5,2,0:0:0:0:
20,224,16465,5,14,0:2:0:0:
28,254,16565,1,0,0:0:0:0:
35,286,16666,1,0,0:0:0:0:
2,370,16767,5,4,2:0:0:0:
5,358,16868,1,12,2:2:0:0:
8,347,16968,1,0,0:0:0:0:
90,326,17069,5,12,0:2:0:0:
112,309,17170,1,0,0:0:0:0:
140,308,17271,1,4,2:0:0:0:
161,322,17371,1,0,0:0:0:0:
231,320,17472,5,10,0:2:0:0:
266,346,17573,1,0,0:0:0:0:
307,346,17674,1,4,2:0:0:0:
342,324,17775,1,0,0:0:0:0:
295,239,17875,5,8,0:2:0:0:
289,278,17976,1,0,0:0:0:0:
360,198,18077,5,14,0:2:0:0:
416,365,18279,1,4,2:0:0:0:
193,260,18481,2,0,P|205:224|201:183,1,70,12|0,0:2|0:2,0:0:0:0:
159,149,18783,1,0,0:0:0:0:
159,149,18884,1,8,2:2:0:0:
272,126,19085,2,0,L|268:149,4,17.5,0|0|0|0|8,0:0|0:0|0:0|0:0|0:2,0:0:0:0:
301,3,19488,5,2,0:0:0:0:
425,57,19690,5,14,0:2:0:0:
388,75,19791,1,0,0:0:0:0:
370,120,19892,1,0,0:0:0:0:
376,166,19992,1,4,2:0:0:0:
409,203,20093,1,4,2:0:0:0:
453,204,20194,1,0,0:0:0:0:
464,287,20295,5,12,0:2:0:0:
434,269,20395,1,0,0:0:0:0:
400,269,20496,1,4,2:2:0:0:
371,287,20597,1,0,0:0:0:0:
416,328,20698,5,10,0:2:0:0:
415,337,21101,5,2,0:0:0:0:
302,320,21303,5,14,0:2:0:0:
265,328,21404,1,0,0:0:0:0:
229,338,21505,1,0,0:0:0:0:
196,344,21605,1,4,2:0:0:0:
162,353,21706,1,4,2:0:0:0:
127,360,21807,1,0,0:0:0:0:
82,303,21908,5,12,0:2:0:0:
91,283,22008,1,0,0:0:0:0:
136,241,22109,5,12,0:2:0:0:
133,227,22210,1,0,0:0:0:0:
88,181,22310,5,8,2:0:0:0:
198,261,22512,1,0,0:0:0:0:
78,186,22713,5,2,0:2:0:0:
204,271,22915,5,14,0:2:0:0:
237,253,23015,1,0,0:0:0:0:
255,215,23116,1,0,0:0:0:0:
248,173,23217,1,4,2:2:0:0:
218,141,23318,1,4,2:2:0:0:
179,136,23419,1,0,0:0:0:0:
187,54,23519,5,12,0:2:0:0:
203,71,23620,1,0,0:0:0:0:
228,77,23721,1,12,2:2:0:0:
252,72,23822,1,0,0:0:0:0:
230,12,23922,5,10,0:2:0:0:
347,122,24124,6,0,L|297:118,1,35,12|0,2:2|0:0,0:0:0:0:
338,135,24326,2,0,L|288:131,1,35,4|0,0:2|0:0,0:0:0:0:
353,223,24527,6,0,P|385:185|458:197,1,105,14|0,0:2|0:0,0:0:0:0:
443,196,24930,1,4,0:2:0:0:
333,61,25132,6,0,P|381:69|408:138,1,105,8|0,0:2|0:0,0:0:0:0:
347,122,25535,2,0,L|335:137,4,17.5,0|0|0|0|8,0:0|0:0|0:0|0:0|0:2,0:0:0:0:
428,16,25938,1,2,0:0:0:0:
422,26,26139,5,14,0:2:0:0:
360,17,26240,1,0,0:0:0:0:
299,4,26341,1,0,0:0:0:0:
232,72,26442,5,4,2:2:0:0:
247,76,26543,2,0,L|289:70,1,35,12|0,2:2|0:0,0:0:0:0:
184,12,26744,5,12,0:2:0:0:
156,52,26845,1,0,0:0:0:0:
164,100,26946,2,0,P|171:119|187:134,1,35,4|0,2:0|0:0,0:0:0:0:
270,216,27147,5,10,0:2:0:0:
242,196,27248,1,0,0:0:0:0:
207,198,27349,2,0,P|191:211|176:233,1,35,4|0,2:0|0:0,0:0:0:0:
100,175,27550,5,8,0:2:0:0:
119,178,27651,1,0,0:0:0:0:
36,163,27752,6,0,L|-1:156,1,35,10|0,0:2|0:0,0:0:0:0:
74,265,27953,2,0,L|111:258,1,35,4|0,2:0|0:0,0:0:0:0:
80,254,28155,2,0,L|117:247,1,35,4|0,0:2|0:0,0:0:0:0:
228,341,28356,6,0,P|195:309|130:323,1,105,8|0,0:2|0:0,0:0:0:0:
173,368,28760,2,0,L|168:387,4,17.5,0|0|0|0|8,0:0|0:0|0:0|0:0|0:2,0:0:0:0:
209,236,29163,1,2,0:0:0:0:
222,230,29364,5,14,0:2:0:0:
280,240,29465,1,0,0:0:0:0:
340,252,29566,1,0,0:0:0:0:
416,336,29667,5,4,2:2:0:0:
403,330,29768,2,0,L|391:285,1,35,12|0,2:2|0:0,0:0:0:0:
396,207,29969,5,12,0:2:0:0:
405,179,30070,1,0,0:0:0:0:
410,154,30171,2,0,L|395:113,1,35,4|0,2:0|0:0,0:0:0:0:
485,0,30372,5,10,0:2:0:0:
495,42,30473,1,0,0:0:0:0:
502,84,30574,2,0,L|490:127,1,35,4|0,2:0|0:0,0:0:0:0:
368,52,30775,5,8,0:2:0:0:
388,47,30876,1,0,0:0:0:0:
322,107,30977,6,0,P|310:98|298:77,1,35,10|0,0:2|0:0,0:0:0:0:
196,15,31178,2,0,P|215:16|233:22,1,35,4|0,2:0|0:0,0:0:0:0:
243,186,31380,2,0,P|246:164|258:147,1,35,4|0,0:2|0:0,0:0:0:0:
73,114,31581,6,0,P|115:72|166:74,1,105,8|0,0:2|0:0,0:0:0:0:
136,134,31985,2,0,L|151:158,4,17.5,0|0|0|0|8,0:0|0:0|0:0|0:0|0:2,0:0:0:0:
71,18,32388,1,2,0:0:0:0:
15,149,32589,5,14,0:2:0:0:
1,187,32690,1,0,0:0:0:0:
16,225,32790,1,0,0:0:0:0:
49,243,32891,1,4,2:0:0:0:
65,277,32992,2,0,P|70:297|67:316,1,35,4|0,2:0|0:0,0:0:0:0:
145,384,33194,5,12,0:2:0:0:
142,364,33294,1,0,0:0:0:0:
150,346,33395,2,0,P|164:331|182:324,1,35,4|0,2:0|0:0,0:0:0:0:
176,241,33597,6,0,P|156:236|140:224,1,35,2|0,0:2|0:0,0:0:0:0:
196,109,33798,2,0,P|213:112|227:121,1,35
185,175,34000,1,4,0:2:0:0:
371,228,34201,5,14,0:2:0:0:
361,189,34302,1,0,0:0:0:0:
350,148,34403,1,0,0:0:0:0:
341,108,34504,1,4,2:0:0:0:
334,69,34604,2,0,L|349:24,1,35,12|0,2:0|0:0,0:0:0:0:
462,111,34806,6,0,L|477:154,1,35,12|0,0:2|0:0,0:0:0:0:
249,238,35007,2,0,L|264:195,1,35,12|0,2:0|0:0,0:0:0:0:
497,205,35209,5,0,0:0:0:0:
505,221,35310,1,0,0:0:0:0:
512,236,35410,2,0,L|500:286,1,35,8|0,0:2|0:0,0:0:0:0:
283,145,35612,1,4,2:2:0:0:
305,270,35814,5,14,0:2:0:0:
275,299,35914,1,0,0:0:0:0:
230,300,36015,1,0,0:0:0:0:
196,278,36116,1,4,2:0:0:0:
185,237,36217,2,0,P|173:217|152:204,1,35,4|0,2:0|0:0,0:0:0:0:
29,273,36418,5,12,0:2:0:0:
54,288,36519,1,0,0:0:0:0:
80,286,36620,2,0,P|98:272|105:249,1,35,4|0,2:0|0:0,0:0:0:0:
83,193,36821,1,2,0:2:0:0:
18,67,37023,6,0,L|6:116,1,35,4|0,2:0|0:0,0:0:0:0:
90,181,37224,2,0,L|85:146,1,35,12|0,0:2|0:0,0:0:0:0:
154,48,37426,6,0,P|193:42|241:83,1,105,2|0,0:2|0:0,0:0:0:0:
235,142,37829,2,0,P|202:133|181:105,1,70,10|0,0:2|0:0,0:0:0:0:
300,101,38131,1,0,0:0:0:0:
295,114,38232,1,2,0:2:0:0:
149,36,38434,6,0,L|143:12,4,17.5,0|0|0|0|10,0:0|0:0|0:0|0:0|0:2,0:0:0:0:
173,118,38837,1,0,0:0:0:0:
57,239,39038,6,0,P|49:278|85:323,1,70,10|0,0:2|0:0,0:0:0:0:
111,269,39341,1,0,0:0:0:0:
52,311,39441,2,0,P|75:336|126:336,1,70
214,379,39844,6,0,P|202:349|205:328,1,35
238,292,40046,1,0,0:0:0:0:
340,370,40248,6,0,P|355:323|341:286,1,70
303,260,40550,1,0,0:0:0:0:
303,260,40651,2,0,P|293:221|307:192,1,70
412,181,41054,5,0,0:0:0:0:
298,125,41255,1,8,2:0:0:0:
244,163,41356,1,0,0:0:0:0:
235,93,41457,1,0,0:0:0:0:
422,175,41658,6,0,L|431:155,4,17.5,0|0|0|0|8,0:0|0:0|0:0|0:0|0:2,0:0:0:0:
348,286,42061,5,0,0:0:0:0:
354,307,42162,1,0,0:0:0:0:
363,326,42263,2,0,P|385:334|412:330,1,35,2|0,0:2|0:0,0:0:0:0:
302,212,42465,5,0,0:0:0:0:
263,223,42565,1,0,0:0:0:0:
226,234,42666,1,0,0:0:0:0:
287,144,42868,1,0,0:0:0:0:
388,230,43069,1,0,0:0:0:0:
262,321,43271,5,2,0:2:0:0:
203,305,43372,1,0,0:0:0:0:
144,285,43472,1,0,0:0:0:0:
193,384,43674,1,0,0:0:0:0:
335,288,43875,1,2,0:2:0:0:
219,163,44077,5,0,0:0:0:0:
141,184,44177,1,0,0:0:0:0:
67,206,44278,1,0,0:0:0:0:
158,95,44480,1,8,2:0:0:0:
272,226,44682,1,0,0:0:0:0:
29,310,44883,5,0,0:0:0:0:
69,323,44984,1,0,0:0:0:0:
110,336,45085,1,0,0:0:0:0:
39,384,45286,1,0,0:0:0:0:
0,203,45488,6,0,P|11:166|49:146,1,70,2|0,0:2|0:0,0:0:0:0:
104,143,45790,1,0,0:0:0:0:
104,143,45891,2,0,P|140:121|148:83,1,70
124,34,46294,1,0,0:0:0:0:
213,149,46495,6,0,L|336:136,1,105,2|0,0:2|0:0,0:0:0:0:
329,147,46899,1,0,0:0:0:0:
368,40,47100,2,0,P|321:58|272:23,1,105,2|0,0:2|0:0,0:0:0:0:
277,18,47503,1,0,0:0:0:0:
266,161,47705,1,8,2:0:0:0:
397,109,47906,1,0,0:0:0:0:
210,90,48108,5,0,0:0:0:0:
171,146,48209,1,0,0:0:0:0:
186,209,48309,1,8,0:2:0:0:
239,246,48410,1,0,0:0:0:0:
303,239,48511,1,0,0:0:0:0:
363,265,48612,1,0,0:0:0:0:
379,328,48712,5,2,0:2:0:0:
501,187,48914,1,0,0:0:0:0:
484,127,49015,1,0,0:0:0:0:
466,66,49116,1,0,0:0:0:0:
382,339,49317,5,0,0:0:0:0:
303,239,49519,1,0,0:0:0:0:
320,179,49620,1,0,0:0:0:0:
338,118,49721,1,2,0:2:0:0:
385,350,49922,5,0,0:0:0:0:
510,194,50123,1,0,0:0:0:0:
297,232,50325,1,0,0:0:0:0:
231,240,50426,1,0,0:0:0:0:
164,248,50526,1,0,0:0:0:0:
388,360,50728,5,0,0:0:0:0:
498,182,50929,1,0,0:0:0:0:
432,174,51030,1,0,0:0:0:0:
365,166,51130,1,0,0:0:0:0:
390,367,51333,5,0,0:0:0:0:
294,240,51534,1,0,0:0:0:0:
342,234,51634,1,0,0:0:0:0:
390,228,51735,1,0,0:0:0:0:
