osu file format v14

[General]
AudioFilename: Forest of Illusion.mp3
AudioLeadIn: 0
PreviewTime: 15203
Countdown: 0
SampleSet: Soft
StackLeniency: 0.3
Mode: 0
LetterboxInBreaks: 0
WidescreenStoryboard: 0

[Editor]
DistanceSpacing: 1.4
BeatDivisor: 4
GridSize: 4
TimelineZoom: 1

[Metadata]
Title:MAP5(Mayoi no Mori)
TitleUnicode:MAP5(迷いの森)
Artist:Koji Kondo
ArtistUnicode:近藤浩治
Creator:MoodyRPG
Version:Normal
Source:SUPER MARIO WORLD
Tags:super nintendo snes smw gero まよいのもり forest of illusion
BeatmapID:882094
BeatmapSetID:405859

[Difficulty]
HPDrainRate:4
CircleSize:4
OverallDifficulty:4
ApproachRate:5
SliderMultiplier:1
SliderTickRate:1

[Events]
//Background and Video events
0,0,"ForestOfIllusion.png",0,0
//Break Periods
//Storyboard Layer 0 (Background)
//Storyboard Layer 1 (Fail)
//Storyboard Layer 2 (Pass)
//Storyboard Layer 3 (Foreground)
//Storyboard Sound Samples

[TimingPoints]
85,472.44094488189,4,2,0,30,1,0
11423,-100,4,2,0,40,0,0
15203,-100,4,2,0,50,0,0
22762,-100,4,2,0,30,0,0
26541,-100,4,2,0,40,0,0
30321,-100,4,2,0,50,0,0
34100,-100,4,2,0,50,0,0
34573,-100,4,2,0,40,0,0
35045,-100,4,2,0,30,0,0
35518,-100,4,2,0,20,0,0
35990,-100,4,2,0,15,0,0
36462,-100,4,2,0,10,0,0
36935,-100,4,2,2,5,0,0

[Colours]
Combo1 : 0,255,128
Combo2 : 255,128,0
Combo3 : 255,113,113

[HitObjects]
118,334,85,6,0,L|64:329,1,50,2|0,0:0|0:0,0:0:0:0:
78,260,557,2,0,L|24:254,1,50,2|0,0:0|0:0,0:0:0:0:
12,186,1029,1,0,0:0:0:0:
55,131,1266,2,0,P|94:102|154:94,1,100,2|0,0:0|0:0,0:0:0:0:
205,126,1974,6,0,B|256:134|256:134|316:123,1,100,0|0,3:0|3:0,0:0:0:0:
351,73,2683,1,0,0:0:0:0:
416,97,2919,2,0,P|424:127|428:154,1,50,0|2,3:0|0:0,0:0:0:0:
356,344,3864,6,0,P|348:314|344:287,1,50,2|0,0:0|0:0,0:0:0:0:
294,247,4336,2,0,P|267:247|237:252,1,50,2|0,0:0|0:0,0:0:0:0:
190,295,4809,1,0,0:0:0:0:
125,267,5045,2,0,P|80:262|18:287,1,100,2|2,0:0|0:0,0:0:0:0:
5,211,5754,6,0,L|1:104,1,100,0|0,3:0|3:0,0:0:0:0:
51,62,6462,1,0,0:0:0:0:
117,83,6699,2,0,P|144:86|175:82,1,50,0|2,3:0|0:0,0:0:0:0:
221,286,7644,6,0,L|168:296,2,50,2|0|0,0:0|0:0|0:0,0:0:0:0:
292,286,8352,2,0,L|345:296,2,50,2|0|0,0:0|0:0|0:0,0:0:0:0:
257,225,9061,1,2,0:0:0:0:
339,111,9533,6,0,L|389:93,2,50,2|0|0,0:0|0:0|0:0,0:0:0:0:
301,51,10242,2,0,L|310:-7,2,50,2|0|0,0:0|0:0|0:0,0:0:0:0:
256,105,10951,1,2,0:0:0:0:
173,218,11423,6,0,L|123:236,2,50,2|0|0,0:0|0:0|0:0,0:0:0:0:
211,278,12132,2,0,L|202:336,2,50,2|0|0,0:0|0:0|0:0,0:0:0:0:
256,224,12841,1,2,0:0:0:0:
314,263,13077,1,0,0:0:0:0:
366,310,13313,6,0,B|430:358|496:304|496:304|461:231|500:148,1,300
390,62,15203,5,2,0:0:0:0:
316,186,15675,2,0,L|294:136,1,50,0|2,0:0|0:0,0:0:0:0:
263,78,16147,1,0,0:0:0:0:
263,78,16384,2,0,P|210:81|155:51,1,100,2|0,0:0|0:0,0:0:0:0:
108,25,17092,6,0,P|55:23|9:46,1,100,0|0,3:0|3:0,0:0:0:0:
39,107,17801,1,0,0:0:0:0:
103,134,18037,2,0,P|117:157|125:179,1,50,0|2,3:0|0:0,0:0:0:0:
21,359,18982,6,0,P|28:335|42:315,1,50,2|0,0:0|0:0,0:0:0:0:
96,269,19455,2,0,P|118:255|144:248,1,50,2|0,0:0|0:0,0:0:0:0:
206,271,19927,1,0,0:0:0:0:
260,314,20163,2,0,L|366:309,1,100,2|2,0:0|0:0,0:0:0:0:
413,263,20872,6,0,P|386:224|386:167,1,100,0|0,3:0|3:0,0:0:0:0:
431,120,21581,1,0,0:0:0:0:
396,60,21817,2,0,P|371:50|347:48,1,50,0|2,3:0|0:0,3:0:0:0:
152,110,22762,6,0,L|141:56,2,50,2|0|0,0:0|0:0|0:0,0:0:0:0:
103,160,23470,2,0,L|112:214,2,50,2|0|0,0:0|0:0|0:0,0:0:0:0:
55,108,24179,1,2,0:0:0:0:
49,253,24651,6,0,L|-3:262,2,50,2|0|0,0:0|0:0|0:0,0:0:0:0:
91,308,25360,2,0,L|70:360,2,50,2|0|0,0:0|0:0|0:0,0:0:0:0:
155,280,26069,1,2,0:0:0:0:
272,204,26541,6,0,L|266:146,2,50,2|0|0,0:0|0:0|0:0,0:0:0:0:
332,239,27250,2,0,L|340:301,2,50,2|0|0,0:0|0:0|0:0,0:0:0:0:
375,183,27959,1,2,0:0:0:0:
404,119,28195,1,0,0:0:0:0:
396,49,28431,6,0,B|332:41|332:41|256:109|180:41|180:41|116:49,1,300
48,172,30321,5,2,0:0:0:0:
142,271,30793,2,0,L|205:274,1,50,0|2,0:0|0:0,0:0:0:0:
241,224,31265,1,0,0:0:0:0:
241,224,31502,2,0,P|294:227|349:197,1,100,2|0,0:0|0:0,0:0:0:0:
396,173,32210,6,0,P|449:171|495:194,1,100,0|0,3:0|3:0,0:0:0:0:
462,254,32919,1,0,0:0:0:0:
398,281,33155,2,0,P|384:304|376:326,1,50,0|2,3:0|0:0,0:0:0:0:
256,192,34100,12,0,36935,0:0:0:0:
