osu file format v14

[General]
AudioFilename: Forest of Illusion.mp3
AudioLeadIn: 0
PreviewTime: 15203
Countdown: 0
SampleSet: Soft
StackLeniency: 0.3
Mode: 0
LetterboxInBreaks: 0
WidescreenStoryboard: 0

[Editor]
DistanceSpacing: 1
BeatDivisor: 4
GridSize: 4
TimelineZoom: 1

[Metadata]
Title:MAP5(Mayoi no Mori)
TitleUnicode:MAP5(迷いの森)
Artist:Koji Kondo
ArtistUnicode:近藤浩治
Creator:MoodyRPG
Version:Hard
Source:SUPER MARIO WORLD
Tags:super nintendo snes smw gero まよいのもり forest of illusion
BeatmapID:882093
BeatmapSetID:405859

[Difficulty]
HPDrainRate:6
CircleSize:4
OverallDifficulty:6
ApproachRate:7
SliderMultiplier:1.6
SliderTickRate:2

[Events]
//Background and Video events
0,0,"ForestOfIllusion.png",0,0
//Break Periods
//Storyboard Layer 0 (Background)
//Storyboard Layer 1 (Fail)
//Storyboard Layer 2 (Pass)
//Storyboard Layer 3 (Foreground)
//Storyboard Sound Samples

[TimingPoints]
85,472.44094488189,4,2,0,30,1,0
11423,-100,4,2,0,40,0,0
15203,-100,4,2,0,50,0,0
22762,-100,4,2,0,30,0,0
26541,-100,4,2,0,40,0,0
30321,-100,4,2,0,50,0,0
34100,-100,4,2,0,50,0,0
34573,-100,4,2,0,40,0,0
35045,-100,4,2,0,30,0,0
35518,-100,4,2,0,20,0,0
35990,-100,4,2,0,15,0,0
36462,-100,4,2,0,10,0,0
36935,-100,4,2,2,5,0,0

[Colours]
Combo1 : 0,255,128
Combo2 : 255,128,0
Combo3 : 255,113,113

[HitObjects]
401,26,85,5,2,0:0:0:0:
401,26,203,1,0,0:0:0:0:
401,26,321,1,0,0:0:0:0:
468,68,557,1,2,0:0:0:0:
468,68,675,1,0,0:0:0:0:
468,68,793,1,0,0:0:0:0:
398,106,1029,1,0,0:0:0:0:
363,178,1266,2,0,P|340:250|367:327,1,160,2|0,0:0|0:0,0:0:0:0:
438,291,1974,6,0,P|471:272|520:267,1,80,0|0,3:0|0:0,0:0:0:0:
367,327,2447,2,0,P|331:347|285:351,1,80,0|0,3:0|0:0,0:0:0:0:
219,319,2919,1,0,3:0:0:0:
142,297,3155,2,0,P|195:242|271:261,1,160,0|0,3:0|0:0,0:0:0:0:
321,198,3864,6,0,L|375:203,2,40,2|0|0,0:0|0:0|0:0,0:0:0:0:
273,133,4336,2,0,L|299:94,2,40,2|0|0,0:0|0:0|0:0,0:0:0:0:
194,148,4809,1,0,0:0:0:0:
143,80,5045,2,0,P|82:33|3:42,1,160,2|2,0:0|0:0,0:0:0:0:
18,120,5754,6,0,L|26:204,1,80,0|0,3:0|0:0,0:0:0:0:
98,323,6226,2,0,L|91:244,1,80,0|0,3:0|0:0,0:0:0:0:
163,209,6699,1,0,3:0:0:0:
163,209,6935,2,0,L|180:371,1,160,0|0,3:0|0:0,0:0:0:0:
256,341,7644,6,0,B|291:363|291:363|331:363,1,80,2|0,0:0|0:0,0:0:0:0:
382,303,8116,1,0,0:0:0:0:
427,237,8352,2,0,B|465:237|465:237|500:259,2,80,2|0|0,0:0|0:0|0:0,0:0:0:0:
359,193,9061,2,0,B|321:193|321:193|286:171,1,80,2|0,0:0|0:0,0:0:0:0:
230,118,9533,1,2,0:0:0:0:
230,118,9770,6,0,P|196:99|148:93,1,80
102,36,10242,1,2,0:0:0:0:
20,167,10478,2,0,P|43:134|83:112,1,80
136,167,10951,2,0,L|159:248,1,80,2|0,0:0|0:0,0:0:0:0:
255,284,11423,5,2,0:0:0:0:
255,284,11659,2,0,L|226:198,1,80
254,131,12132,1,2,0:0:0:0:
316,181,12368,2,0,L|342:258,1,80
382,325,12840,1,0,0:0:0:0:
454,291,13077,1,2,0:0:0:0:
476,214,13313,1,0,0:0:0:0:
462,135,13549,6,0,B|399:56|339:107|257:20|257:20|172:107|114:55|51:134,1,480,2|0,0:0|0:0,0:0:0:0:
15,207,15203,5,2,0:0:0:0:
15,207,15321,1,0,0:0:0:0:
15,207,15439,1,0,0:0:0:0:
40,282,15675,1,2,0:0:0:0:
40,282,15793,1,0,0:0:0:0:
40,282,15911,1,0,0:0:0:0:
115,256,16147,1,0,0:0:0:0:
149,328,16384,2,0,P|203:309|213:209,1,160,2|2,0:0|0:0,0:0:0:0:
204,137,17092,6,0,B|182:104|182:104|144:90,1,80,0|0,3:0|0:0,0:0:0:0:
308,137,17565,2,0,B|330:104|330:104|368:90,1,80,0|0,3:0|0:0,0:0:0:0:
336,16,18037,1,0,3:0:0:0:
336,16,18273,2,0,L|169:16,1,160,0|0,3:0|0:0,0:0:0:0:
98,37,18982,5,2,0:0:0:0:
93,48,19100,1,0,0:0:0:0:
87,58,19218,1,0,0:0:0:0:
27,112,19455,1,2,0:0:0:0:
30,123,19573,1,0,0:0:0:0:
34,134,19691,1,0,0:0:0:0:
97,180,19927,1,0,0:0:0:0:
46,241,20163,2,0,P|122:253|175:192,1,160,2|2,0:0|0:0,0:0:0:0:
195,121,20872,6,0,B|195:93|188:81|188:81|196:67|196:37,1,80,0|0,3:0|0:0,0:0:0:0:
314,43,21344,2,0,B|314:67|322:81|322:81|315:93|315:121,1,80,0|0,3:0|0:0,0:0:0:0:
257,176,21817,1,0,3:0:0:0:
187,231,22053,2,0,B|226:239|256:269|256:269|282:240|332:232,1,160,0|0,3:0|0:0,0:0:0:0:
392,187,22762,6,0,L|478:209,1,80,2|0,0:0|0:0,0:0:0:0:
492,284,23234,1,0,0:0:0:0:
438,343,23470,2,0,L|362:320,1,80,2|0,0:0|0:0,0:0:0:0:
332,244,23943,1,0,0:0:0:0:
256,221,24179,2,0,P|229:188|189:169,1,80,2|0,0:0|0:0,0:0:0:0:
118,189,24651,6,0,L|32:211,1,80,2|0,0:0|0:0,0:0:0:0:
20,284,25123,1,0,0:0:0:0:
74,343,25359,2,0,L|150:320,1,80,2|0,0:0|0:0,0:0:0:0:
175,243,25832,1,0,0:0:0:0:
256,221,26069,2,0,P|283:188|323:169,1,80,2|0,0:0|0:0,0:0:0:0:
317,91,26541,6,0,L|356:12,2,80,2|0|0,0:0|0:0|0:0,0:0:0:0:
195,91,27250,2,0,L|156:12,2,80,2|0|0,0:0|0:0|0:0,0:0:0:0:
146,154,27959,1,0,0:0:0:0:
126,231,28195,1,2,0:0:0:0:
181,288,28431,1,0,0:0:0:0:
181,288,28667,6,0,B|257:376|400:310|391:193|288:159|202:227|234:339|391:352|433:243,1,480,2|0,0:0|0:0,0:0:0:0:
484,181,30321,5,2,0:0:0:0:
480,169,30439,1,0,0:0:0:0:
475,157,30557,1,0,0:0:0:0:
402,122,30793,1,2,0:0:0:0:
398,110,30911,1,0,0:0:0:0:
393,98,31029,1,0,0:0:0:0:
328,50,31266,1,0,0:0:0:0:
260,92,31502,2,0,B|230:133|230:133|268:181|238:242,1,160,2|0,0:0|0:0,0:0:0:0:
174,191,32210,6,0,P|136:190|85:213,1,80,0|0,3:0|0:0,0:0:0:0:
5,326,32683,2,0,P|15:288|36:254,1,80,0|0,3:0|0:0,0:0:0:0:
191,268,33155,1,0,3:0:0:0:
191,268,33392,2,0,P|117:277|79:347,1,160,0|0,3:0|0:0,0:0:0:0:
256,192,34100,12,0,36935,0:0:0:0:
