osu file format v14

[General]
AudioFilename: Forest of Illusion.mp3
AudioLeadIn: 0
PreviewTime: 15203
Countdown: 0
SampleSet: Soft
StackLeniency: 0.3
Mode: 0
LetterboxInBreaks: 0
WidescreenStoryboard: 0

[Editor]
Bookmarks: 85,36935
DistanceSpacing: 1.2
BeatDivisor: 4
GridSize: 4
TimelineZoom: 1

[Metadata]
Title:MAP5(Mayoi no Mori)
TitleUnicode:MAP5(迷いの森)
Artist:Koji Kondo
ArtistUnicode:近藤浩治
Creator:MoodyRPG
Version:Gero's Maze
Source:SUPER MARIO WORLD
Tags:super nintendo snes smw gero まよいのもり forest of illusion
BeatmapID:882092
BeatmapSetID:405859

[Difficulty]
HPDrainRate:7
CircleSize:4
OverallDifficulty:7
ApproachRate:8
SliderMultiplier:1.6
SliderTickRate:2

[Events]
//Background and Video events
0,0,"ForestOfIllusion.png",0,0
//Break Periods
//Storyboard Layer 0 (Background)
//Storyboard Layer 1 (Fail)
//Storyboard Layer 2 (Pass)
//Storyboard Layer 3 (Foreground)
//Storyboard Sound Samples

[TimingPoints]
85,472.44094488189,4,2,0,30,1,0
11423,-100,4,2,0,40,0,0
15203,-100,4,2,0,60,0,0
22762,-100,4,2,0,40,0,0
24533,-100,4,2,0,5,0,0
24651,-100,4,2,0,40,0,0
26423,-100,4,2,0,5,0,0
26541,-100,4,2,0,40,0,0
30321,-100,4,2,0,60,0,0
34100,-100,4,2,0,50,0,0
34573,-100,4,2,0,40,0,0
35045,-100,4,2,0,30,0,0
35518,-100,4,2,0,20,0,0
35990,-100,4,2,0,15,0,0
36462,-100,4,2,0,10,0,0
36935,-100,4,2,2,5,0,0

[Colours]
Combo1 : 0,255,128
Combo2 : 255,128,0
Combo3 : 255,113,113

[HitObjects]
40,331,85,6,0,L|12:359,2,40,2|0|0,0:0|0:0|0:0,0:0:0:0:
107,264,557,2,0,L|135:236,2,40,2|0|0,0:0|0:0|0:0,0:0:0:0:
174,332,1029,1,2,0:0:0:0:
107,264,1266,2,0,P|77:192|107:120,1,160
145,32,1974,6,0,P|107:20|69:31,1,80,0|0,3:0|0:0,0:0:0:0:
218,93,2447,2,0,P|256:104|293:92,1,80,0|0,3:0|0:0,0:0:0:0:
367,32,2919,1,0,3:0:0:0:
434,99,3155,2,0,L|368:244,1,160,0|0,3:0|0:0,0:0:0:0:
299,312,3864,6,0,B|279:315|279:315|259:312,2,40,2|0|0,0:0|0:0|0:0,0:0:0:0:
366,379,4336,2,0,B|386:376|386:376|406:379,2,40,2|0|0,0:0|0:0|0:0,0:0:0:0:
299,312,4809,1,2,0:0:0:0:
368,244,5045,2,0,B|416:244|416:244|476:244|504:184,1,160
412,74,5754,6,0,B|397:111|397:111|412:148,2,80,0|0|0,3:0|0:0|3:0,0:0:0:0:
479,6,6462,1,0,0:0:0:0:
412,74,6699,1,0,3:0:0:0:
344,6,6935,2,0,B|276:6|276:6|257:18|257:18|188:18,1,160,0|0,3:0|0:0,0:0:0:0:
118,89,7644,6,0,B|106:105|102:125|102:125|106:145|118:161,1,80,2|0,0:0|0:0,0:0:0:0:
208,124,8116,1,0,0:0:0:0:
294,213,8352,2,0,B|272:213|256:203|256:203|240:213|218:213,1,80,2|0,0:0|0:0,0:0:0:0:
304,124,8825,1,0,0:0:0:0:
394,89,9061,2,0,B|406:105|410:125|410:125|406:145|394:161,1,80,2|0,0:0|0:0,0:0:0:0:
461,229,9533,6,0,B|449:245|445:265|445:265|449:285|461:301,1,80,2|0,0:0|0:0,0:0:0:0:
376,348,10006,1,0,0:0:0:0:
218,301,10242,2,0,B|256:289|256:289|294:301,1,80,2|0,0:0|0:0,0:0:0:0:
136,348,10714,1,0,0:0:0:0:
51,301,10951,2,0,B|63:285|67:265|67:265|63:245|51:229,1,80,2|0,0:0|0:0,0:0:0:0:
118,161,11423,6,0,P|88:89|118:17,1,160,2|0,0:0|0:0,0:0:0:0:
184,88,12132,2,0,P|212:160|183:232,1,160,2|0,0:0|0:0,0:0:0:0:
118,161,12840,1,2,0:0:0:0:
182,233,13077,2,0,L|262:233,1,80,0|2,0:0|0:0,0:0:0:0:
340,180,13549,6,2,P|168:232|340:284,1,480,0|0,0:0|0:0,0:0:0:0:
262,233,15203,5,2,0:0:0:0:
256,227,15321,1,0,0:0:0:0:
250,221,15439,1,0,0:0:0:0:
340,180,15675,1,2,0:0:0:0:
334,174,15793,1,0,0:0:0:0:
328,168,15911,1,0,0:0:0:0:
406,115,16147,1,2,0:0:0:0:
328,60,16384,2,0,L|172:92,1,160
79,131,17092,6,0,B|64:94|64:94|79:57,1,80,0|0,3:0|0:0,0:0:0:0:
4,192,17565,2,0,B|19:229|19:229|4:266,1,80,0|0,3:0|0:0,0:0:0:0:
79,327,18037,1,0,3:0:0:0:
156,268,18273,2,0,B|200:244|248:260|248:260|312:280,1,160,0|0,3:0|0:0,0:0:0:0:
368,194,18982,5,2,0:0:0:0:
376,197,19100,1,0,0:0:0:0:
384,200,19218,1,0,0:0:0:0:
299,125,19455,1,2,0:0:0:0:
291,122,19573,1,0,0:0:0:0:
283,119,19691,1,0,0:0:0:0:
366,57,19927,1,2,0:0:0:0:
433,124,20163,2,0,B|433:192|433:192|421:211|421:211|421:280,1,160
384,372,20872,6,0,P|422:384|460:373,1,80,0|0,3:0|0:0,0:0:0:0:
421,280,21345,2,0,P|384:269|346:282,1,80,0|0,3:0|0:0,0:0:0:0:
384,372,21817,1,0,3:0:0:0:
346,282,22053,2,0,L|406:134,1,160,0|0,3:0|0:0,0:0:0:0:
293,67,22762,6,0,P|256:54|219:67,1,80,2|0,0:0|0:0,0:0:0:0:
151,134,23234,1,0,0:0:0:0:
219,201,23470,2,0,P|256:214|293:201,1,80,2|0,0:0|0:0,0:0:0:0:
361,134,23943,1,0,0:0:0:0:
428,200,24179,2,0,L|359:298,1,120,2|0,0:0|3:0,0:0:0:0:
383,348,24651,6,0,B|355:320|355:320|316:320,1,80,2|0,0:0|0:0,0:0:0:0:
256,244,25124,1,0,0:0:0:0:
196,320,25360,2,0,B|157:320|157:320|128:348,1,80,2|0,0:0|0:0,0:0:0:0:
59,280,25833,1,0,0:0:0:0:
126,212,26069,2,0,P|145:156|126:100,1,120,2|0,0:0|3:0,0:0:0:0:
162,68,26541,6,0,B|146:56|126:52|126:52|106:56|90:68,2,80,2|0|0,0:0|0:0|0:0,0:0:0:0:
256,116,27250,2,0,L|256:36,2,80,2|0|0,0:0|0:0|0:0,0:0:0:0:
350,68,27959,2,0,B|366:56|386:52|386:52|406:56|422:68,2,80,2|0|2,0:0|0:0|0:0,0:0:0:0:
384,156,28667,6,2,B|324:256|172:216|160:100|256:48|352:100|340:216|188:256|128:156,1,480,0|0,0:0|0:0,0:0:0:0:
59,223,30321,6,0,B|39:220|39:220|19:223,2,40,2|0|0,0:0|0:0|0:0,0:0:0:0:
128,156,30793,2,0,B|148:159|148:159|168:156,2,40,2|0|0,0:0|0:0|0:0,0:0:0:0:
59,223,31266,1,2,0:0:0:0:
126,290,31502,2,0,B|205:290|205:290|263:348,1,160
330,279,32210,6,0,B|342:263|346:243|346:243|342:223|330:207,1,80,0|0,3:0|0:0,0:0:0:0:
397,138,32683,2,0,B|385:122|381:102|381:102|385:82|397:66,1,80,0|0,3:0|0:0,0:0:0:0:
485,103,33155,1,0,3:0:0:0:
397,66,33392,2,0,L|240:99,1,160,0|0,3:0|0:0,0:0:0:0:
172,167,34100,5,0,0:0:0:0:
256,192,34218,12,0,36935,0:0:0:0:
