osu file format v14

[General]
AudioFilename: audio.mp3
AudioLeadIn: 0
PreviewTime: 3853
Countdown: 0
SampleSet: Soft
StackLeniency: 0.7
Mode: 0
LetterboxInBreaks: 0
WidescreenStoryboard: 1

[Editor]
DistanceSpacing: 2
BeatDivisor: 4
GridSize: 4
TimelineZoom: 1

[Metadata]
Title:MAP4(Native Star)
TitleUnicode:MAP4(ネイティブスター)
Artist:Koji Kondo
ArtistUnicode:近藤浩治
Creator:MoodyRPG
Version:Dax's Cha Cha Cha
Source:SUPER MARIO WORLD
Tags:daxmasterix super nintendo snes smw star road
BeatmapID:1402715
BeatmapSetID:662679

[Difficulty]
HPDrainRate:7
CircleSize:4
OverallDifficulty:8
ApproachRate:8
SliderMultiplier:2
SliderTickRate:1

[Events]
//Background and Video events
0,0,"cha_cha_chax.jpg",0,0
//Break Periods
//Storyboard Layer 0 (Background)
//Storyboard Layer 1 (Fail)
//Storyboard Layer 2 (Pass)
//Storyboard Layer 3 (Foreground)
//Storyboard Sound Samples

[TimingPoints]
71,472.770967741933,4,2,0,30,1,0
3853,-100,4,2,0,40,0,0
7635,-100,4,2,0,45,0,0
10944,-100,4,1,2,50,0,0
11417,-100,4,2,0,60,0,0
22291,-100,4,1,2,60,0,0
22764,-100,4,2,0,60,0,0
24418,-100,4,2,0,30,0,0
25837,-100,4,2,0,20,0,0
26546,-100,4,2,0,15,0,0
28437,-100,4,2,2,10,0,0

[Colours]
Combo1 : 128,255,0
Combo2 : 0,255,128
Combo3 : 0,225,225
Combo4 : 128,128,255

[HitObjects]
112,304,71,6,0,L|212:296,1,100
311,287,543,1,2,0:0:0:0:
257,202,780,1,0,0:0:0:0:
257,202,1016,6,0,B|199:148|211:64|211:64|247:32,1,200,0|2,0:0|0:2,0:0:0:0:
315,105,1725,2,0,B|373:159|361:243|361:243|325:275,1,200
225,287,2434,5,2,0:0:0:0:
156,214,2671,2,0,L|172:116,1,100
108,305,3144,1,0,0:0:0:0:
61,322,3380,1,2,0:0:0:0:
14,340,3616,1,0,0:0:0:0:
210,300,3853,6,0,L|286:362,1,100
311,266,4325,1,2,0:0:0:0:
411,271,4562,1,0,0:0:0:0:
411,271,4798,6,0,B|441:211|445:127|445:127|485:171,1,200,0|2,0:0|0:0,0:0:0:0:
460,36,5507,2,0,B|396:57|334:113|334:113|336:54,1,200
244,20,6217,5,2,0:0:0:0:
152,60,6453,2,0,B|108:93|52:77,1,100
108,272,6926,1,0,0:0:0:0:
61,255,7162,1,2,0:0:0:0:
28,218,7398,1,0,0:0:0:0:
196,328,7635,6,0,L|288:288,1,100
380,248,8108,1,2,0:0:0:0:
376,348,8344,1,0,0:0:0:0:
376,348,8580,6,0,B|461:338|477:262|477:262|473:206,1,200,0|2,0:0|0:0,0:0:0:0:
448,108,9290,2,0,B|380:64|320:152|244:92,1,200
172,44,9999,1,2,0:0:0:0:
107,179,10235,1,2,0:0:0:0:
42,314,10471,1,2,0:0:0:0:
338,192,10944,5,0,0:3:0:0:
42,314,11417,6,0,P|90:326|138:314,1,100
181,223,11890,1,2,0:0:0:0:
81,223,12126,1,0,0:0:0:0:
81,223,12363,6,0,B|29:175|61:107|61:107|101:95|121:67,1,200,0|2,0:0|0:0,0:0:0:0:
221,67,13072,2,0,B|241:95|281:107|281:107|313:175|261:223,1,200
172,267,13781,5,2,0:0:0:0:
255,322,14017,2,0,P|308:335|352:327,1,100
172,267,14490,1,0,0:0:0:0:
124,254,14726,1,2,0:0:0:0:
75,261,14963,1,0,0:0:0:0:
261,223,15199,6,0,P|298:183|313:141,1,100
261,55,15672,1,2,0:0:0:0:
208,141,15908,1,0,0:0:0:0:
208,141,16145,6,0,B|165:175|165:175|101:135|25:159,1,200,0|2,0:0|0:0,0:0:0:0:
60,328,16854,2,0,B|139:317|180:254|180:254|233:266,1,200
320,216,17563,5,2,0:0:0:0:
325,316,17799,2,0,B|375:333|375:333|407:292,1,100
484,112,18272,1,0,0:0:0:0:
457,66,18509,1,2,0:0:0:0:
413,42,18745,1,0,0:0:0:0:
214,59,18981,6,0,P|166:83|118:83,1,100
30,40,19454,1,2,0:0:0:0:
37,140,19690,1,0,0:0:0:0:
37,140,19927,6,0,B|10:223|94:251|54:331,1,200,0|2,0:0|0:0,0:0:0:0:
154,331,20636,2,0,B|114:251|198:223|171:140,1,200
106,63,21345,1,2,0:0:0:0:
253,33,21582,1,0,0:0:0:0:
400,63,21818,1,2,0:0:0:0:
256,348,22291,5,0,0:3:0:0:
400,63,22764,6,0,P|428:111|436:155,1,100
423,253,23236,1,2,0:0:0:0:
342,194,23473,1,0,0:0:0:0:
342,194,23709,6,0,B|292:237|292:237|232:197|164:225,1,200,0|2,0:0|0:0,0:0:0:0:
110,309,24418,2,0,B|66:281|58:221|58:221|74:129,1,200
100,31,25127,5,2,0:0:0:0:
175,97,25364,2,0,L|274:102,1,100
462,30,25837,1,0,0:0:0:0:
471,79,26073,1,2,0:0:0:0:
481,128,26309,1,0,0:0:0:0:
256,192,26546,12,0,30091,0:0:0:0:
