osu file format v14

[General]
AudioFilename: audio.mp3
AudioLeadIn: 0
PreviewTime: 3853
Countdown: 0
SampleSet: Soft
StackLeniency: 0.7
Mode: 0
LetterboxInBreaks: 0
WidescreenStoryboard: 1

[Editor]
DistanceSpacing: 1
BeatDivisor: 4
GridSize: 4
TimelineZoom: 1

[Metadata]
Title:MAP4(Native Star)
TitleUnicode:MAP4(ネイティブスター)
Artist:Koji Kondo
ArtistUnicode:近藤浩治
Creator:MoodyRPG
Version:Hard
Source:SUPER MARIO WORLD
Tags:daxmasterix super nintendo snes smw star road
BeatmapID:1402717
BeatmapSetID:662679

[Difficulty]
HPDrainRate:6
CircleSize:4
OverallDifficulty:7
ApproachRate:7
SliderMultiplier:1.7
SliderTickRate:1

[Events]
//Background and Video events
0,0,"cha_cha_chax.jpg",0,0
//Break Periods
//Storyboard Layer 0 (Background)
//Storyboard Layer 1 (Fail)
//Storyboard Layer 2 (Pass)
//Storyboard Layer 3 (Foreground)
//Storyboard Sound Samples

[TimingPoints]
71,472.770967741933,4,2,0,30,1,0
3853,-100,4,2,0,40,0,0
7635,-100,4,2,0,45,0,0
10944,-100,4,1,2,50,0,0
11181,-100,4,2,0,50,0,0
22291,-100,4,1,2,50,0,0
22527,-100,4,2,0,50,0,0
24418,-100,4,2,0,30,0,0
25837,-100,4,2,0,20,0,0
26546,-100,4,2,0,15,0,0
28437,-100,4,2,2,10,0,0

[Colours]
Combo1 : 128,255,0
Combo2 : 0,255,128
Combo3 : 0,225,225
Combo4 : 128,128,255

[HitObjects]
72,37,71,6,0,P|113:37|162:52,1,85,2|0,0:0|0:0,0:0:0:0:
230,88,543,2,0,P|261:118|280:155,1,85,2|0,0:0|0:0,0:0:0:0:
206,198,1016,2,0,P|154:145|61:129,1,170,2|0,0:0|0:0,0:0:0:0:
0,255,1725,6,0,P|52:308|145:324,1,170,2|2,0:0|0:0,0:0:0:0:
219,362,2434,1,0,0:0:0:0:
294,321,2671,2,0,P|302:276|289:232,1,85,0|2,0:0|0:0,0:0:0:0:
431,161,3144,2,0,P|391:175|349:175,1,85
286,117,3616,1,0,0:0:0:0:
286,117,3853,6,0,P|276:68|282:27,1,85,2|0,0:0|0:0,0:0:0:0:
362,11,4325,2,0,L|458:17,1,85,2|0,0:0|0:0,0:0:0:0:
489,90,4798,2,0,B|508:172|508:172|491:258,1,170,2|0,0:0|0:0,0:0:0:0:
354,348,5507,6,0,B|335:266|335:266|352:180,1,170,2|2,0:0|0:0,0:0:0:0:
303,111,6217,1,0,0:0:0:0:
227,150,6453,2,0,P|182:154|137:135,1,85,0|2,0:0|0:0,0:0:0:0:
7,65,6926,2,0,P|49:61|89:75,1,85
38,143,7398,1,0,0:0:0:0:
164,221,7635,6,0,P|178:260|173:302,1,85,2|0,0:0|0:0,0:0:0:0:
110,360,8108,1,2,0:0:0:0:
28,336,8344,1,0,0:0:0:0:
21,255,8580,2,0,P|88:202|170:226,1,170,2|0,0:0|0:0,0:0:0:0:
347,221,9290,2,0,P|427:202|491:255,1,170,2|0,0:0|0:0,0:0:0:0:
477,144,9999,2,0,P|438:130|391:130,1,85,2|2,0:0|0:0,0:0:0:0:
310,114,10471,1,2,0:0:0:0:
257,275,10944,1,0,0:0:0:0:
94,223,11417,6,0,P|77:186|81:134,1,85,2|0,0:0|0:0,0:0:0:0:
107,62,11890,1,2,0:0:0:0:
190,76,12126,1,0,0:0:0:0:
191,161,12363,2,0,B|255:215|255:215|326:161,1,170,2|0,0:0|0:0,0:0:0:0:
476,265,13072,6,0,B|411:213|411:213|342:266,1,170,2|2,0:0|0:0,0:0:0:0:
369,346,13781,1,2,0:0:0:0:
369,346,14017,2,0,B|409:360|409:360|452:345,2,85,0|2|0,0:0|0:0|0:0,0:0:0:0:
342,265,14726,1,2,0:0:0:0:
282,326,14963,1,0,0:0:0:0:
134,310,15199,6,0,L|49:351,1,85,2|0,0:0|0:0,0:0:0:0:
22,269,15672,2,0,L|107:228,1,85,2|0,0:0|0:0,0:0:0:0:
173,185,16145,2,0,P|205:113|151:47,1,170,2|0,0:0|0:0,0:0:0:0:
78,81,16854,6,0,L|240:7,1,170,2|2,0:0|0:0,0:0:0:0:
301,84,17563,1,2,0:0:0:0:
301,84,17799,1,0,0:0:0:0:
375,241,18036,1,2,0:0:0:0:
375,241,18272,1,0,0:0:0:0:
485,103,18509,1,2,0:0:0:0:
485,103,18746,1,0,0:0:0:0:
485,103,18981,6,0,L|494:193,1,85,2|0,0:0|0:0,0:0:0:0:
438,252,19454,2,0,L|447:337,1,85,2|0,0:0|0:0,0:0:0:0:
364,185,19927,2,0,B|313:200|313:254|313:254|313:338,1,170,2|0,0:0|0:0,0:0:0:0:
199,330,20636,6,0,B|199:254|199:254|199:200|148:185,1,170,2|2,0:0|0:0,0:0:0:0:
256,138,21345,2,0,L|256:53,2,85,2|0|2,0:0|0:0|0:0,0:0:0:0:
255,308,22291,1,0,0:0:0:0:
256,138,22764,5,2,0:0:0:0:
217,213,23000,1,0,0:0:0:0:
299,233,23236,1,2,0:0:0:0:
255,308,23473,1,0,0:0:0:0:
299,233,23709,2,0,L|476:248,1,170,2|0,0:0|0:0,0:0:0:0:
503,324,24418,6,0,P|467:246|508:177,1,170,2|2,0:0|0:0,0:0:0:0:
434,131,25127,1,2,0:0:0:0:
435,45,25364,2,0,P|478:39|520:72,1,85,0|2,0:0|0:0,0:0:0:0:
434,131,25837,2,0,P|391:137|349:104,1,85,0|2,0:0|0:0,0:0:0:0:
288,66,26309,1,0,0:0:0:0:
256,192,26546,12,0,30091,0:0:0:0:
